#VERSION:0.83;
#TITLE:Send It Up;
#SUBTITLE:;
#ARTIST:Spice;
#TITLETRANSLIT:;
#SUBTITLETRANSLIT:;
#ARTISTTRANSLIT:;
#GENRE:Popular Songs;
#ORIGIN:;
#CREDIT:;
#BANNER:Send It Up.png;
#BACKGROUND:Send It Up-bg.png;
#PREVIEWVID:;
#JACKET:Send It Up-jacket.png;
#CDIMAGE:;
#DISCIMAGE:;
#LYRICSPATH:;
#CDTITLE:../cdtitle.png;
#MUSIC:Send It Up.ogg;
#OFFSET:2.168000;
#SAMPLESTART:5.178000;
#SAMPLELENGTH:15.000000;
#SELECTABLE:YES;
#BPMS:0.000=98.000;
#STOPS:;
#DELAYS:;
#WARPS:;
#TIMESIGNATURES:0.000=4=4;
#TICKCOUNTS:0.000=4;
#COMBOS:0.000=1;
#SPEEDS:0.000=1.000=0.000=0;
#SCROLLS:0.000=1.000;
#FAKES:;
#LABELS:0.000=Song Start;
#BGCHANGES:4.000=Send It Up.avi=1.000=0=0=0=StretchNoLoop====,
99999=-nosongbg-=1.000=0=0=0 // don't automatically add -songbackground-
;
#KEYSOUNDS:;
#ATTACKS:
;

//---------------dance-single - ----------------
#NOTEDATA:;
#CHARTNAME:;
#STEPSTYPE:dance-single;
#DESCRIPTION:;
#CHARTSTYLE:;
#DIFFICULTY:Beginner;
#METER:1;
#RADARVALUES:0.069816,0.081720,0.000000,0.048070,0.000000,61.000000,61.000000,0.000000,6.000000,0.000000,0.000000,0.000000,0.000000,0.000000,0.069816,0.081720,0.000000,0.048070,0.000000,61.000000,61.000000,0.000000,6.000000,0.000000,0.000000,0.000000,0.000000,0.000000;
#CREDIT:led_light;
#NOTES:
0000
0000
0000
0000
,
0000
0000
0000
0000
,
0000
0000
0000
0000
,
0010
0000
0000
0000
,
0010
0000
0000
0000
,
0010
0000
0000
0000
,
0100
0000
0100
0000
,
0010
0000
0000
0000
,
0010
0000
0000
0000
,
0010
0000
0000
0000
,
0100
0000
0100
0000
,
0100
0000
0000
0000
,
1000
0000
0000
0000
,
0001
0000
0000
0000
,
0010
0000
0010
0000
,
0010
0000
0000
0000
,
1000
0000
0000
0000
,
0001
0000
0000
0000
,
0100
0000
0100
0000
,
0200
0000
0300
0000
,
0200
0000
0300
0000
,
2000
0000
3000
0000
,
0010
0000
0010
0000
,
0010
0000
0000
0000
,
0010
0000
0000
0000
,
0010
0000
0000
0000
,
0100
0000
0100
0000
,
0010
0000
0000
0000
,
0010
0000
0000
0000
,
0010
0000
0000
0000
,
0100
0000
0100
0000
,
0100
0000
0000
0000
,
0001
0000
0000
0000
,
1000
0000
0000
0000
,
0010
0000
0010
0000
,
0010
0000
0000
0000
,
0001
0000
0000
0000
,
1000
0000
0000
0000
,
0100
0000
0100
0000
,
0200
0000
0300
0000
,
0200
0000
0300
0000
,
0002
0000
0003
0000
,
0010
0000
0010
0000
,
0010
0000
0000
0000
,
0010
0000
0000
0000
,
0010
0000
0000
0000
,
0100
0000
0100
0000
,
0010
0000
0000
0000
,
0010
0000
0000
0000
,
0010
0000
0000
0000
,
0100
0000
0100
0000
,
0010
0000
0000
0000
;

//---------------dance-single - ----------------
#NOTEDATA:;
#CHARTNAME:;
#STEPSTYPE:dance-single;
#DESCRIPTION:;
#CHARTSTYLE:;
#DIFFICULTY:Challenge;
#METER:13;
#RADARVALUES:0.556243,0.551608,0.384563,0.064094,0.480704,486.000000,438.000000,48.000000,8.000000,100.000000,0.000000,0.000000,0.000000,0.000000,0.556243,0.551608,0.384563,0.064094,0.480704,486.000000,438.000000,48.000000,8.000000,100.000000,0.000000,0.000000,0.000000,0.000000;
#CREDIT:led_light;
#NOTES:
0000
0000
0000
0000
,
0000
0000
0000
0000
,
0000
0000
0000
0000
,
0010
0001
0010
0001
0010
0001
0010
0001
0010
0000
0100
1000
0010
0000
MMMM
0000
,
0010
1000
0010
1000
0010
1000
0010
1000
0010
0000
0100
0001
0010
0000
MMMM
0000
,
0010
0100
0010
0100
0010
0100
0010
0100
0010
0000
0001
0100
0010
0000
1000
0000
,
1100
0000
0101
0000
1100
0100
0101
1000
,
0010
1000
0010
1000
0010
1000
0010
1000
0010
0000
0100
0001
0010
0000
MMMM
0000
,
0010
0001
0010
0001
0010
0001
0010
0001
0010
0000
0100
1000
0010
0000
MMMM
0000
,
0010
0100
0010
0100
0010
0100
0010
0100
0010
0000
1000
0100
0010
0000
0001
0000
,
0101
0000
1100
0000
0110
0010
1001
0001
,
1000
0100
1000
0000
0001
0000
0100
0000
0001
0000
1000
0000
0100
0000
0000
0000
,
0001
0100
0001
0000
1000
0000
0010
0000
1000
0000
0001
0000
0100
0000
0000
0000
,
1000
0000
0100
0010
0100
0000
0001
0000
0100
0010
0100
0000
1000
0000
0100
0000
,
0101
0101
1100
0110
,
1000
0000
0100
0010
0100
0000
0010
0000
0001
0100
0001
0000
1000
0000
0000
0000
,
0001
0100
0001
0000
1000
0000
0100
0000
1000
0100
0010
0000
0001
0000
0000
0000
,
0001
0000
1000
0100
1000
0000
0001
0000
0100
0010
0100
0000
0001
0000
0010
0000
,
0110
0000
MMMM
0000
0101
0000
MMMM
0000
1100
0000
0100
0000
0010
0001
0100
0010
,
2000
0000
0000
0000
3100
0000
0100
0000
0001
0100
0001
0000
1000
0100
1000
0000
,
0020
0000
0000
0000
0130
0000
0100
0000
1000
0100
1000
0000
0100
0010
0001
0000
,
2000
0000
0000
0000
3010
0000
0010
0000
0001
0010
0001
0000
1100
0000
0000
0000
,
0110
MMMM
1010
MMMM
0011
MMMM
0110
MMMM
,
0010
1000
0010
1000
0010
1000
0010
1000
0010
0000
0100
0001
0010
0000
MMMM
0000
,
0010
0001
0010
0001
0010
0001
0010
0001
0010
0000
0100
1000
0010
0000
MMMM
0000
,
0010
0100
0010
0100
0010
0100
0010
0100
0010
0000
1000
0100
0010
0000
0001
0000
,
0101
0000
1100
0000
0101
0100
1100
0001
,
0010
0001
0010
0001
0010
0001
0010
0001
0010
0000
0100
1000
0010
0000
MMMM
0000
,
0010
1000
0010
1000
0010
1000
0010
1000
0010
0000
0100
0001
0010
0000
MMMM
0000
,
0010
0100
0010
0100
0010
0100
0010
0100
0010
0000
0001
0100
0010
0000
1000
0000
,
1100
0000
0101
0000
0110
0010
1001
1000
,
0002
0000
0103
0000
1000
0100
0001
0000
,
2000
0000
3100
0000
0001
0100
1000
0000
,
1000
0100
0001
0000
0001
0010
1000
0000
,
0011
0011
1010
0110
,
0001
0000
0100
0010
0100
0000
0010
0000
1000
0100
1000
0000
0001
0000
0000
0000
,
1000
0100
1000
0000
0001
0000
0100
0000
0001
0100
0010
0000
1000
0000
0000
0000
,
1000
0000
0001
0100
0001
0000
1000
0000
0100
0010
0100
0000
1000
0000
0010
0000
,
0110
0000
MMMM
0000
1100
0000
MMMM
0000
0101
0000
0100
0000
0010
1000
0100
0010
,
0002
0000
0000
0000
0103
0000
0100
0000
1000
0100
1000
0000
0001
0100
0001
0000
,
0020
0000
0000
0000
0130
0000
0100
0000
0001
0100
0001
0000
0100
0010
1000
0000
,
0002
0000
0000
0000
0013
0000
0010
0000
1000
0010
1000
0000
0101
0000
0000
0000
,
0110
MMMM
0011
MMMM
1010
MMMM
0110
MMMM
,
0010
0001
0010
0001
0010
0001
0010
0001
0010
0000
0100
1000
0010
0000
MMMM
0000
,
0010
1000
0010
1000
0010
1000
0010
1000
0010
0000
0100
0001
0010
0000
MMMM
0000
,
0010
0100
0010
0100
0010
0100
0010
0100
0010
0000
0001
0100
0010
0000
1000
0000
,
1100
0000
0101
0000
1100
0100
0101
1000
,
0010
1000
0010
1000
0010
1000
0010
1000
0010
0000
0100
0001
0010
0000
MMMM
0000
,
0010
0001
0010
0001
0010
0001
0010
0001
0010
0000
0100
1000
0010
0000
MMMM
0000
,
0010
0100
0010
0100
0010
0100
0010
0100
0010
0000
1000
0100
0010
0000
0001
0000
,
0101
0000
1100
0000
0110
0010
1001
0001
,
MMMM
0000
0000
0000
;

//---------------dance-single - ----------------
#NOTEDATA:;
#CHARTNAME:;
#STEPSTYPE:dance-single;
#DESCRIPTION:;
#CHARTSTYLE:;
#DIFFICULTY:Easy;
#METER:2;
#RADARVALUES:0.138488,0.143009,0.192281,0.048070,0.000000,121.000000,97.000000,24.000000,6.000000,0.000000,0.000000,0.000000,0.000000,0.000000,0.138488,0.143009,0.192281,0.048070,0.000000,121.000000,97.000000,24.000000,6.000000,0.000000,0.000000,0.000000,0.000000,0.000000;
#CREDIT:led_light;
#NOTES:
0000
0000
0000
0000
,
0000
0000
0000
0000
,
0000
0000
0000
0000
,
0100
0000
0010
0000
,
0100
0000
0010
0000
,
0100
0000
0010
0000
,
0110
0000
0110
0000
,
0100
0000
0010
0000
,
0100
0000
0010
0000
,
0100
0000
0010
0000
,
0110
0000
0110
0000
,
1000
0000
1000
0000
,
0001
0000
0001
0000
,
0010
0000
0010
0000
,
0110
0000
0110
0000
,
0001
0000
0001
0000
,
1000
0000
1000
0000
,
0100
0000
0100
0000
,
0110
0000
0110
0000
,
0200
0300
0100
0000
,
0002
0003
0001
0000
,
0020
0030
0010
0000
,
1010
0000
0011
0000
,
0100
0000
0010
0000
,
0100
0000
0010
0000
,
0100
0000
0010
0000
,
0110
0000
0110
0000
,
0100
0000
0010
0000
,
0100
0000
0010
0000
,
0100
0000
0010
0000
,
0110
0000
0110
0000
,
0001
0000
0001
0000
,
1000
0000
1000
0000
,
0010
0000
0010
0000
,
0110
0000
0110
0000
,
1000
0000
1000
0000
,
0001
0000
0001
0000
,
0100
0000
0100
0000
,
0110
0000
0110
0000
,
0200
0300
0100
0000
,
2000
3000
1000
0000
,
0020
0030
0010
0000
,
0011
0000
1010
0000
,
0100
0000
0010
0000
,
0100
0000
0010
0000
,
0100
0000
0010
0000
,
0110
0000
0110
0000
,
0100
0000
0010
0000
,
0100
0000
0010
0000
,
0100
0000
0010
0000
,
0110
0000
0110
0000
,
0100
0000
0000
0000
;

//---------------dance-single - ----------------
#NOTEDATA:;
#CHARTNAME:;
#STEPSTYPE:dance-single;
#DESCRIPTION:;
#CHARTSTYLE:;
#DIFFICULTY:Hard;
#METER:9;
#RADARVALUES:0.397153,0.408598,0.488715,0.144211,0.000000,347.000000,286.000000,61.000000,18.000000,0.000000,0.000000,0.000000,0.000000,0.000000,0.397153,0.408598,0.488715,0.144211,0.000000,347.000000,286.000000,61.000000,18.000000,0.000000,0.000000,0.000000,0.000000,0.000000;
#CREDIT:led_light;
#NOTES:
0000
0000
0000
0000
,
0000
0000
0000
0000
,
0000
0000
0000
0000
,
0010
0010
0001
0001
0010
1000
0010
0000
,
0010
0010
0001
0001
0010
1000
0010
0000
,
0010
0010
0100
0100
0010
0100
0010
0001
,
1001
0000
1100
0000
1001
0001
0101
0000
,
0010
0010
1000
1000
0010
0001
0010
0000
,
0010
0010
1000
1000
0010
0001
0010
0000
,
0010
0010
0100
0100
0010
0100
0010
1000
,
1001
0000
1100
0000
0011
0001
0101
0001
,
1000
0100
0001
0100
1000
0100
0001
0000
,
1000
0010
0001
0010
1000
0010
0001
0000
,
1000
0100
1100
0000
0001
0100
0101
0000
,
1010
1010
0011
0011
,
0100
1000
0010
1000
0100
0001
0100
0000
,
0010
0001
0100
0001
0010
1000
0010
0000
,
0001
0010
0011
0000
1000
0010
1010
0000
,
0101
0101
1100
1100
,
2002
0000
3003
0000
0001
0100
0001
0000
,
2200
0000
3300
0000
0100
1000
0100
0000
,
2020
0000
3030
0000
1000
0010
0001
0000
,
1100
1100
0101
1010
,
0010
0010
1000
1000
0010
0001
0010
0000
,
0010
0010
1000
1000
0010
0001
0010
0000
,
0010
0010
0100
0100
0010
0100
0010
1000
,
1001
0000
0101
0000
1001
1000
1100
0000
,
0010
0010
0001
0001
0010
1000
0010
0000
,
0010
0010
0001
0001
0010
1000
0010
0000
,
0010
0010
0100
0100
0010
0100
0010
0001
,
1001
0000
0101
0000
1010
1000
1100
1000
,
0002
0103
2000
3100
,
0002
0013
2000
3010
,
0002
0103
0020
1030
,
1100
1100
0101
0101
,
0010
1000
0100
1000
0010
0001
0010
0000
,
0100
0001
0010
0001
0100
1000
0100
0000
,
0001
0100
0101
0000
1000
0100
1100
0000
,
0011
0011
1010
1010
,
2002
0000
3003
0000
0001
0010
0001
0000
,
2020
0000
3030
0000
0010
1000
0010
0000
,
2200
0000
3300
0000
1000
0100
0001
0000
,
1010
1010
0011
1100
,
0010
0010
0001
0001
0010
1000
0010
0000
,
0010
0010
0001
0001
0010
1000
0010
0000
,
0010
0010
0100
0100
0010
0100
0010
0001
,
1001
0000
1100
0000
1001
0001
0101
0000
,
0010
0010
1000
1000
0010
0001
0010
0000
,
0010
0010
1000
1000
0010
0001
0010
0000
,
0010
0010
0100
0100
0010
0100
0010
1000
,
1001
0000
1100
0000
0011
0001
0101
0001
,
1001
0000
0000
0000
;

//---------------dance-single - ----------------
#NOTEDATA:;
#CHARTNAME:;
#STEPSTYPE:dance-single;
#DESCRIPTION:;
#CHARTSTYLE:;
#DIFFICULTY:Medium;
#METER:6;
#RADARVALUES:0.275832,0.306449,0.336493,0.144211,0.000000,241.000000,199.000000,42.000000,18.000000,0.000000,0.000000,0.000000,0.000000,0.000000,0.275832,0.306449,0.336493,0.144211,0.000000,241.000000,199.000000,42.000000,18.000000,0.000000,0.000000,0.000000,0.000000,0.000000;
#CREDIT:led_light;
#NOTES:
0000
0000
0000
0000
,
0000
0000
0000
0000
,
0000
0000
0000
0000
,
0100
0100
0010
0011
,
0100
0100
0010
1010
,
0100
0100
0010
0100
,
0110
0100
1001
0010
,
0100
0100
0010
1010
,
0100
0100
0010
0011
,
0100
0100
0010
0100
,
0110
0100
1001
0010
,
2000
3100
1000
0100
,
0002
0103
0001
0100
,
0020
0130
0010
0100
,
0110
0100
1001
0010
,
0002
0103
0001
0100
,
0020
1030
0010
1000
,
0200
0310
0100
0010
,
0110
0010
1001
0100
,
2000
0000
3010
0000
1000
0100
0001
0000
,
0002
0000
0013
0000
0001
0100
1000
0000
,
2000
0000
3010
0000
0100
0010
0110
0000
,
0011
0011
1010
1010
,
0100
0100
0010
0011
,
0100
0100
0010
1010
,
0100
0100
0010
0100
,
0110
0100
1001
0010
,
0100
0100
0010
1010
,
0100
0100
0010
0011
,
0100
0100
0010
0100
,
0110
0100
1001
0010
,
0002
0103
0000
0100
,
2000
3100
0000
0100
,
0020
0130
0000
0100
,
0110
0100
1001
0010
,
2000
0000
3100
0000
1000
0001
0100
0000
,
0020
0000
0031
0000
0010
1000
0001
0000
,
0200
0000
0310
0000
0100
0001
0010
0000
,
0110
0010
1001
0100
,
0002
0000
0013
0000
0001
0100
1000
0000
,
2000
0000
3010
0000
1000
0100
0001
0000
,
0002
0000
0013
0000
0100
0010
0110
0000
,
1010
1010
0011
0011
,
0100
0100
0010
1010
,
0100
0100
0010
0011
,
0100
0100
0010
0100
,
0110
0100
1001
0010
,
0100
0100
0010
0011
,
0100
0100
0010
1010
,
0100
0100
0010
0100
,
0110
0100
1001
0010
,
0100
0000
0000
0000
;

//---------------dance-double - ----------------
#NOTEDATA:;
#CHARTNAME:;
#STEPSTYPE:dance-double;
#DESCRIPTION:;
#CHARTSTYLE:;
#DIFFICULTY:Challenge;
#METER:13;
#RADARVALUES:0.545942,0.551608,0.384563,0.064094,0.472692,477.000000,429.000000,48.000000,8.000000,192.000000,0.000000,0.000000,0.000000,0.000000,0.545942,0.551608,0.384563,0.064094,0.472692,477.000000,429.000000,48.000000,8.000000,192.000000,0.000000,0.000000,0.000000,0.000000;
#CREDIT:led_light;
#NOTES:
// measure 0
00000000
00000000
00000000
00000000
,  // measure 1
00000000
00000000
00000000
00000000
,  // measure 2
00000000
00000000
00000000
00000000
,  // measure 3
00010000
00001000
00010000
00001000
00010000
00001000
00010000
00001000
00100000
00000000
00010000
10000000
00100000
00000000
MMMMMMMM
00000000
,  // measure 4
00010000
01000000
00010000
01000000
00010000
01000000
00010000
01000000
00100000
00000000
00010000
00001000
00100000
00000000
MMMMMMMM
00000000
,  // measure 5
00010000
00001000
00010000
00001000
00010000
00001000
00010000
00001000
00000010
00000000
00000100
00001000
00000010
00000000
00001000
00000000
,  // measure 6
00011000
00000000
00001010
00000000
00001100
00000100
00000110
MMMMMMMM
,  // measure 7
00001000
00010000
00001000
00010000
00001000
00010000
00001000
00010000
00000010
00000000
00001000
00000001
00000010
00000000
MMMMMMMM
00000000
,  // measure 8
00001000
00000100
00001000
00000100
00001000
00000100
00001000
00000100
00000010
00000000
00001000
00010000
00000010
00000000
MMMMMMMM
00000000
,  // measure 9
00001000
00010000
00001000
00010000
00001000
00010000
00001000
00010000
00100000
00000000
01000000
00010000
00100000
00000000
00010000
00000000
,  // measure 10
00011000
00000000
00110000
00000000
00011000
00010000
01010000
00100000
,  // measure 11
10000000
01000000
10000000
00000000
00010000
00000000
00100000
00000000
00010000
00000000
10000000
00000000
00100000
00000000
00000000
00000000
,  // measure 12
01000000
00010000
01000000
00000000
00001000
00000000
00010000
00000000
00000100
00000000
00010000
00000000
00001000
00000000
00000000
00000000
,  // measure 13
00100000
00000000
00001000
00010000
00001000
00000000
01000000
00000000
00001000
00010000
00001000
00000000
00010000
00000000
00000100
00000000
,  // measure 14
00011000
00001010
00011000
00001010
,  // measure 15
00010000
00000000
00001000
00100000
00001000
00000000
00010000
00000000
01000000
00000000
10000000
00000000
00010000
00000000
00000000
00000000
,  // measure 16
10000000
01000000
10000000
00000000
00010000
00000000
01000000
00000000
00100000
00010000
00001000
00000000
00010000
00000000
00000000
00000000
,  // measure 17
00001000
00000000
00000100
00000001
00000100
00000000
00000001
00000000
00001000
00000100
00000010
00000000
00000001
00000000
00001000
00000000
,  // measure 18
00001100
00000000
00000000
00000000
00011000
00000000
00000000
00000000
00001100
00000000
00000100
00000000
00000001
00001000
00000010
00000001
,  // measure 19
00002000
00000000
00000000
00000000
00003010
00000000
00000010
00000000
00000100
00001000
00010000
00000000
00001000
00010000
01000000
00000000
,  // measure 20
20000000
00000000
00000000
00000000
31000000
00000000
01000000
00000000
10000000
00100000
00010000
00000000
00100000
00010000
00001000
00000000
,  // measure 21
00000020
00000000
00000000
00000000
00001030
00000000
00001000
00000000
00000010
00000001
00000010
00000000
00000110
00000000
00000000
00000000
,  // measure 22
00001100
MMMMMMMM
01010000
MMMMMMMM
00001010
MMMMMMMM
00110000
MMMMMMMM
,  // measure 23
00010000
00001000
00010000
00001000
00010000
00001000
00010000
00001000
00100000
00000000
00010000
10000000
00100000
00000000
MMMMMMMM
00000000
,  // measure 24
00010000
01000000
00010000
01000000
00010000
01000000
00010000
01000000
00100000
00000000
00010000
00001000
00100000
00000000
MMMMMMMM
00000000
,  // measure 25
00010000
00001000
00010000
00001000
00010000
00001000
00010000
00001000
00000010
00000000
00000100
00001000
00000010
00000000
00001000
00000000
,  // measure 26
00011000
00000000
00001010
00000000
00001100
00000100
00000110
MMMMMMMM
,  // measure 27
00001000
00010000
00001000
00010000
00001000
00010000
00001000
00010000
00000010
00000000
00001000
00000001
00000010
00000000
MMMMMMMM
00000000
,  // measure 28
00001000
00000100
00001000
00000100
00001000
00000100
00001000
00000100
00000010
00000000
00001000
00010000
00000010
00000000
MMMMMMMM
00000000
,  // measure 29
00001000
00010000
00001000
00010000
00001000
00010000
00001000
00010000
00100000
00000000
01000000
00010000
00100000
00000000
00010000
00000000
,  // measure 30
00011000
00000000
00110000
00000000
00011000
00010000
01010000
00100000
,  // measure 31
20000000
31000000
00010000
00010000
,  // measure 32
00200000
00310000
00001000
00001000
,  // measure 33
00010000
00001000
00000010
00000100
,  // measure 34
00011000
00110000
00011000
00110000
,  // measure 35
00001000
00000000
00010000
00000010
00010000
00000000
00001000
00000000
00000100
00000000
00000001
00000000
00001000
00000000
00000000
00000000
,  // measure 36
00000001
00000100
00000001
00000000
00001000
00000000
00000100
00000000
00000010
00001000
00010000
00000000
00001000
00000000
00000000
00000000
,  // measure 37
00010000
00000000
01000000
10000000
01000000
00000000
10000000
00000000
00010000
01000000
00100000
00000000
10000000
00000000
00010000
00000000
,  // measure 38
01010000
00000000
00000000
00000000
00011000
00000000
00000000
00000000
01010000
00000000
01000000
00000000
10000000
00010000
00100000
10000000
,  // measure 39
00020000
00000000
00000000
00000000
00130000
00000000
00100000
00000000
01000000
00010000
00001000
00000000
00010000
00001000
00000100
00000000
,  // measure 40
00000002
00000000
00000000
00000000
00000103
00000000
00000100
00000000
00000001
00000010
00001000
00000000
00000010
00001000
00010000
00000000
,  // measure 41
00200000
00000000
00000000
00000000
00310000
00000000
00010000
00000000
00100000
10000000
00100000
00000000
01100000
00000000
00000000
00000000
,  // measure 42
01010000
MMMMMMMM
00001100
MMMMMMMM
00110000
MMMMMMMM
00001010
MMMMMMMM
,  // measure 43
00001000
00010000
00001000
00010000
00001000
00010000
00001000
00010000
00000010
00000000
00001000
00000001
00000010
00000000
MMMMMMMM
00000000
,  // measure 44
00001000
00000100
00001000
00000100
00001000
00000100
00001000
00000100
00000010
00000000
00001000
00010000
00000010
00000000
MMMMMMMM
00000000
,  // measure 45
00001000
00010000
00001000
00010000
00001000
00010000
00001000
00010000
00100000
00000000
01000000
00010000
00100000
00000000
00010000
00000000
,  // measure 46
00011000
00000000
00110000
00000000
01010000
01000000
01100000
MMMMMMMM
,  // measure 47
00010000
00001000
00010000
00001000
00010000
00001000
00010000
00001000
00100000
00000000
00010000
10000000
00100000
00000000
MMMMMMMM
00000000
,  // measure 48
00010000
01000000
00010000
01000000
00010000
01000000
00010000
01000000
00100000
00000000
00010000
00001000
00100000
00000000
MMMMMMMM
00000000
,  // measure 49
00010000
00001000
00010000
00001000
00010000
00001000
00010000
00001000
00000010
00000000
00000100
00001000
00000010
00000000
00001000
00000000
,  // measure 50
00011000
00000000
00001010
00000000
00011000
00001000
00001100
00000010
,  // measure 51
MMMMMMMM
00000000
00000000
00000000
;

//---------------dance-double - ----------------
#NOTEDATA:;
#CHARTNAME:;
#STEPSTYPE:dance-double;
#DESCRIPTION:;
#CHARTSTYLE:;
#DIFFICULTY:Hard;
#METER:9;
#RADARVALUES:0.389141,0.388168,0.432633,0.080117,0.000000,340.000000,286.000000,54.000000,10.000000,0.000000,0.000000,0.000000,0.000000,0.000000,0.389141,0.388168,0.432633,0.080117,0.000000,340.000000,286.000000,54.000000,10.000000,0.000000,0.000000,0.000000,0.000000,0.000000;
#CREDIT:led_light;
#NOTES:
00000000
00000000
00000000
00000000
,
00000000
00000000
00000000
00000000
,
00000000
00000000
00000000
00000000
,
00010000
00010000
00001000
00001000
00100000
00010000
00100000
00000000
,
00001000
00001000
00010000
00010000
00000010
00001000
00000010
00000000
,
00010000
00010000
00001000
00001000
00100000
01000000
00100000
00010000
,
10010000
00000000
11000000
00000000
01010000
00010000
00011000
00000000
,
00010000
00010000
00001000
00001000
00100000
00010000
00100000
00000000
,
00001000
00001000
00010000
00010000
00000010
00001000
00000010
00000000
,
00010000
00010000
00001000
00001000
00100000
01000000
00100000
00010000
,
10010000
00000000
11000000
00000000
01010000
00010000
00011000
00001000
,
00010000
01000000
10000000
01000000
00010000
01000000
10000000
00000000
,
00100000
00010000
00001000
00010000
00100000
00010000
00001000
00000000
,
00010000
00000100
00001100
00000000
00000100
00010000
00011000
00000000
,
00001010
00001010
00000011
00000011
,
00001000
00000010
00000001
00000010
00001000
00000010
00000001
00000000
,
00000100
00001000
00010000
00001000
00000100
00001000
00010000
00000000
,
00001000
00100000
00110000
00000000
00100000
00001000
00011000
00000000
,
01010000
01010000
11000000
11000000
,
00200000
00000000
00300000
00000000
00010000
00100000
00010000
00000000
,
02000000
00000000
03000000
00000000
00001000
00010000
00001000
00000000
,
00020000
00000000
00030000
00000000
00001000
00000010
00000001
00000000
,
00001100
00001100
00000101
00001010
,
00010000
00010000
00001000
00001000
00100000
00010000
00100000
00000000
,
00001000
00001000
00010000
00010000
00000010
00001000
00000010
00000000
,
00010000
00010000
00001000
00001000
00100000
01000000
00100000
00010000
,
10010000
00000000
11000000
00000000
01010000
00010000
00011000
00000000
,
00010000
00010000
00001000
00001000
00100000
00010000
00100000
00000000
,
00001000
00001000
00010000
00010000
00000010
00001000
00000010
00000000
,
00010000
00010000
00001000
00001000
00100000
01000000
00100000
00010000
,
10010000
00000000
11000000
00000000
01010000
00010000
00011000
00001000
,
00020000
01030000
20000000
30100000
,
20000000
31000000
00020000
00031000
,
00100000
00100000
10000000
00100000
,
00110000
00110000
10100000
10100000
,
00010000
00100000
10000000
00100000
00010000
00100000
10000000
00000000
,
01000000
00010000
00001000
00010000
01000000
00010000
00001000
00000000
,
00010000
00000010
00001010
00000000
00000010
00010000
00011000
00000000
,
00001100
00001100
00000101
00000101
,
00000020
00000000
00000030
00000000
00001000
00000010
00001000
00000000
,
00000200
00000000
00000300
00000000
00010000
00001000
00010000
00000000
,
00002000
00000000
00003000
00000000
00010000
00100000
10000000
00000000
,
01010000
01010000
11000000
00110000
,
00001000
00001000
00010000
00010000
00000010
00001000
00000010
00000000
,
00010000
00010000
00001000
00001000
00100000
00010000
00100000
00000000
,
00001000
00001000
00010000
00010000
00000010
00000100
00000010
00001000
,
00001001
00000000
00000101
00000000
00001100
00001000
00011000
00000000
,
00001000
00001000
00010000
00010000
00000010
00001000
00000010
00000000
,
00010000
00010000
00001000
00001000
00100000
00010000
00100000
00000000
,
00001000
00001000
00010000
00010000
00000010
00000100
00000010
00001000
,
00001001
00000000
00000101
00000000
00001100
00001000
00011000
00010000
,
00001000
00000000
00000000
00000000
;

//---------------dance-double - ----------------
#NOTEDATA:;
#CHARTNAME:;
#STEPSTYPE:dance-double;
#DESCRIPTION:;
#CHARTSTYLE:;
#DIFFICULTY:Medium;
#METER:6;
#RADARVALUES:0.265532,0.306449,0.336493,0.072106,0.000000,232.000000,190.000000,42.000000,9.000000,0.000000,0.000000,0.000000,0.000000,0.000000,0.265532,0.306449,0.336493,0.072106,0.000000,232.000000,190.000000,42.000000,9.000000,0.000000,0.000000,0.000000,0.000000,0.000000;
#CREDIT:led_light;
#NOTES:
00000000
00000000
00000000
00000000
,
00000000
00000000
00000000
00000000
,
00000000
00000000
00000000
00000000
,
00010000
00010000
00100000
00110000
,
00001000
00001000
00000010
00001010
,
00000001
00000001
00000010
00000100
,
00011000
00000100
00001100
00010000
,
00001000
00001000
00000010
00001010
,
00010000
00010000
00100000
00110000
,
10000000
10000000
00100000
01000000
,
00011000
01000000
01010000
00001000
,
00010000
00001000
00100000
00001000
,
00010000
00001000
01000000
00001000
,
00010000
00000010
00000010
00001000
,
00001001
00000001
00000110
00000100
,
00001000
00010000
00000010
00010000
,
00001000
00010000
00000100
00010000
,
00001000
00100000
00100000
00010000
,
10010000
10000000
01100000
00010000
,
20000000
00000000
30000000
00000000
10000000
01000000
00010000
00000000
,
00002000
00000000
00003000
00000000
00001000
00000100
00000001
00000000
,
00000020
00000000
00000030
00000000
00000010
00000100
00000110
00000000
,
00001100
00001100
00011000
00011000
,
00001000
00001000
00000010
00001010
,
00010000
00010000
00100000
00110000
,
10000000
10000000
00100000
01000000
,
00011000
01000000
01010000
00001000
,
00010000
00010000
00100000
00110000
,
00001000
00001000
00000010
00001010
,
00000001
00000001
00000010
00000100
,
00011000
00000100
00001100
00010000
,
00002000
00003100
00000000
00000100
,
00020000
01030000
00000000
01000000
,
00002000
00013000
00000000
00010000
,
10010000
10000000
01100000
00010000
,
00001000
00010000
00000010
00010000
,
00001000
00010000
00000100
00010000
,
00001000
00100000
00100000
00010000
,
10010000
10000000
01100000
00010000
,
20000000
00000000
30000000
00000000
10000000
01000000
00010000
00000000
,
00002000
00000000
00003000
00000000
00001000
00000100
00000001
00000000
,
00000020
00000000
00000030
00000000
00000010
00000100
00000110
00000000
,
00001100
00001100
00011000
00011000
,
00001000
00001000
00000010
00001010
,
00010000
00010000
00100000
00110000
,
10000000
10000000
00100000
01000000
,
00011000
01000000
01010000
00001000
,
00010000
00010000
00100000
00110000
,
00001000
00001000
00000010
00001010
,
00000001
00000001
00000010
00000100
,
00011000
00000100
00001100
00010000
,
00001000
00000000
00000000
00000000
;

//---------------dance-double - ----------------
#NOTEDATA:;
#CHARTNAME:;
#STEPSTYPE:dance-double;
#DESCRIPTION:;
#CHARTSTYLE:;
#DIFFICULTY:Easy;
#METER:2;
#RADARVALUES:0.138488,0.143009,0.192281,0.048070,0.000000,121.000000,97.000000,24.000000,6.000000,0.000000,0.000000,0.000000,0.000000,0.000000,0.138488,0.143009,0.192281,0.048070,0.000000,121.000000,97.000000,24.000000,6.000000,0.000000,0.000000,0.000000,0.000000,0.000000;
#CREDIT:led_light;
#NOTES:
00000000
00000000
00000000
00000000
,
00000000
00000000
00000000
00000000
,
00000000
00000000
00000000
00000000
,
00010000
00000000
00000010
00000000
,
00010000
00000000
00000010
00000000
,
00000100
00000000
00000010
00000000
,
00011000
00000000
00011000
00000000
,
00001000
00000000
00100000
00000000
,
00001000
00000000
00100000
00000000
,
01000000
00000000
00100000
00000000
,
00011000
00000000
00011000
00000000
,
00000100
00000000
00000100
00000000
,
00000001
00000000
00000001
00000000
,
00000010
00000000
00000010
00000000
,
00011000
00000000
00011000
00000000
,
00100000
00000000
00100000
00000000
,
10000000
00000000
10000000
00000000
,
01000000
00000000
01000000
00000000
,
01100000
00000000
01100000
00000000
,
00020000
00030000
00010000
00000000
,
20000000
30000000
10000000
00000000
,
00200000
00300000
00100000
00000000
,
10100000
00000000
00110000
00000000
,
00001000
00000000
00100000
00000000
,
00001000
00000000
00100000
00000000
,
01000000
00000000
00100000
00000000
,
00011000
00000000
00011000
00000000
,
00010000
00000000
00000010
00000000
,
00010000
00000000
00000010
00000000
,
00000100
00000000
00000010
00000000
,
00011000
00000000
00011000
00000000
,
01000000
00000000
01000000
00000000
,
10000000
00000000
10000000
00000000
,
00100000
00000000
00100000
00000000
,
00011000
00000000
00011000
00000000
,
00000010
00000000
00000010
00000000
,
00000001
00000000
00000001
00000000
,
00000100
00000000
00000100
00000000
,
00000110
00000000
00000110
00000000
,
00002000
00003000
00001000
00000000
,
00000002
00000003
00000001
00000000
,
00000020
00000030
00000010
00000000
,
00000011
00000000
00001010
00000000
,
00010000
00000000
00000010
00000000
,
00010000
00000000
00000010
00000000
,
00000100
00000000
00000010
00000000
,
00011000
00000000
00011000
00000000
,
00001000
00000000
00100000
00000000
,
00001000
00000000
00100000
00000000
,
01000000
00000000
00100000
00000000
,
00011000
00000000
00011000
00000000
,
00010000
00000000
00000000
00000000
;
