#VERSION:0.83;
#TITLE:Satin Panties;
#SUBTITLE:;
#ARTIST:Kawai Sprite;
#TITLETRANSLIT:;
#SUBTITLETRANSLIT:;
#ARTISTTRANSLIT:;
#GENRE:Friday Night Funkin';
#ORIGIN:;
#CREDIT:;
#BANNER:Satin Panties.png;
#BACKGROUND:../bg.png;
#PREVIEWVID:;
#JACKET:Satin Panties-jacket.png;
#CDIMAGE:;
#DISCIMAGE:;
#LYRICSPATH:;
#CDTITLE:../cdtitle.png;
#MUSIC:Satin Panties.ogg;
#OFFSET:1.635000;
#SAMPLESTART:4.909000;
#SAMPLELENGTH:15.000000;
#SELECTABLE:YES;
#BPMS:0.000=110.000;
#STOPS:;
#DELAYS:;
#WARPS:;
#TIMESIGNATURES:0.000=4=4;
#TICKCOUNTS:0.000=4;
#COMBOS:0.000=1;
#SPEEDS:0.000=1.000=0.000=0;
#SCROLLS:0.000=1.000;
#FAKES:;
#LABELS:0.000=Song Start;
#BGCHANGES: -1.000=Satin Panties.avi=1.000=0=0=0=StretchNoLoop====,
99999=-nosongbg-=1.000=0=0=0 // don't automatically add -songbackground-
;
#KEYSOUNDS:;
#ATTACKS:
;

//---------------dance-single - ----------------
#NOTEDATA:;
#CHARTNAME:;
#STEPSTYPE:dance-single;
#DESCRIPTION:;
#CHARTSTYLE:;
#DIFFICULTY:Hard;
#METER:13;
#RADARVALUES:0.532690,0.555440,0.041431,0.372883,0.528251,360.000000,356.000000,4.000000,36.000000,0.000000,0.000000,0.000000,0.000000,0.000000,0.532690,0.555440,0.041431,0.372883,0.528251,360.000000,356.000000,4.000000,36.000000,0.000000,0.000000,0.000000,0.000000,0.000000;
#CREDIT:led_light;
#NOTES:
// measure 0
0000
0000
0000
0000
,  // measure 1
0000
0000
0000
0000
,  // measure 2
0000
0000
0000
0000
,  // measure 3
1000
0000
0100
0000
1001
0000
0001
0100
0000
0001
0000
0001
0100
0000
0010
1000
,  // measure 4
0001
0000
0001
0000
1001
0000
1000
0100
0000
0100
0000
1000
0100
0010
0001
0000
,  // measure 5
2001
0000
3100
0000
1000
0000
0001
0100
0000
0001
0000
0001
0100
0000
0010
1000
,  // measure 6
0001
0000
0001
0000
1001
0000
1000
0100
0000
0100
0000
1000
0100
0010
0001
0000
,  // measure 7
2000
0000
3010
1000
0010
0000
1000
0001
0020
0000
0030
0100
0010
0000
0001
0000
,  // measure 8
2000
0000
3000
0001
0000
0001
0100
0001
0200
0000
0300
0010
1000
0100
1000
0000
,  // measure 9
0002
0000
0013
0001
0010
0000
0001
1000
0020
0000
0030
0100
0010
0000
1000
0000
,  // measure 10
0002
0000
0003
1000
0000
1000
0100
1000
0200
0000
0300
0010
0001
0100
0001
0000
,  // measure 11
2000
0000
3000
0000
0100
0010
0100
0010
0100
0001
0100
0001
0100
1000
0100
1000
,  // measure 12
0200
0000
0300
0000
0100
0010
0001
1000
0020
0000
0031
0000
0020
0000
1030
0000
,  // measure 13
0002
0000
0000
0000
0203
0000
0000
0000
0310
0000
1000
0001
2000
0000
0000
0000
,  // measure 14
3200
0000
0302
0000
0023
0000
1030
0001
,  // measure 15
1000
0000
0100
0010
0001
0000
1000
0000
0100
0010
0001
0000
0100
0010
1000
0000
,  // measure 16
0001
0000
0100
0001
0100
0000
0001
0000
0010
0100
1000
0100
1000
0100
0010
0001
,  // measure 17
1000
0000
0010
0100
0001
0000
1000
0000
0010
0100
0001
0000
0010
0100
1000
0000
,  // measure 18
0001
0000
0010
0001
0010
0000
0001
0000
0100
0010
1000
0010
1000
0010
0100
0001
,  // measure 19
1000
0001
1000
0000
0100
0000
1000
0000
0001
0100
0001
0000
1000
0010
1000
0000
,  // measure 20
0001
0000
0010
0100
0010
0000
0100
0000
1000
0100
0010
0000
0001
0100
0010
0000
,  // measure 21
1000
0000
0001
1000
0010
0000
1000
0000
0001
0010
0001
0000
1000
0100
1000
0000
,  // measure 22
0001
0000
0100
0010
0100
0000
0010
0000
1000
0010
0100
0000
0001
0010
0100
0000
,  // measure 23
2000
0000
0100
0000
3100
0100
1000
0001
,  // measure 24
0200
0000
0010
0000
0310
0100
0010
0100
,  // measure 25
0002
0000
0100
0000
0103
0100
0001
1000
,  // measure 26
0200
0000
0010
0000
0310
0100
0010
0100
,  // measure 27
2000
0000
3000
0000
0010
0100
0010
0100
0010
0001
0010
0001
0010
1000
0010
1000
,  // measure 28
0020
0000
0030
0000
0010
0100
0001
1000
0200
0000
0301
0000
0200
0000
1300
0000
,  // measure 29
0002
0000
0000
0000
0023
0000
0000
0000
0130
0000
1000
0001
2000
0000
0000
0000
,  // measure 30
3020
0000
0032
0000
0203
0000
1300
0001
,  // measure 31
1000
0000
0010
0100
0001
0000
1000
0000
0010
0100
0001
0000
0010
0100
1000
0000
,  // measure 32
0001
0000
0000
0000
0000
0000
0010
0000
0000
0001
0000
0000
0010
0000
0000
0000
0000
0000
0001
0000
0000
0000
0000
0000
0100
0000
0000
0000
0010
0000
1000
0000
0000
0000
0000
0000
0010
0000
0000
0000
0100
0000
0001
0000
0000
0000
0000
0000
,  // measure 33
1000
0000
0100
0010
0001
0000
1000
0000
0100
0010
0001
0000
0100
0010
1000
0000
,  // measure 34
0001
0000
0000
0000
0000
0000
0100
0000
0000
0001
0000
0000
0100
0000
0000
0000
0000
0000
0001
0000
0000
0000
0000
0000
0010
0000
0000
0000
0100
0000
1000
0000
0000
0000
0000
0000
0100
0000
0000
0000
0010
0000
0001
0000
0000
0000
0000
0000
,  // measure 35
2000
0000
3001
1000
0100
0000
1000
0000
0001
0100
0001
0000
1000
0010
1000
0000
,  // measure 36
0001
0000
0010
0100
0010
0000
0100
0000
1000
0100
0010
0000
0001
0100
0010
0000
,  // measure 37
1000
0000
0001
1000
0010
0000
1000
0000
0001
0010
0001
0000
1000
0100
1000
0000
,  // measure 38
0001
0000
0000
0000
0000
0000
0100
0000
0000
0010
0000
0000
0100
0000
0000
0000
0000
0000
0010
0000
0000
0000
0000
0000
1000
0000
0000
0000
0010
0000
0100
0000
0000
0000
0000
0000
0001
0000
0000
0000
0010
0000
0100
0000
0000
0000
0000
0000
,  // measure 39
2000
0100
3000
0100
,  // measure 40
0000
0001
0000
0001
,  // measure 41
0020
0030
0000
0000
;

//---------------dance-single - ----------------
#NOTEDATA:;
#CHARTNAME:;
#STEPSTYPE:dance-single;
#DESCRIPTION:;
#CHARTSTYLE:;
#DIFFICULTY:Medium;
#METER:8;
#RADARVALUES:0.350688,0.341810,0.000000,0.269304,0.000000,237.000000,237.000000,0.000000,26.000000,0.000000,0.000000,0.000000,0.000000,0.000000,0.350688,0.341810,0.000000,0.269304,0.000000,237.000000,237.000000,0.000000,26.000000,0.000000,0.000000,0.000000,0.000000,0.000000;
#CREDIT:led_light;
#NOTES:
0000
0000
0000
0000
,
0000
0000
0000
0000
,
0000
0000
0000
0000
,
0010
0010
0010
0000
0001
0100
0001
0000
,
0010
0010
0010
0000
1000
0100
1000
0000
,
0001
0001
0001
0000
0100
1000
0100
0000
,
0001
0001
0001
0000
0010
1000
0010
0000
,
0001
0100
0010
0000
2000
0000
3100
0000
,
2000
0000
3010
0000
1000
1000
0001
0000
,
1000
0100
0010
0000
0002
0000
0103
0000
,
0002
0000
0013
0000
0001
0001
1000
0001
,
2000
3000
0100
0100
0010
0010
0100
0010
,
0002
0003
0100
0001
1000
0010
0100
0001
,
2000
0000
3100
0000
0001
0001
0200
0000
,
2300
3020
0032
0023
,
1030
0001
0010
0001
1000
0010
0100
0000
,
1000
0100
0010
1000
0100
0100
0010
0010
,
0001
1000
0010
1000
0001
0010
0100
0000
,
0001
0100
0010
0001
0100
0100
0010
0010
,
1000
0100
0001
0100
1000
1000
0001
0001
,
0000
0100
0010
1000
0001
0010
0100
0010
,
0001
0100
1000
0100
0001
0001
1000
1000
,
0000
0100
0010
0001
1000
0010
0100
0010
,
2000
0000
3100
0000
1000
1000
0010
0000
,
0002
0000
0103
0000
0001
0001
0010
0000
,
2000
0000
3100
0000
0010
0010
0100
0000
,
0002
0000
0103
0000
0010
0010
0100
0000
,
2000
3000
0010
0010
0100
0100
0010
0100
,
0002
0003
0010
0001
1000
0100
0010
0001
,
2000
0000
3010
0000
0001
0001
0020
0000
,
2030
3200
0302
0203
,
1300
0001
0100
0001
1000
0100
0010
0000
,
1000
0010
0100
1000
0010
0010
0100
0100
,
0001
1000
0100
1000
0001
0100
0010
0000
,
0001
0010
0100
0001
0010
0010
0100
0100
,
1000
0010
0001
0010
1000
1000
0001
0001
,
0000
0010
0100
1000
0001
0100
0010
0100
,
0001
0010
1000
0010
0001
0001
1000
1000
,
0000
0010
0100
0001
1000
0100
0010
0100
,
2000
0010
3000
0010
,
0000
0001
0000
0001
,
0020
0030
0000
0000
;

//---------------dance-single - ----------------
#NOTEDATA:;
#CHARTNAME:;
#STEPSTYPE:dance-single;
#DESCRIPTION:;
#CHARTSTYLE:;
#DIFFICULTY:Easy;
#METER:6;
#RADARVALUES:0.251548,0.299083,0.041431,0.186442,0.000000,170.000000,166.000000,4.000000,18.000000,0.000000,0.000000,0.000000,0.000000,0.000000,0.251548,0.299083,0.041431,0.186442,0.000000,170.000000,166.000000,4.000000,18.000000,0.000000,0.000000,0.000000,0.000000,0.000000;
#CREDIT:led_light;
#NOTES:
0000
0000
0000
0000
,
0000
0000
0000
0000
,
0000
0000
0000
0000
,
1000
0100
0001
0000
0100
0000
0100
0000
,
1000
0010
0001
0000
0010
0000
0010
0000
,
1000
0100
0001
0000
0100
0000
0100
0000
,
1000
0010
0001
0000
0010
0000
0010
0000
,
1000
0100
0010
0000
0002
0000
0103
0000
,
0002
0013
2000
3010
,
0001
0010
0100
0000
2000
0000
3010
0000
,
2000
3100
0002
0103
,
2000
3100
0001
0100
,
2000
3010
1000
1000
,
0002
0103
0010
0010
,
2000
3100
0010
0010
,
0001
0100
0001
0000
1000
0000
0100
0000
,
1000
0010
0100
0100
,
0001
0010
0001
0000
1000
0000
0010
0000
,
1000
0100
0010
0010
,
0001
0100
0010
0000
1000
0100
1000
0000
,
0001
0100
0010
0000
1000
0000
0011
0000
,
1000
0100
0010
0000
0001
0100
0001
0000
,
1000
0100
0010
0000
0001
0000
1010
0000
,
0002
0100
0000
0100
,
0003
0100
0000
0100
,
2000
0100
0000
0100
,
3000
0100
0000
0100
,
2000
3010
0001
0010
,
2000
3100
1000
1000
,
0002
0013
0100
0100
,
2000
3010
0100
0100
,
0001
0010
0001
0000
1000
0000
0010
0000
,
1000
0100
0010
0010
,
0001
0100
0001
0000
1000
0000
0100
0000
,
1000
0010
0100
0100
,
0001
0010
0100
0000
1000
0010
1000
0000
,
0001
0010
0100
0000
1000
0000
0101
0000
,
1000
0010
0100
0000
0001
0010
0001
0000
,
1000
0010
0100
0000
0001
0000
1100
0000
,
0002
0100
0003
0100
,
0000
0100
0000
0100
,
0020
0030
0000
0000
;

//---------------dance-single - ----------------
#NOTEDATA:;
#CHARTNAME:;
#STEPSTYPE:dance-single;
#DESCRIPTION:;
#CHARTSTYLE:;
#DIFFICULTY:Beginner;
#METER:1;
#RADARVALUES:0.084343,0.106815,0.000000,0.041431,0.000000,57.000000,57.000000,0.000000,4.000000,0.000000,0.000000,0.000000,0.000000,0.000000,0.084343,0.106815,0.000000,0.041431,0.000000,57.000000,57.000000,0.000000,4.000000,0.000000,0.000000,0.000000,0.000000,0.000000;
#CREDIT:led_light;
#NOTES:
0000
0000
0000
0000
,
0000
0000
0000
0000
,
0000
0000
0000
0000
,
1000
0000
0000
0000
,
1000
0000
0000
0000
,
0001
0000
0000
0000
,
0001
0000
0000
0000
,
1000
0000
1000
0000
,
0100
0000
0010
0000
,
0001
0000
0001
0000
,
0100
0000
0010
0000
,
1000
0000
1000
0000
,
0010
0000
0010
0000
,
0001
0000
0001
0000
,
0100
0000
0100
0000
,
1000
0000
0000
0000
,
1000
0000
0000
0000
,
0001
0000
0000
0000
,
0001
0000
0000
0000
,
1000
0000
0100
0000
,
0001
0000
0100
0000
,
1000
0000
0010
0000
,
0001
0000
0010
0000
,
2000
0000
0000
0000
,
3000
0000
0000
0000
,
0002
0000
0000
0000
,
0003
0000
0000
0000
,
1000
0000
1000
0000
,
0100
0000
0100
0000
,
0001
0000
0001
0000
,
0010
0000
0010
0000
,
1000
0000
0000
0000
,
1000
0000
0000
0000
,
0001
0000
0000
0000
,
0001
0000
0000
0000
,
1000
0000
0010
0000
,
0001
0000
0010
0000
,
1000
0000
0100
0000
,
0001
0000
0100
0000
,
2000
0000
3000
0000
,
1000
0000
0000
0000
,
0002
0003
0000
0000
;

//---------------dance-single - FNF Hard----------------
#NOTEDATA:;
#CHARTNAME:;
#STEPSTYPE:dance-single;
#DESCRIPTION:FNF Hard;
#CHARTSTYLE:;
#DIFFICULTY:Edit;
#METER:14;
#RADARVALUES:0.631830,0.640893,0.000000,0.331452,0.802734,427.000000,427.000000,0.000000,32.000000,0.000000,0.000000,0.000000,0.000000,0.000000,0.631830,0.640893,0.000000,0.331452,0.802734,427.000000,427.000000,0.000000,32.000000,0.000000,0.000000,0.000000,0.000000,0.000000;
#CREDIT:led_light (FNF Hard);
#NOTES:
// measure 0
0000
0000
0000
0000
,  // measure 1
1000
0000
1000
0000
1000
0000
1000
1000
0000
1000
1000
0000
1000
0000
1000
1000
,  // measure 2
0001
0000
0001
0000
0001
0000
0001
0001
0000
0001
0001
0000
0001
0000
0001
0001
,  // measure 3
0000
0000
0010
0000
0001
0000
0010
0001
0000
1000
0000
0010
0001
0000
1000
0001
,  // measure 4
0000
0000
0010
0000
0001
0000
0010
0001
0000
1000
0000
0010
0001
1000
0100
0000
,  // measure 5
0020
0030
0010
0000
0001
0000
0010
0001
0000
1000
0000
0010
0001
0000
1000
0001
,  // measure 6
0000
0000
0010
0000
0001
0000
0010
0001
0000
1000
0000
0010
0001
1000
0100
0000
,  // measure 7
0020
0000
0000
0000
0100
0000
0130
0000
1000
0000
0000
0000
1000
0000
0001
0000
0020
0030
0000
0000
0000
0000
0001
0000
1000
0000
0000
0000
0100
0000
0000
0000
,  // measure 8
0002
0003
0000
0000
0000
0000
1000
0000
0000
0000
1000
0000
1000
0000
1000
0000
0020
0030
0000
0000
0000
0000
0001
0000
1000
0000
0100
0000
1000
0000
0000
0000
,  // measure 9
0020
0000
0000
0000
0100
0000
0130
0000
1000
0000
0000
0000
1000
0000
0001
0000
0020
0030
0000
0000
0000
0000
0001
0000
1000
0000
0000
0000
0100
0000
0000
0000
,  // measure 10
0002
0003
0000
0000
0000
0000
1000
0000
0000
0000
1000
0000
1000
0000
1000
0000
0020
0030
0000
0000
0000
0000
0001
0000
1000
0000
0100
0000
1000
0000
0000
0000
,  // measure 11
0020
0000
0030
0000
0001
0010
0001
0010
1000
0100
1000
0100
1000
0001
1000
0001
,  // measure 12
0200
0000
0300
0000
1000
0001
1000
0001
0010
0000
0001
0000
0001
0000
0100
0000
,  // measure 13
0002
0000
0003
0000
2000
0000
3000
0000
0010
0000
0010
0010
2000
0000
3000
0000
,  // measure 14
0200
0300
0002
0003
0020
0030
1000
0001
,  // measure 15
0200
0000
0010
0301
1000
0000
0100
0000
0001
1000
0001
0000
0001
1000
0100
0000
,  // measure 16
0000
0000
0100
0001
1000
0000
0100
0000
0010
0001
1000
1000
0001
1000
1000
0100
,  // measure 17
0001
0010
0010
0001
1000
0000
0100
0000
0001
1000
0001
0000
0001
1000
0100
0000
,  // measure 18
0000
0000
0100
0001
1000
0000
0100
0000
0010
0001
1000
1000
0001
1000
1000
0100
,  // measure 19
0010
0000
0010
0001
1000
0100
0001
0100
0001
1000
0001
0100
0001
1000
0100
0000
,  // measure 20
1000
0000
0100
0001
1000
0000
0100
0000
0010
0001
1000
1000
0001
1000
1000
0100
,  // measure 21
0010
0000
0010
0001
1000
0100
0001
0100
0001
1000
0001
0100
0001
1000
0100
0000
,  // measure 22
1000
0000
0100
0001
1000
0000
0100
0000
0010
0001
1000
1000
0001
1000
1000
0100
,  // measure 23
0000
0000
0010
0001
1000
0001
1000
0010
0001
0000
0001
0000
0100
0000
1000
0000
,  // measure 24
0000
0000
0001
0100
1000
0001
0010
0000
1000
0000
0010
0000
1000
0000
0100
0000
,  // measure 25
0020
0030
0010
0001
1000
0001
1000
0010
0001
0000
0001
0000
0100
0000
1000
0000
,  // measure 26
0000
0000
0001
0100
1000
0001
0010
0000
1000
0000
0010
0000
1000
0000
0100
0000
,  // measure 27
0020
0000
0030
0000
0001
0010
0001
0010
1000
0100
1000
0100
1000
0001
1000
0001
,  // measure 28
0200
0000
0300
0000
1000
0001
1000
0001
0010
0000
0001
0000
0001
0000
0100
0000
,  // measure 29
2000
0000
3000
0000
0002
0000
0003
0000
0010
0000
0010
0010
0002
0000
0003
0000
,  // measure 30
0200
0300
0002
0003
0020
0030
1000
0001
,  // measure 31
0200
0000
0010
0301
1000
0000
0100
0000
0001
1000
0001
0000
0001
1000
0100
0000
,  // measure 32
0000
0000
0000
0000
0000
0000
0100
0000
0000
0001
0000
0000
1000
0000
0000
0000
0000
0000
0100
0000
0000
0000
0000
0000
0010
0000
1000
0000
0001
0000
1000
0000
0000
0000
1000
0000
0001
0000
1000
0000
0001
0000
0100
0000
0000
0000
1000
0000
,  // measure 33
0200
0000
0310
0001
1000
0000
0100
0000
0001
1000
0001
0000
0001
1000
0100
0000
,  // measure 34
0000
0000
0000
0000
0000
0000
0100
0000
0000
0001
0000
0000
1000
0000
0000
0000
0000
0000
0100
0000
0000
0000
0000
0000
0010
0000
1000
0000
0001
0000
1000
0000
0000
0000
1000
0000
0001
0000
1000
0000
0001
0000
0100
0000
0000
0000
1000
0000
,  // measure 35
0200
0000
0310
0001
1000
0100
0001
0100
0001
1000
0001
0100
0001
1000
0100
0000
,  // measure 36
1000
0000
0100
0001
1000
0000
0100
0000
0010
0001
1000
1000
0001
1000
1000
0100
,  // measure 37
1000
0000
0010
0001
1000
0100
0001
0100
0001
1000
0001
0100
0001
1000
0100
0000
,  // measure 38
1000
0000
0100
0001
1000
0000
0100
0000
0010
0001
1000
1000
0001
1000
1000
0100
,  // measure 39
0002
0000
0010
0003
0001
0000
0010
0001
0000
1000
0000
0010
0001
0000
1000
0001
,  // measure 40
0000
0000
0010
0000
0001
0000
0010
0001
0000
1000
0000
0010
0001
1000
0100
0000
,  // measure 41
0020
0030
0000
0000
;
