#VERSION:0.83;
#TITLE:Satin Panties;
#SUBTITLE:[B-Side Remix];
#ARTIST:JADS;
#TITLETRANSLIT:;
#SUBTITLETRANSLIT:;
#ARTISTTRANSLIT:;
#GENRE:Friday Night Funkin';
#ORIGIN:;
#CREDIT:;
#BANNER:Satin Panties [B-Side Remix].png;
#BACKGROUND:../bg.png;
#PREVIEWVID:;
#JACKET:Satin Panties [B-Side Remix]-jacket.png;
#CDIMAGE:;
#DISCIMAGE:;
#LYRICSPATH:;
#CDTITLE:../cdtitle.png;
#MUSIC:Satin Panties [B-Side Remix].ogg;
#OFFSET:1.814000;
#SAMPLESTART:3.724000;
#SAMPLELENGTH:15.000000;
#SELECTABLE:YES;
#BPMS:0.000=130.000;
#STOPS:;
#DELAYS:;
#WARPS:;
#TIMESIGNATURES:0.000=4=4;
#TICKCOUNTS:0.000=4;
#COMBOS:0.000=1;
#SPEEDS:0.000=1.000=0.000=0;
#SCROLLS:0.000=1.000;
#FAKES:;
#LABELS:0.000=Song Start;
#BGCHANGES: -1.000=Satin Panties [B-Side Remix].avi=1.000=0=0=0=StretchNoLoop====,
99999=-nosongbg-=1.000=0=0=0 // don't automatically add -songbackground-
;
#KEYSOUNDS:;
#ATTACKS:
;

//---------------dance-single - FNF Hard----------------
#NOTEDATA:;
#CHARTNAME:;
#STEPSTYPE:dance-single;
#DESCRIPTION:FNF Hard;
#CHARTSTYLE:;
#DIFFICULTY:Edit;
#METER:17;
#RADARVALUES:0.946098,0.908838,0.000000,0.311046,1.529310,511.000000,511.000000,0.000000,24.000000,0.000000,0.000000,0.000000,0.000000,0.000000,0.946098,0.908838,0.000000,0.311046,1.529310,511.000000,511.000000,0.000000,24.000000,0.000000,0.000000,0.000000,0.000000,0.000000;
#CREDIT:led_light (FNF Hard);
#NOTES:
0000
0000
0000
0000
,
1000
0000
1000
0000
1000
0001
1000
0001
0000
1000
0001
0000
1000
0001
1000
0001
,
1000
0000
1000
0000
1000
0001
1000
0001
0000
1000
0001
0000
1000
0001
1000
0001
,
0000
0000
0001
0010
1000
0000
0001
1000
0000
0100
0000
0010
0001
0010
1000
0100
,
0000
0001
1000
0000
0001
0000
0010
1000
0000
0001
0001
0010
0001
0100
1000
0100
,
0020
0000
0000
0030
1000
0000
0100
0000
0001
0000
0000
0000
1000
0000
0001
0000
0000
0000
0010
0000
0000
0000
0100
0000
1000
0000
0100
0000
0001
0000
0010
0000
,
0000
1000
0001
0000
1000
0000
0100
0001
0000
1000
1000
0100
1000
0010
0001
0010
,
0200
0000
0000
0300
0100
0000
1000
0000
0001
0000
0001
0000
1000
0000
0010
0000
0200
0000
0000
0300
0001
0000
1000
0000
0001
0000
0010
0000
0010
0000
0000
0000
,
2000
0000
0000
0000
3000
0000
0001
0000
0000
0000
1000
0000
0010
0000
0001
0000
0200
0000
0000
0300
0001
0000
1000
0000
0100
0000
1000
0000
0001
0000
0001
0000
,
2000
0000
0000
0000
0010
0000
0001
3000
1000
0000
1000
0000
0001
0000
0100
0000
0020
0000
0000
0030
1000
0000
0001
0000
1000
0000
0100
0000
0100
0000
0000
0000
,
0002
0000
0000
0000
0003
0000
1000
0000
0000
0000
0001
0000
0100
0000
1000
0000
0020
0000
0000
0030
1000
0000
0001
0000
0010
0000
0001
0000
1000
0000
1000
0000
,
0002
0000
0000
0000
0000
0000
0000
0003
0100
0000
1000
0000
0010
0000
1000
0000
0001
0000
1000
0000
0010
0000
1000
0000
0100
0000
1000
0000
0010
0000
1000
0000
,
2000
0000
0000
0000
0000
0000
0000
3000
0100
0000
1000
0000
0001
0000
0010
0000
0001
0000
0000
0000
0100
0000
0000
0000
1000
0000
0000
0000
0010
0000
0000
0000
,
1000
0000
0000
0000
1000
0000
0000
0000
0001
0000
0000
0000
0000
0000
0100
0000
0000
0000
0100
0000
0100
0000
0000
0000
0020
0000
0000
0000
0000
0000
0000
0030
,
2000
0000
0000
0000
0000
0000
0000
3000
0200
0000
0000
0000
0000
0000
0000
0300
0020
0000
0000
0000
0000
0000
0000
0030
0001
0000
0000
0000
0100
0000
0100
0000
,
1000
0010
1000
0010
0001
1000
0100
0100
1000
0001
0100
0100
0001
1000
0001
0010
,
0000
0100
0001
0100
1000
1000
0001
1000
0001
0010
0100
1000
0100
1000
0010
0001
,
0001
0100
0001
0100
1000
0001
0010
0010
0001
1000
0010
0010
1000
0001
1000
0100
,
0000
0010
1000
0010
0001
0001
1000
0001
1000
0100
0010
0001
0010
0001
0100
1000
,
0001
0000
1000
0100
0010
0100
0001
0100
0001
1000
0001
0010
0001
0100
0001
1000
,
0000
0001
0001
1000
0100
0000
1000
0000
0001
0010
0100
1000
0010
0100
1000
0100
,
1000
0000
0001
0010
0100
0010
1000
0010
1000
0001
1000
0100
1000
0010
1000
0001
,
0000
1000
1000
0001
0010
0000
0001
0000
1000
0100
0010
0001
0100
0010
0001
0010
,
0000
0100
0100
1000
0001
0100
0010
1000
0010
0100
0010
0000
0100
1000
0001
0000
,
0000
0100
1000
0001
1000
0010
0001
0001
0010
0000
0100
1000
0001
0000
1000
0000
,
0002
0000
0010
0000
0010
0003
0001
0000
1000
0000
0010
0000
0100
0000
0001
0000
0100
0000
0010
0000
0100
0000
0000
0000
0010
0000
0001
0000
1000
0000
0000
0000
,
0000
0010
0001
1000
0001
0100
1000
1000
0100
0000
0010
0001
1000
0000
0001
0000
,
0002
0000
0000
0000
0000
0000
0000
0003
0100
0000
1000
0000
0010
0000
1000
0000
0001
0000
1000
0000
0010
0000
1000
0000
0100
0000
1000
0000
0010
0000
1000
0000
,
2000
0000
0000
0000
0000
0000
0000
3000
0100
0000
1000
0000
0001
0000
0010
0000
0001
0000
0000
0000
0100
0000
0000
0000
1000
0000
0000
0000
0010
0000
0000
0000
,
1000
0000
0000
0000
1000
0000
0000
0000
0001
0000
0000
0000
0000
0000
0100
0000
0000
0000
0100
0000
0100
0000
0000
0000
0020
0000
0000
0000
0000
0000
0000
0030
,
2000
0000
0000
0000
0000
0000
0000
3000
0200
0000
0000
0000
0000
0000
0000
0300
0020
0000
0000
0000
0000
0000
0000
0030
0001
0000
0000
0000
0100
0000
0100
0000
,
1000
0010
1000
0010
0001
1000
0100
0100
1000
0001
0100
0100
0001
1000
0001
0010
,
0000
0100
0001
0100
1000
1000
0001
1000
0001
0010
0100
1000
0100
1000
0010
0001
,
0001
0100
0001
0100
1000
0001
0010
0010
0001
1000
0010
0010
1000
0001
1000
0100
,
0000
0000
0000
0010
0000
0000
1000
0000
0000
0010
0000
0000
0001
0000
0000
0001
0000
0000
1000
0000
0000
0001
0000
0000
0001
0000
1000
0000
0100
0000
0010
0000
0000
0000
0010
0000
0001
0000
1000
0000
0100
0000
0010
0000
0000
0000
0010
0000
,
1000
0010
1000
0010
0001
1000
0100
0100
1000
0001
0100
0100
0001
1000
0001
0010
,
0000
0100
0001
0100
1000
1000
0001
1000
0001
0010
0100
1000
0100
1000
0010
0001
,
0001
0100
0001
0100
1000
0010
0010
0010
0001
1000
0010
0010
0100
0001
1000
0100
,
0000
0010
1000
0001
0010
0001
1000
0001
1000
0100
0010
0001
0100
0010
0001
1000
,
0020
0000
0031
0010
1000
0000
0001
1000
0000
0100
0000
0010
0001
0010
1000
0100
,
0000
1000
0001
0000
1000
0000
0100
0001
0000
1000
1000
0100
1000
0010
0001
0010
,
0200
0300
0000
0000
;

//---------------dance-single - ----------------
#NOTEDATA:;
#CHARTNAME:;
#STEPSTYPE:dance-single;
#DESCRIPTION:;
#CHARTSTYLE:;
#DIFFICULTY:Hard;
#METER:14;
#RADARVALUES:0.744289,0.694993,0.051841,0.375847,0.913698,402.000000,398.000000,4.000000,29.000000,0.000000,0.000000,0.000000,0.000000,0.000000,0.744289,0.694993,0.051841,0.375847,0.913698,402.000000,398.000000,4.000000,29.000000,0.000000,0.000000,0.000000,0.000000,0.000000;
#CREDIT:led_light;
#NOTES:
0000
0000
0000
0000
,
0000
0000
0000
0000
,
0000
0000
0000
0000
,
0010
0000
0001
0000
0101
0000
0010
0100
0000
0100
0000
0100
0001
0000
1000
0100
,
0010
0000
0001
0000
0101
0000
0010
0100
0000
0100
0000
0010
1000
0001
0010
0000
,
0100
0000
1000
0000
1010
0000
0100
0010
0000
0010
0000
0010
1000
0000
0001
0010
,
0100
0000
1000
0000
1010
0000
0100
0010
0000
0010
0000
0100
0001
1000
0100
0000
,
0020
0000
0031
1000
0100
0000
1000
0001
0200
0000
0310
1000
0001
0100
0001
0000
,
0020
0000
0000
0130
0000
0100
1000
0100
2000
0000
3001
0100
0010
1000
0010
0000
,
0200
0000
0301
1000
0010
0000
1000
0001
0020
0000
0130
1000
0001
0010
0001
0000
,
0200
0000
0000
0310
0000
0010
1000
0010
2000
0000
3001
0010
0100
1000
0100
1000
,
0020
0000
0000
0000
1030
0100
1000
0100
0010
0001
0010
0001
0010
0100
1000
0001
,
0200
0000
0000
0000
0310
1000
0100
0010
0001
0000
0010
0000
0100
0000
1000
0000
,
0002
0000
0000
0000
0203
0000
0000
0310
0000
0010
0010
0000
2000
0000
0000
0000
,
3200
0000
0302
0000
0023
0000
1030
0001
,
0010
0000
0100
1000
0100
0000
1000
0000
0001
0100
0001
0000
0100
0010
0100
0010
,
0000
1000
0100
0010
0001
0000
0010
0000
0100
0010
0100
0000
1000
0100
1000
0000
,
0001
0100
0001
0000
0100
0001
0100
0000
0010
1000
0010
0000
0100
0010
1000
0100
,
0000
0010
0100
0010
0100
0000
0010
0000
0002
0000
0000
0000
0003
0000
0000
0000
,
1000
0000
0100
0010
0100
0000
0010
0000
0001
0100
0010
0000
0100
0001
0100
0002
,
0000
0103
0010
0100
0010
0000
1000
0000
0001
0010
0100
0000
0010
0100
1000
0000
,
0001
0000
0010
0100
0010
0000
0100
0000
1000
0010
0100
0000
0010
1000
0010
2000
,
0000
3010
0100
0010
0100
0000
0001
0000
1000
0100
0010
0000
0100
0010
0001
0100
,
0000
0001
0100
0001
0100
0000
0001
0000
1000
0100
0010
0000
1000
0010
0100
0000
,
1000
0001
1000
0001
0010
0000
0100
0000
1000
0000
1000
0000
0100
0000
0010
0000
,
0100
1000
0010
1000
0010
0000
1000
0000
0001
0010
0100
0000
0001
0100
0010
0000
,
0001
1000
0001
1000
0100
0000
0010
0000
0001
0000
0001
0000
0010
0000
0100
0000
,
0020
0000
0000
0000
0031
0100
0001
0100
0010
1000
0010
1000
0010
0100
0001
1000
,
0200
0000
0000
0000
0310
0001
0100
0010
1000
0000
0010
0000
0100
0000
0001
0000
,
2000
0000
0000
0000
3200
0000
0000
0310
0000
0010
0010
0000
0002
0000
0000
0000
,
0203
0000
2300
0000
3020
0000
0031
1000
,
0010
0000
0100
0001
0100
0000
0001
0000
1000
0100
1000
0000
0100
0010
0100
0010
,
0000
0001
0100
0010
1000
0000
0010
0000
0100
0010
0100
0000
0001
0100
0001
0000
,
1000
0100
1000
0000
0100
1000
0100
0000
0010
0001
0010
0000
0100
0010
0001
0100
,
0000
0000
0000
0010
0000
0000
0100
0000
0000
0010
0000
0000
0100
0000
0000
0000
0000
0000
0010
0000
0000
0000
0000
0000
1000
0000
0000
0000
0100
0000
1000
0000
0000
0000
0000
0000
0100
0000
0000
0000
0010
0000
0100
0000
0000
0000
0000
0000
,
1000
0000
0010
0100
0010
0000
0100
0000
0001
0010
0100
0000
0010
0001
0010
0001
,
0000
0010
0100
0010
0100
0000
1000
0000
0001
0100
0010
0000
0100
0010
1000
0000
,
0001
0000
0100
0010
0100
0000
0010
0000
1000
0100
0010
0000
0100
1000
0100
1000
,
0000
0100
0010
0100
0010
0000
0001
0000
1000
0010
0100
0000
0010
0100
0001
0010
,
0200
0000
0000
0000
1300
0000
0001
0100
0000
0100
0000
0010
1000
0000
0100
1000
,
0000
0000
1000
0000
0010
0000
0100
0010
0000
0010
0000
0100
0001
1000
0100
0000
,
0020
0030
0000
0000
;

//---------------dance-single - ----------------
#NOTEDATA:;
#CHARTNAME:;
#STEPSTYPE:dance-single;
#DESCRIPTION:;
#CHARTSTYLE:;
#DIFFICULTY:Beginner;
#METER:2;
#RADARVALUES:0.124048,0.160383,0.000000,0.064801,0.000000,67.000000,67.000000,0.000000,5.000000,0.000000,0.000000,0.000000,0.000000,0.000000,0.124048,0.160383,0.000000,0.064801,0.000000,67.000000,67.000000,0.000000,5.000000,0.000000,0.000000,0.000000,0.000000,0.000000;
#CREDIT:led_light;
#NOTES:
0000
0000
0000
0000
,
0000
0000
0000
0000
,
0000
0000
0000
0000
,
1000
0000
0000
0000
,
1000
0000
0000
0000
,
0001
0000
0000
0000
,
0001
0000
0000
0000
,
0001
0000
0001
0000
,
0001
0000
0000
0000
,
1000
0000
1000
0000
,
1000
0000
0000
0000
,
0010
0000
0001
0000
,
0010
0000
0001
0000
,
0100
0000
0000
0000
,
0100
0000
0100
0000
,
1000
0000
1000
1000
,
0000
0001
0001
0000
,
0001
0000
0001
0001
,
0000
1000
1000
0000
,
0001
0000
0100
0100
,
0000
0010
0010
0000
,
1000
0000
0100
0100
,
0000
0010
0010
0000
,
0000
0100
0100
0100
,
0000
0001
0001
0000
,
0000
1000
1000
1000
,
0000
0010
0010
0000
,
0100
0000
1000
0000
,
0100
0000
1000
0000
,
0010
0000
0000
0000
,
0010
0000
0010
0000
,
0020
0000
0000
0000
,
0030
0000
0010
0000
,
0200
0000
0000
0000
,
0300
0000
0100
0000
,
0002
0000
0000
0000
,
0003
0000
0001
0000
,
2000
0000
0000
0000
,
3000
0000
1000
0000
,
0000
1000
1000
0000
,
0000
0001
0001
0000
,
0020
0030
0000
0000
;

//---------------dance-single - ----------------
#NOTEDATA:;
#CHARTNAME:;
#STEPSTYPE:dance-single;
#DESCRIPTION:;
#CHARTSTYLE:;
#DIFFICULTY:Easy;
#METER:5;
#RADARVALUES:0.246245,0.267305,0.025921,0.207364,0.000000,133.000000,131.000000,2.000000,16.000000,0.000000,0.000000,0.000000,0.000000,0.000000,0.246245,0.267305,0.025921,0.207364,0.000000,133.000000,131.000000,2.000000,16.000000,0.000000,0.000000,0.000000,0.000000,0.000000;
#CREDIT:led_light;
#NOTES:
0000
0000
0000
0000
,
0000
0000
0000
0000
,
0000
0000
0000
0000
,
0001
1000
0001
0001
,
1000
0001
1000
1000
,
0010
0100
0010
0010
,
0100
0010
0100
0100
,
0001
0010
1000
0010
,
0001
0000
0001
0001
,
1000
0010
0001
0010
,
1000
0000
1000
1000
,
0002
0103
0001
0100
,
0002
0013
0100
0010
,
0001
0000
0001
0101
,
2000
3200
0320
0032
,
1003
0001
0100
0100
,
0000
0010
1000
0100
,
0001
1000
0010
0010
,
0000
0100
0100
0000
,
1000
1000
0100
1000
,
0000
0010
0100
0100
,
0001
0001
0010
0001
,
0000
0100
0010
0010
,
1000
0100
0010
0001
,
0000
0100
0001
0010
,
0001
0100
0010
1000
,
0000
0100
1000
0010
,
2000
3100
1000
0100
,
2000
3010
0100
0010
,
1000
0000
1000
1100
,
0002
0203
0320
2030
,
3002
0100
0000
0100
,
0003
0100
0000
0100
,
2000
0100
0000
0100
,
3000
0100
0000
0100
,
0010
0010
0100
0010
,
0000
0001
0100
1000
,
0100
0100
0010
0100
,
0000
0001
0010
1000
,
0020
0001
0000
0001
,
0030
1000
0000
1000
,
0020
0030
0000
0000
;

//---------------dance-single - ----------------
#NOTEDATA:;
#CHARTNAME:;
#STEPSTYPE:dance-single;
#DESCRIPTION:;
#CHARTSTYLE:;
#DIFFICULTY:Medium;
#METER:8;
#RADARVALUES:0.335115,0.374227,0.077762,0.388808,0.000000,181.000000,175.000000,6.000000,30.000000,0.000000,0.000000,0.000000,0.000000,0.000000,0.335115,0.374227,0.077762,0.388808,0.000000,181.000000,175.000000,6.000000,30.000000,0.000000,0.000000,0.000000,0.000000,0.000000;
#CREDIT:led_light;
#NOTES:
// measure 0
0000
0000
0000
0000
,  // measure 1
0000
0000
0000
0000
,  // measure 2
0000
0000
0000
0000
,  // measure 3
1000
0000
0110
0000
1000
0100
0001
0000
,  // measure 4
1000
0000
0110
0000
1000
0010
0001
0000
,  // measure 5
0001
0000
0110
0000
0001
0010
1000
0000
,  // measure 6
0001
0000
0110
0000
0001
0100
1000
0000
,  // measure 7
1000
0100
1000
0000
2000
0000
3100
0000
,  // measure 8
0002
0013
0200
0310
,  // measure 9
1000
0010
1000
0000
2000
0000
3010
0000
,  // measure 10
0002
0103
0020
0130
,  // measure 11
0002
0010
0100
1003
,  // measure 12
2000
0100
0010
3001
,  // measure 13
0002
0000
0203
0000
0310
0010
0020
0000
,  // measure 14
2030
3200
0302
2003
,  // measure 15
3010
0100
1000
0000
0100
0000
0011
0000
,  // measure 16
0000
0001
0100
0000
0010
0000
1000
0000
,  // measure 17
0100
0010
0001
0000
0010
0000
1100
0000
,  // measure 18
0000
1000
0010
0000
0200
0000
0300
0000
,  // measure 19
0001
0001
0001
0000
0010
0000
0200
0000
,  // measure 20
0300
0000
1000
0000
0010
0100
0010
0000
,  // measure 21
1000
1000
1000
0000
0100
0000
0020
0000
,  // measure 22
0030
0000
0001
0000
0100
0010
0100
0000
,  // measure 23
0000
0001
0010
0000
1000
0000
0010
0000
,  // measure 24
0000
0001
0100
0000
0010
0000
1000
0000
,  // measure 25
0100
1000
0100
0000
0001
0000
0100
0000
,  // measure 26
0000
1000
0010
0000
0100
0000
0001
0000
,  // measure 27
2000
0100
0010
3001
,  // measure 28
0002
0010
0100
1003
,  // measure 29
2000
0000
3020
0000
0130
0100
0200
0000
,  // measure 30
0302
0023
2030
3002
,  // measure 31
0103
0100
0100
0000
1000
0100
0010
0000
,  // measure 32
0000
0001
0100
0000
0010
1000
0100
0000
,  // measure 33
0010
0010
0010
0000
0001
0010
0100
0000
,  // measure 34
0000
1000
0010
0000
0100
0001
0010
0000
,  // measure 35
0100
1000
0100
0000
0010
0001
0100
0000
,  // measure 36
0000
0010
1000
0000
0001
0100
0010
0000
,  // measure 37
0100
0001
0100
0000
0010
1000
0100
0000
,  // measure 38
0000
0010
0001
0000
1000
0100
0010
0000
,  // measure 39
0002
0100
0000
0103
,  // measure 40
2000
0100
0000
3100
,  // measure 41
0020
0030
0000
0000
;
