#VERSION:0.83;
#TITLE:Sana ako na lang;
#SUBTITLE:(Korean ver. Ver Vermillion);
#ARTIST:Millie Parfait;
#TITLETRANSLIT:;
#SUBTITLETRANSLIT:;
#ARTISTTRANSLIT:;
#GENRE:にじさんじ;
#ORIGIN:;
#CREDIT:;
#BANNER:Sana ako na lang (Korean ver. Ver Vermillion).png;
#BACKGROUND:../bg.png;
#PREVIEWVID:;
#JACKET:Sana ako na lang (Korean ver. Ver Vermillion)-jacket.png;
#CDIMAGE:;
#DISCIMAGE:;
#LYRICSPATH:;
#CDTITLE:../cdtitle.png;
#MUSIC:Sana ako na lang (Korean ver. Ver Vermillion).ogg;
#OFFSET:0.574000;
#SAMPLESTART:2.156000;
#SAMPLELENGTH:15.000000;
#SELECTABLE:YES;
#BPMS:0.000=175.000;
#STOPS:;
#DELAYS:;
#WARPS:;
#TIMESIGNATURES:0.000=4=4;
#TICKCOUNTS:0.000=4;
#COMBOS:0.000=1;
#SPEEDS:0.000=1.000=0.000=0;
#SCROLLS:0.000=1.000;
#FAKES:;
#LABELS:0.000=Song Start;
#BGCHANGES:1.625=Sana ako na lang (Korean ver. Ver Vermillion).avi=1.000=0=0=0=StretchNoLoop====,
99999=-nosongbg-=1.000=0=0=0 // don't automatically add -songbackground-
;
#KEYSOUNDS:;
#ATTACKS:
;

//---------------dance-single - ----------------
#NOTEDATA:;
#CHARTNAME:;
#STEPSTYPE:dance-single;
#DESCRIPTION:;
#CHARTSTYLE:;
#DIFFICULTY:Beginner;
#METER:2;
#RADARVALUES:0.100351,0.140491,0.000000,0.027018,0.000000,52.000000,52.000000,0.000000,2.000000,0.000000,0.000000,0.000000,0.000000,0.000000,0.100351,0.140491,0.000000,0.027018,0.000000,52.000000,52.000000,0.000000,2.000000,0.000000,0.000000,0.000000,0.000000,0.000000;
#CREDIT:led_light;
#NOTES:
0000
0000
0000
0000
,
0000
0000
0000
0000
,
1000
0000
0000
0000
,
0100
0000
0000
0000
,
1000
0000
0001
0000
,
1000
0000
0000
0000
,
0001
0000
0000
0000
,
0010
0000
0000
0000
,
0001
0000
1000
0000
,
0001
0000
0000
0000
,
0100
0000
0000
0000
,
0100
0000
0000
0000
,
0001
0000
0000
0000
,
0001
0000
0000
0000
,
0010
0000
0000
0000
,
0010
0000
0000
0000
,
1000
0000
0000
0000
,
1000
0000
0000
0000
,
0100
0000
0100
0000
,
0100
0000
0000
0000
,
0001
0000
0000
0000
,
1000
0000
0000
0000
,
0100
0000
0000
0000
,
0000
0000
0000
0000
,
1000
0000
0000
0000
,
0001
0000
0000
0000
,
0100
0000
0000
0000
,
0000
0000
0000
0000
,
0010
0000
0000
0000
,
0100
0000
0000
0000
,
0001
0000
0000
0000
,
0000
0000
0000
0000
,
0020
0000
0000
0000
,
0030
0000
0000
0000
,
0200
0000
0000
0000
,
0300
0000
0000
0000
,
1000
0000
0000
0000
,
0100
0000
0000
0000
,
1000
0000
0001
0000
,
1000
0000
0000
0000
,
0001
0000
0000
0000
,
0010
0000
0000
0000
,
0001
0000
1000
0000
,
0001
0000
0000
0000
,
0100
0000
0000
0000
,
0100
0000
0000
0000
,
0001
0000
0000
0000
,
0001
0000
0000
0000
,
0010
0000
0000
0000
,
0010
0000
0000
0000
,
1000
0000
0000
0000
,
1000
0000
1000
0000
,
0001
0000
0000
0000
;

//---------------dance-single - ----------------
#NOTEDATA:;
#CHARTNAME:;
#STEPSTYPE:dance-single;
#DESCRIPTION:;
#CHARTSTYLE:;
#DIFFICULTY:Easy;
#METER:5;
#RADARVALUES:0.247017,0.280982,0.027018,0.013509,0.000000,128.000000,126.000000,2.000000,1.000000,4.000000,0.000000,0.000000,0.000000,0.000000,0.247017,0.280982,0.027018,0.013509,0.000000,128.000000,126.000000,2.000000,1.000000,4.000000,0.000000,0.000000,0.000000,0.000000;
#CREDIT:led_light;
#NOTES:
0000
0000
0000
0000
,
0000
0000
0000
0000
,
0001
0000
1000
0000
,
0100
0010
0100
0000
,
1000
0000
0001
0000
,
0010
0000
0100
0000
,
1000
0000
0001
0000
,
0100
0010
0100
0000
,
0001
0000
1000
0000
,
0010
0000
0100
0000
,
0001
1000
0100
0000
,
1000
0001
0100
0000
,
0010
1000
0010
0000
,
1000
0100
1000
0000
,
0001
0000
1000
0000
,
0010
0100
0010
0000
,
1000
0000
0100
0000
,
0010
0000
0001
0000
,
1000
0001
1000
0001
,
1001
0000
0000
0000
,
0010
0000
0100
0000
,
0010
0000
0010
0000
,
1000
0100
0001
0100
,
1000
0000
0001
0000
,
0010
0000
0100
0000
,
0010
0000
0010
0000
,
0001
0100
1000
0100
,
0001
0000
1000
0000
,
0100
0000
0010
0000
,
0100
0000
0100
0000
,
1000
0010
0001
0010
,
1000
0000
0001
0000
,
1000
0100
0001
0000
,
0001
0100
1000
0000
,
0010
0100
0010
0100
,
0020
0030
MMMM
0000
,
0001
0000
1000
0000
,
0100
0010
0100
0000
,
1000
0000
0001
0000
,
0010
0000
0100
0000
,
1000
0000
0001
0000
,
0100
0010
0100
0000
,
0001
0000
1000
0000
,
0010
0000
0100
0000
,
0001
1000
0100
0000
,
1000
0001
0100
0000
,
0010
1000
0010
0000
,
1000
0100
1000
0000
,
0001
0000
1000
0000
,
0010
0100
0010
0000
,
1000
0000
0100
0000
,
0010
0000
0001
1000
,
1001
0000
0000
0000
;

//---------------dance-single - ----------------
#NOTEDATA:;
#CHARTNAME:;
#STEPSTYPE:dance-single;
#DESCRIPTION:;
#CHARTSTYLE:;
#DIFFICULTY:Medium;
#METER:8;
#RADARVALUES:0.355088,0.351228,0.040526,0.202632,0.000000,184.000000,181.000000,3.000000,15.000000,4.000000,0.000000,0.000000,0.000000,0.000000,0.355088,0.351228,0.040526,0.202632,0.000000,184.000000,181.000000,3.000000,15.000000,4.000000,0.000000,0.000000,0.000000,0.000000;
#CREDIT:led_light;
#NOTES:
0000
0000
0000
0000
,
0000
0000
0000
0000
,
1000
0100
0001
0100
,
0001
0100
2000
3000
,
0001
1000
0100
1000
,
0001
0100
0010
1000
,
0001
0010
1000
0010
,
1000
0010
0002
0003
,
1000
0001
0010
0001
,
1000
0010
0100
0001
,
1000
0100
0010
0100
,
1000
0100
0020
0030
,
0001
0100
0010
0100
,
0001
0010
0100
0010
,
0001
1000
0001
1000
,
0010
0100
0002
0003
,
0010
0100
1000
0001
,
0100
1000
0100
0001
,
0010
0010
0100
0100
,
1001
0000
0000
0000
,
0001
0100
0010
0100
,
0001
1000
0100
0000
,
1000
0100
0010
0100
,
1000
0001
0200
0300
,
0001
0010
0100
0010
,
0001
1000
0010
0100
,
1000
1000
0001
0001
,
0010
1000
0002
0003
,
1000
0010
0100
0010
,
1000
0001
0010
0100
,
0001
0001
1000
1000
,
0020
0030
0001
1000
,
0010
0100
0002
0003
,
0010
0100
2000
3000
,
0100
0100
0010
0010
,
0220
0330
MMMM
0000
,
1000
0100
0001
0100
,
0001
0100
2000
3000
,
0001
1000
0100
1000
,
0001
0100
0010
1000
,
0001
0010
1000
0010
,
1000
0010
0002
0003
,
1000
0001
0010
0001
,
1000
0010
0100
0001
,
1000
0100
0010
0100
,
1000
0100
0020
0030
,
0001
0100
0010
0100
,
0001
0010
0100
0010
,
0001
1000
0001
1000
,
0010
0100
0002
0003
,
0010
0100
1000
0001
,
0100
1000
0100
0001
,
1001
0000
0000
0000
;

//---------------dance-single - ----------------
#NOTEDATA:;
#CHARTNAME:;
#STEPSTYPE:dance-single;
#DESCRIPTION:;
#CHARTSTYLE:;
#DIFFICULTY:Hard;
#METER:13;
#RADARVALUES:0.517193,0.561965,0.121579,0.742982,0.533596,268.000000,259.000000,9.000000,55.000000,4.000000,0.000000,0.000000,0.000000,0.000000,0.517193,0.561965,0.121579,0.742982,0.533596,268.000000,259.000000,9.000000,55.000000,4.000000,0.000000,0.000000,0.000000,0.000000;
#CREDIT:led_light;
#NOTES:
// measure 0
0000
0000
0000
0000
,  // measure 1
0000
0000
0000
0000
,  // measure 2
1100
0000
0000
0001
0000
0000
0200
0000
0000
0310
0000
1000
,  // measure 3
0100
0000
0000
1000
0000
0020
0000
0000
0130
0001
0000
1000
,  // measure 4
0100
0000
0000
0001
0000
0001
0200
0000
0000
1300
0000
0000
,  // measure 5
0100
0000
0000
0010
0000
0000
0001
0000
0100
0010
0000
1000
,  // measure 6
0001
0000
0000
1000
0000
0000
0020
0000
0000
0130
0000
0001
,  // measure 7
0010
0000
0000
0001
0000
0200
0000
0000
0310
1000
0000
0001
,  // measure 8
0020
1030
0020
0031
,  // measure 9
0020
0000
0000
0230
0000
0000
1300
0000
0010
0100
0000
0001
,  // measure 10
1000
0001
0100
0001
,  // measure 11
0010
0000
0000
1000
0000
0010
0000
0000
0010
0002
0000
0000
,  // measure 12
1003
0001
0010
0001
,  // measure 13
1000
0000
0000
0010
0000
0000
0100
0000
0001
1000
0000
0100
,  // measure 14
1000
0000
0000
0001
0000
0000
0020
0000
0000
0130
0000
1000
,  // measure 15
0010
0000
0000
1000
0000
0200
0000
0000
0310
0001
0000
1000
,  // measure 16
0010
0000
0000
0100
0000
0020
0000
0000
1030
0001
0000
0100
,  // measure 17
0020
0000
0000
0130
0000
0001
0010
0000
0100
1000
0000
0001
,  // measure 18
0100
0000
0000
0110
0000
0000
0110
0000
0000
0110
0000
0001
,  // measure 19
1000
0000
0000
0000
0000
0000
0000
0000
0000
0100
0000
1000
,  // measure 20
0001
0000
0000
0010
0000
0200
0000
0000
1300
0001
0000
0100
,  // measure 21
0010
0000
0000
1000
0000
0002
0000
0000
0103
0001
0000
0100
,  // measure 22
0002
0000
0000
2003
0000
0000
3100
0000
1000
0100
0000
0010
,  // measure 23
0002
0013
2000
3010
,  // measure 24
0002
0000
0000
0103
0000
0020
0000
0000
0130
0001
0000
1000
,  // measure 25
0200
0310
0200
1300
,  // measure 26
0002
0000
0000
0023
0000
0000
0230
0000
0000
1300
0000
0010
,  // measure 27
0200
0000
0000
1300
0000
0000
0200
0000
0000
0301
0000
1000
,  // measure 28
0001
0000
0000
0100
0000
0020
0000
0000
1030
0001
0000
0010
,  // measure 29
0100
0000
0000
1000
0000
0002
0000
0000
0013
0001
0000
0001
,  // measure 30
0020
0000
0000
0032
0000
0000
1003
0000
0000
0010
0000
0100
,  // measure 31
0002
0103
2000
3100
,  // measure 32
0002
0000
0000
0013
0000
0200
0000
0000
0310
0001
0000
1000
,  // measure 33
0010
0000
0000
0100
0000
0002
0000
0000
1003
0100
0000
1000
,  // measure 34
0001
1001
1001
1001
,  // measure 35
0220
0330
MMMM
0000
,  // measure 36
1100
0000
0000
0001
0000
0000
0200
0000
0000
0310
0000
1000
,  // measure 37
0100
0000
0000
1000
0000
0020
0000
0000
0130
0001
0000
1000
,  // measure 38
0100
0000
0000
0001
0000
0001
0200
0000
0000
1300
0000
0000
,  // measure 39
0100
0000
0000
0010
0000
0000
0001
0000
0100
0010
0000
1000
,  // measure 40
0001
0000
0000
1000
0000
0000
0020
0000
0000
0130
0000
0001
,  // measure 41
0010
0000
0000
0001
0000
0200
0000
0000
0310
1000
0000
0001
,  // measure 42
0020
1030
0020
0031
,  // measure 43
0020
0000
0000
0230
0000
0000
1300
0000
0010
0100
0000
0001
,  // measure 44
1000
0001
0100
0001
,  // measure 45
0010
0000
0000
1000
0000
0010
0000
0000
0010
0002
0000
0000
,  // measure 46
1003
0001
0010
0001
,  // measure 47
1000
0000
0000
0010
0000
0000
0100
0000
0001
1000
0000
0100
,  // measure 48
1000
0000
0000
0001
0000
0000
0020
0000
0000
0130
0000
1000
,  // measure 49
0010
0000
0000
1000
0000
0200
0000
0000
0310
0001
0000
1000
,  // measure 50
0020
0130
0020
1030
,  // measure 51
0002
0000
0000
0013
0000
0100
1000
0000
0100
1000
0000
0001
,  // measure 52
0100
0000
0000
0000
;

//---------------dance-double - ----------------
#NOTEDATA:;
#CHARTNAME:;
#STEPSTYPE:dance-double;
#DESCRIPTION:;
#CHARTSTYLE:;
#DIFFICULTY:Easy;
#METER:5;
#RADARVALUES:0.229649,0.280982,0.013509,0.013509,0.000000,119.000000,118.000000,1.000000,1.000000,8.000000,0.000000,0.000000,0.000000,0.000000,0.229649,0.280982,0.013509,0.013509,0.000000,119.000000,118.000000,1.000000,1.000000,8.000000,0.000000,0.000000,0.000000,0.000000;
#CREDIT:led_light;
#NOTES:
00000000
00000000
00000000
00000000
,
00000000
00000000
00000000
00000000
,
00010000
00000000
00001000
00000000
,
00010000
00000000
00010000
00000000
,
00001000
00000000
00000010
00000000
,
00000001
00000000
00000100
00000000
,
00001000
00000000
00010000
00000000
,
00001000
00000000
00001000
00000000
,
00010000
00000000
01000000
00000000
,
10000000
00000000
00100000
00000000
,
00010000
00010000
00001000
00000000
,
00010000
00010000
00000100
00000000
,
00010000
00000000
00001000
00000000
,
00000100
00000000
00000001
00000000
,
00000010
00000000
00001000
00000000
,
00010000
00010000
00001000
00000000
,
00100000
00000000
00010000
00000000
,
01000000
00000000
00100000
00000000
,
10000000
00010000
10000000
00010000
,
10000000
00000000
00000000
00000000
,
01000000
00000000
00010000
00000000
,
01000000
00000000
10000000
00000000
,
00100000
01000000
00100000
01000000
,
00010000
00000000
00100000
00000000
,
00001000
00000000
00000010
00000000
,
00001000
00000000
00010000
00000000
,
00001000
00000100
00001000
00000100
,
00000001
00000000
00000010
00000000
,
00000010
00000000
00001000
00000000
,
00000010
00000000
00000001
00000000
,
00000100
00000010
00000100
00000010
,
00001000
00000000
00000100
00000000
,
00010000
00001000
00010000
00000000
,
00001000
00010000
00001000
00000000
,
01000000
00100000
01000000
00100000
,
02000000
03000000
MMMMMMMM
00000000
,
00010000
00000000
00001000
00000000
,
00010000
00000000
00010000
00000000
,
00001000
00000000
00000010
00000000
,
00000001
00000000
00000100
00000000
,
00001000
00000000
00010000
00000000
,
00001000
00000000
00001000
00000000
,
00010000
00000000
01000000
00000000
,
10000000
00000000
00100000
00000000
,
00010000
00010000
00001000
00000000
,
00010000
00010000
00000100
00000000
,
00010000
00000000
00001000
00000000
,
00000100
00000000
00000001
00000000
,
00000010
00000000
00001000
00000000
,
00010000
00010000
00001000
00000000
,
00100000
00000000
00010000
00000000
,
01000000
00000000
00100000
10000000
,
10010000
00000000
00000000
00000000
;

//---------------dance-double - ----------------
#NOTEDATA:;
#CHARTNAME:;
#STEPSTYPE:dance-double;
#DESCRIPTION:;
#CHARTSTYLE:;
#DIFFICULTY:Medium;
#METER:8;
#RADARVALUES:0.349298,0.351228,0.040526,0.175614,0.000000,181.000000,178.000000,3.000000,13.000000,8.000000,0.000000,0.000000,0.000000,0.000000,0.349298,0.351228,0.040526,0.175614,0.000000,181.000000,178.000000,3.000000,13.000000,8.000000,0.000000,0.000000,0.000000,0.000000;
#CREDIT:led_light;
#NOTES:
00000000
00000000
00000000
00000000
,
00000000
00000000
00000000
00000000
,
10000000
01000000
00010000
00001000
,
00000010
00001000
00020000
00030000
,
00001000
00010000
00100000
00010000
,
00001000
00000100
00000010
00001000
,
00000001
00000010
00001000
00010000
,
01000000
00010000
00002000
00003000
,
00010000
00001000
00000100
00001000
,
00010000
00100000
01000000
00010000
,
10000000
01000000
00010000
01000000
,
10000000
01000000
00020000
00030000
,
00001000
00000100
00000001
00000100
,
00001000
00000100
00000001
00001000
,
00000100
00010000
00001000
00010000
,
00000100
00001000
00000200
00000300
,
00010000
00001000
01000000
00001000
,
00010000
00001000
00100000
01000000
,
10000000
10000000
00010000
00010000
,
10010000
00000000
00000000
00000000
,
10000000
01000000
00010000
00000000
,
01000000
00010000
00001000
00000000
,
00100000
00010000
01000000
00100000
,
01000000
00001000
00010000
00000010
,
00001000
00000100
00000001
00000000
,
00000001
00000100
00001000
00000000
,
00000001
00000010
00001000
00010000
,
00001000
00000100
00000001
00001000
,
00000001
00000100
00001000
00000000
,
00000100
00001000
00010000
00000000
,
00000010
00001000
00000100
00000010
,
00000200
00000300
00010000
00001000
,
00100000
00010000
02000000
03000000
,
00100000
10000000
02000000
03000000
,
00100000
00100000
01000000
01000000
,
20020000
30030000
MMMMMMMM
00000000
,
10000000
01000000
00010000
00001000
,
00000010
00001000
00020000
00030000
,
00001000
00010000
00100000
00010000
,
00001000
00000100
00000010
00001000
,
00000001
00000010
00001000
00010000
,
01000000
00010000
00002000
00003000
,
00010000
00001000
00000100
00001000
,
00010000
00100000
01000000
00010000
,
10000000
01000000
00010000
01000000
,
10000000
01000000
00020000
00030000
,
00001000
00000100
00000001
00000100
,
00001000
00000100
00000001
00001000
,
00000100
00010000
00001000
00010000
,
00000100
00001000
00000200
00000300
,
00010000
00001000
01000000
00001000
,
00010000
00010000
00001000
00001000
,
00011000
00000000
00000000
00000000
;

//---------------dance-double - ----------------
#NOTEDATA:;
#CHARTNAME:;
#STEPSTYPE:dance-double;
#DESCRIPTION:;
#CHARTSTYLE:;
#DIFFICULTY:Hard;
#METER:13;
#RADARVALUES:0.513333,0.526842,0.121579,0.729473,0.526842,266.000000,257.000000,9.000000,54.000000,8.000000,0.000000,0.000000,0.000000,0.000000,0.513333,0.526842,0.121579,0.729473,0.526842,266.000000,257.000000,9.000000,54.000000,8.000000,0.000000,0.000000,0.000000,0.000000;
#CREDIT:led_light;
#NOTES:
00000000
00000000
00000000
00000000
,
00000000
00000000
00000000
00000000
,
00110000
00000000
00000000
00001000
00000000
00000000
02000000
00000000
00000000
03001000
00000000
00010000
,
00000100
00000000
00000000
00001000
00000000
00000020
00000000
00000000
00000130
00000001
00000000
00001000
,
00000100
00000000
00000000
00001000
00000000
00000001
00000200
00000000
00000000
00000310
00000000
00000000
,
00001000
00000000
00000000
00001000
00000000
00000000
00010000
00000000
01000000
00100000
00000000
10000000
,
00010000
00000000
00000000
00100000
00000000
00000000
00002000
00000000
00000000
00013000
00000000
00000100
,
00001000
00000000
00000000
00000001
00000000
00002000
00000000
00000000
00003010
00001000
00000000
00000001
,
00000020
00000130
00000020
00000031
,
00000020
00000000
00000000
00002030
00000000
00000000
00013000
00000000
01000000
00100000
00000000
01000000
,
00010000
00001000
00100000
00010000
,
10000000
00000000
00000000
00100000
00000000
01000000
00000000
00000000
01000000
00020000
00000000
00000000
,
10030000
01000000
00010000
01000000
,
10000000
00000000
00000000
10000000
00000000
00000000
00010000
00000000
00100000
00001000
00000000
00100000
,
00001000
00000000
00000000
00010000
00000000
00000000
00002000
00000000
00000000
00013000
00000000
00000010
,
00001000
00000000
00000000
00001000
00000000
00000020
00000000
00000000
00001030
00000100
00000000
00000100
,
00001000
00000000
00000000
00000001
00000000
00000200
00000000
00000000
00000310
00000100
00000000
00000100
,
00000020
00000000
00000000
00001030
00000000
00000000
00000100
00000000
00001000
00000100
00000000
00010000
,
00001000
00000000
00000000
00011000
00000000
00000000
00011000
00000000
00000000
00011000
00000000
00000010
,
00001000
00000000
00000000
00000000
00000000
00000000
00000000
00000000
00000000
00000001
00000000
00000100
,
00000001
00000000
00000000
00001000
00000000
00000200
00000000
00000300
00000100
00010000
00000000
00010000
,
00001000
00000000
00000000
00100000
00000000
00020000
00000000
00030000
00010000
00000000
00000000
10000000
,
00020000
00000000
00000000
02030000
00000000
00000000
03100000
00000000
00000000
10000000
00000000
00010000
,
02000000
13000000
02000000
03010000
,
20000000
00000000
00000000
31000000
00000000
00200000
00000000
00000000
01300000
10000000
00000000
10000000
,
00020000
00130000
02000000
03010000
,
00002000
00000000
00000000
00023000
00000000
00000000
00032000
00000000
00000000
00003100
00000000
00000010
,
00000200
00000000
00000000
00001300
00000000
00000000
00000200
00000000
00000000
00000301
00000000
00001000
,
00000001
00000000
00000000
00001000
00000000
00000020
00000000
00000030
00000010
00010000
00000000
00010000
,
00001000
00000000
00000000
01000000
00000000
00020000
00000000
00030000
00010000
10000000
00000000
10000000
,
00020000
00000000
00000000
00230000
00000000
00000000
01300000
00000000
00000000
10000000
00000000
00010000
,
00200000
10300000
00200000
00310000
,
00001000
00000000
00000000
00000100
00000000
00000020
00000000
00000030
00000010
00000001
00000000
00001000
,
00000010
00000000
00000000
00000100
00000000
00002000
00000000
00003000
00001000
00010000
00000000
01000000
,
10000000
10010000
10010000
10010000
,
02200000
03300000
MMMMMMMM
00000000
,
00110000
00000000
00000000
00001000
00000000
00000000
02000000
00000000
00000000
03001000
00000000
00010000
,
00000100
00000000
00000000
00001000
00000000
00000020
00000000
00000000
00000130
00000001
00000000
00001000
,
00000100
00000000
00000000
00001000
00000000
00000001
00000200
00000000
00000000
00000310
00000000
00000000
,
00001000
00000000
00000000
00001000
00000000
00000000
00010000
00000000
01000000
00100000
00000000
10000000
,
00010000
00000000
00000000
00100000
00000000
00000000
00002000
00000000
00000000
00013000
00000000
00000100
,
00001000
00000000
00000000
00000001
00000000
00002000
00000000
00000000
00003010
00001000
00000000
00000001
,
00000020
00000130
00000020
00000031
,
00000020
00000000
00000000
00002030
00000000
00000000
00013000
00000000
01000000
00100000
00000000
01000000
,
00010000
00001000
00100000
00010000
,
10000000
00000000
00000000
00100000
00000000
01000000
00000000
00000000
01000000
00020000
00000000
00000000
,
10030000
01000000
00010000
01000000
,
10000000
00000000
00000000
10000000
00000000
00000000
00010000
00000000
00100000
00001000
00000000
00100000
,
00001000
00000000
00000000
00010000
00000000
00000000
00002000
00000000
00000000
00013000
00000000
00000010
,
00001000
00000000
00000000
00001000
00000000
00000020
00000000
00000000
00001030
00000100
00000000
00000100
,
00002000
00000000
00000000
00003001
00000000
00000000
00000200
00000000
00000000
00000310
00000000
00000100
,
00000020
00000000
00000000
00001030
00000000
00001000
00000100
00000000
00001000
00000100
00000000
00010000
,
00001000
00000000
00000000
00000000
;
