#VERSION:0.83;
#TITLE:Salt in the Wounds;
#SUBTITLE:;
#ARTIST:Pendulum;
#TITLETRANSLIT:;
#SUBTITLETRANSLIT:;
#ARTISTTRANSLIT:;
#GENRE:Popular Songs;
#ORIGIN:;
#CREDIT:;
#BANNER:Salt in the Wounds.png;
#BACKGROUND:Salt in the Wounds-bg.png;
#PREVIEWVID:;
#JACKET:Salt in the Wounds-jacket.png;
#CDIMAGE:;
#DISCIMAGE:;
#LYRICSPATH:;
#CDTITLE:../cdtitle.png;
#MUSIC:Salt in the Wounds.ogg;
#OFFSET:2.746000;
#SAMPLESTART:65.700996;
#SAMPLELENGTH:15.000000;
#SELECTABLE:YES;
#BPMS:0.000=87.000,
100.000=174.000,
228.000=87.000;
#STOPS:;
#DELAYS:;
#WARPS:;
#TIMESIGNATURES:0.000=4=4;
#TICKCOUNTS:0.000=4;
#COMBOS:0.000=1;
#SPEEDS:0.000=1.000=0.000=0;
#SCROLLS:0.000=1.000;
#FAKES:;
#LABELS:0.000=Song Start;
#BGCHANGES:4.875=Salt in the Wounds.avi=1.000=0=0=0=StretchNoLoop====,
99999=-nosongbg-=1.000=0=0=0 // don't automatically add -songbackground-
;
#KEYSOUNDS:;
#ATTACKS:
;

//---------------dance-single - ----------------
#NOTEDATA:;
#CHARTNAME:;
#STEPSTYPE:dance-single;
#DESCRIPTION:;
#CHARTSTYLE:;
#DIFFICULTY:Hard;
#METER:12;
#RADARVALUES:0.457072,0.754279,0.177750,0.293674,0.220256,414.000000,391.000000,23.000000,38.000000,0.000000,0.000000,0.000000,0.000000,0.000000,0.457072,0.754279,0.177750,0.293674,0.220256,414.000000,391.000000,23.000000,38.000000,0.000000,0.000000,0.000000,0.000000,0.000000;
#CREDIT:led_light;
#NOTES:
0000
0000
0000
0000
,
0000
0000
0000
0000
,
0000
0000
0000
0000
,
0000
0000
0000
0000
,
0000
0000
0000
0000
,
0220
0330
0001
0100
0020
0030
1000
0100
,
0020
0000
0030
0000
0001
0000
0100
0000
0020
0000
0030
0000
1000
0100
0000
0100
,
0020
0030
0100
1000
0020
0030
0100
0001
,
0020
0000
0000
0000
0100
0000
0000
0000
0000
0000
0032
0000
0103
0010
1000
0010
,
2001
0000
0000
0000
3100
1000
0100
1000
0100
0000
0010
0000
0001
0100
0010
1000
,
0002
0000
0000
0000
0013
0100
0010
0100
0010
0000
0001
0000
1100
0100
0010
0001
,
1000
0010
2000
0000
3001
0100
0001
0100
0001
0000
0010
0000
0110
0010
0001
1000
,
0002
0000
0000
0000
1003
0100
1000
0100
1000
0000
0001
0000
0100
0010
1000
0010
,
1002
0000
0000
0000
0013
0001
0010
0001
0010
0000
0100
0000
1000
0010
0100
0001
,
2000
0000
0000
0000
3100
0010
0100
0010
0100
0000
1000
0000
0011
0010
0100
1000
,
0001
0100
0002
0000
1003
0010
1000
0010
1000
0000
0100
0000
0010
0001
0100
0010
,
2000
0100
0020
3000
,
0130
0000
0002
0003
0000
0000
0002
0003
,
0000
0000
0002
0003
0000
0000
0002
0003
,
0000
0000
2000
3000
0000
0000
2000
3000
,
0000
0000
0020
0030
0000
0000
0020
0030
,
1000
0100
1000
0000
0001
0010
0001
0000
0100
1000
0100
0000
0001
0100
0001
0000
,
0100
0010
1000
0000
0010
0100
0001
0000
0010
0100
1000
0000
0100
0010
0001
0000
,
0100
0010
0100
0010
1000
0010
1000
0010
1000
0100
1000
0100
0010
0001
0010
0001
,
1000
0010
0100
0001
1000
0100
0010
0001
0100
0010
0100
0010
2000
0000
0000
0000
,
3001
0000
0110
0000
1000
0010
1000
0001
,
0100
0010
1000
0100
1000
0001
0100
0010
,
1000
0000
1100
0000
0001
0010
0001
0010
,
1000
0010
0001
1000
0001
0100
0010
1000
,
0100
0000
0101
0000
1000
0010
1000
0100
,
0001
0100
1000
0001
0010
0100
1000
1000
,
0010
0000
0110
0000
1000
0001
1000
0001
,
0020
0000
0000
0000
,
0130
0000
1001
0000
0001
0100
0010
0100
,
0001
1000
0010
0100
0001
1000
0100
1000
,
0001
0000
1010
0000
0100
0001
0100
0001
,
1000
0100
0001
0100
1000
0001
0010
0100
,
0010
0000
0101
0000
1000
0001
0010
0001
,
1000
0100
0010
0001
0100
0010
1000
0001
,
0010
0000
1100
0000
0001
0100
0001
0100
,
0020
0000
0000
0000
,
0130
0000
1001
0000
0001
0010
0100
0000
,
1000
0001
0010
0010
1000
0010
0001
0000
,
1000
0000
1100
0000
0010
0001
1000
0000
,
0001
0100
0010
0001
1000
0100
0010
0000
,
1000
0000
0011
0000
0100
1000
0001
0000
,
1000
0100
0010
0001
0010
0100
1000
0000
,
0001
0000
0101
0000
0010
1000
0001
0000
,
0100
0100
0100
0010
,
1001
0000
1100
0000
0010
0001
1000
0000
,
0001
0100
0001
0100
0010
1000
0001
0000
,
0010
0000
1100
0000
0010
0001
0100
0000
,
0001
1000
0010
0100
0001
1000
0010
0000
,
0100
0000
1001
0000
0001
0010
0100
0000
,
1000
0100
0010
0001
0100
0010
1000
0000
,
0001
0000
0110
0000
0001
1000
0010
0000
,
0100
0001
1000
0100
0010
0100
0010
0001
,
2000
3000
0001
0100
0020
0030
1000
0100
,
0020
0030
0001
0100
0020
0030
1000
0100
,
0002
0003
0100
1000
0020
0030
0100
0001
,
0020
0000
0030
0000
1000
0000
0010
0000
0002
0000
0103
0010
1000
0000
0200
0000
,
0310
0000
0000
0000
;

//---------------dance-single - ----------------
#NOTEDATA:;
#CHARTNAME:;
#STEPSTYPE:dance-single;
#DESCRIPTION:;
#CHARTSTYLE:;
#DIFFICULTY:Medium;
#METER:9;
#RADARVALUES:0.346668,0.589281,0.154565,0.285946,0.061826,314.000000,294.000000,20.000000,37.000000,0.000000,0.000000,0.000000,0.000000,0.000000,0.346668,0.589281,0.154565,0.285946,0.061826,314.000000,294.000000,20.000000,37.000000,0.000000,0.000000,0.000000,0.000000,0.000000;
#CREDIT:led_light;
#NOTES:
0000
0000
0000
0000
,
0000
0000
0000
0000
,
0000
0000
0000
0000
,
0000
0000
0000
0000
,
0000
0000
0000
0000
,
0220
0330
0001
0100
0002
0003
1000
0100
,
2000
3000
0001
0100
0002
0003
1000
0100
,
0220
0330
0001
0010
0002
0003
1000
0010
,
2000
0000
0000
0000
0100
0000
0000
0000
0000
0000
3010
0000
0100
0010
0100
0000
,
1002
0000
0000
0000
0010
0000
0000
0000
0013
0000
0001
0000
0010
0100
1000
0000
,
0002
0000
0000
0000
0100
0000
0000
0000
0103
0000
0001
0000
1000
0100
0010
0000
,
0200
0000
0000
0000
0001
0000
0000
0000
0301
0000
0100
0000
1000
0001
0100
0000
,
0020
0000
0000
0000
0001
0000
0000
0000
0031
0000
0010
0000
0100
0010
1000
0000
,
2001
0000
0000
0000
0100
0000
0000
0000
3100
0000
1000
0000
0100
0010
0001
0000
,
2000
0000
0000
0000
0010
0000
0000
0000
3010
0000
1000
0000
0001
0010
0100
0000
,
0020
0000
0000
0000
1000
0000
0000
0000
1030
0000
0010
0000
0001
1000
0010
0000
,
0200
1000
0020
0300
,
1030
0000
0002
0003
0000
0000
0002
0003
,
0000
0000
0002
0003
0000
0000
0002
0003
,
0000
0000
0200
0300
0000
0000
0200
0300
,
0000
0000
0020
0030
0000
0000
0020
0030
,
1000
1000
0001
0001
1000
1000
0001
0001
,
0010
0010
0100
0100
0010
0010
0100
0100
,
1000
0100
1000
0000
0100
0001
0100
0000
1000
0010
1000
0000
0010
0001
0010
0000
,
1000
0100
0010
0000
0100
0010
0001
0000
0100
0010
0100
0010
0200
0000
0000
0000
,
0310
0000
1001
0000
0001
0010
1000
0000
,
0010
0001
0100
0001
,
0010
0000
0110
0000
0100
1000
0001
0000
,
0100
0010
0001
0010
,
1000
0000
1001
0000
0001
0100
1000
0000
,
0100
0001
0010
0100
,
1000
0000
1001
0000
0010
0100
0010
0100
,
0020
0000
0000
0000
,
0130
0000
1001
0000
1000
0100
0001
0000
,
0100
1000
0010
1000
,
0100
0000
0110
0000
0010
0001
1000
0000
,
0010
0100
1000
0100
,
0001
0000
1001
0000
1000
0010
0001
0000
,
0010
1000
0100
0010
,
0001
0000
1001
0000
0100
0010
0100
0010
,
0200
0000
0000
0000
,
0310
0000
1001
0000
0010
0100
1000
0000
,
0100
0010
0001
0010
,
1000
0000
0110
0000
0001
1000
0100
0000
,
1000
0001
0100
0000
0001
0000
0010
0000
,
0100
0000
0011
0000
0001
1000
0010
0000
,
1000
0100
0001
0100
,
1000
0000
0110
0000
0001
1000
0010
0000
,
0100
0100
0100
0010
,
1001
0000
0010
0000
1000
0010
0001
0000
,
0010
0100
1000
0100
,
0001
0000
0110
0000
1000
0001
0010
0000
,
0001
1000
0010
0000
1000
0000
0100
0000
,
0010
0000
1100
0000
1000
0001
0100
0000
,
0001
0010
1000
0010
,
0001
0000
0110
0000
1000
0001
0100
0000
,
0010
0100
0010
0100
0010
0000
1000
0000
,
0002
0003
1000
0100
2000
3000
0001
0100
,
0002
0003
1000
0100
2000
3000
0001
0100
,
0020
0030
1000
0010
2000
3000
0001
0010
,
0002
0003
1000
0010
2000
3100
0001
0100
,
1000
0000
0000
0000
;

//---------------dance-single - ----------------
#NOTEDATA:;
#CHARTNAME:;
#STEPSTYPE:dance-single;
#DESCRIPTION:;
#CHARTSTYLE:;
#DIFFICULTY:Easy;
#METER:7;
#RADARVALUES:0.283738,0.400711,0.216392,0.270490,0.000000,257.000000,229.000000,28.000000,35.000000,0.000000,0.000000,0.000000,0.000000,0.000000,0.283738,0.400711,0.216392,0.270490,0.000000,257.000000,229.000000,28.000000,35.000000,0.000000,0.000000,0.000000,0.000000,0.000000;
#CREDIT:led_light;
#NOTES:
0000
0000
0000
0000
,
0000
0000
0000
0000
,
0000
0000
0000
0000
,
0000
0000
0000
0000
,
0000
0000
0000
0000
,
2010
3100
0020
0130
,
2000
3010
0200
0310
,
0102
0013
0200
0310
,
0002
0100
0000
0103
,
0120
0000
0100
0000
0130
0001
1000
0000
,
0200
0010
0310
0110
,
2000
0000
0001
0000
3001
0100
0010
0000
,
2000
0100
3100
0010
,
0120
0000
0100
0000
0130
1000
0001
0000
,
0200
0010
0310
0110
,
0002
0000
1000
0000
1003
0100
0010
0000
,
0002
0100
2000
0003
,
3100
0000
0020
0030
0000
0000
0020
0030
,
0000
0000
0020
0030
0000
0000
0020
0030
,
0000
0000
0200
0300
0000
0000
0200
0300
,
0000
0000
2000
3000
0000
0000
2000
3000
,
0001
0001
0100
0100
0001
0001
1000
1000
,
0100
0100
0010
0010
0001
0001
0100
0100
,
0010
1000
0010
1000
0100
0010
0001
0100
,
0010
0010
0100
0100
0010
0100
0020
0000
,
1030
1001
0001
0100
,
0010
1000
0010
0100
,
0001
1100
1000
0001
,
0100
0010
0100
0001
,
0100
1001
0001
0010
,
1000
0010
0001
0100
,
0001
0110
1000
1000
,
0020
0000
0000
0000
,
0130
1001
1000
0100
,
0010
0001
0010
0100
,
1000
0101
0001
1000
,
0100
0010
0100
1000
,
0100
1001
1000
0010
,
0001
0010
1000
0100
,
1000
0110
0001
0001
,
0020
0000
0000
0000
,
0130
1001
0010
1010
,
0001
0100
0010
1000
,
0001
0101
0001
1010
,
0001
0010
0100
1000
,
0100
0101
0100
1001
,
0010
1000
0100
1000
,
0010
0110
1000
0001
,
0010
0010
0100
0001
,
0100
1001
0010
0011
,
1000
0100
0010
0001
,
1000
1100
1000
0011
,
1000
0010
0100
0001
,
0100
1100
0100
1001
,
0010
0001
0100
0001
,
0010
0110
0001
1000
,
0010
0010
0100
0001
,
2000
3100
0020
0130
,
2000
3010
0200
0310
,
0002
0013
0200
0310
,
0002
0103
0020
1030
,
0100
0000
0000
0000
;

//---------------dance-single - ----------------
#NOTEDATA:;
#CHARTNAME:;
#STEPSTYPE:dance-single;
#DESCRIPTION:;
#CHARTSTYLE:;
#DIFFICULTY:Beginner;
#METER:4;
#RADARVALUES:0.139109,0.212141,0.061826,0.146837,0.000000,126.000000,118.000000,8.000000,19.000000,0.000000,0.000000,0.000000,0.000000,0.000000,0.139109,0.212141,0.061826,0.146837,0.000000,126.000000,118.000000,8.000000,19.000000,0.000000,0.000000,0.000000,0.000000,0.000000;
#CREDIT:led_light;
#NOTES:
0000
0000
0000
0000
,
0000
0000
0000
0000
,
0000
0000
0000
0000
,
0000
0000
0000
0000
,
0000
0000
0000
0000
,
0020
0030
0200
0300
,
0020
0030
0200
0300
,
2000
3000
0002
0003
,
2000
0000
0000
3000
,
1001
0000
0001
0000
,
0100
0000
0001
0000
,
0010
0000
0010
0000
,
1000
0000
0100
0000
,
0110
0000
0100
0000
,
0001
0000
0100
0000
,
1000
0000
1000
0000
,
0020
0000
0000
0000
,
0030
0000
0000
0000
,
0000
0000
0000
0000
,
0000
0000
0000
0000
,
0000
0000
0000
0000
,
1000
0100
1000
0100
,
0001
0100
0001
0100
,
1000
1000
1000
1000
,
1000
0010
2000
3000
,
0001
0000
0110
0000
,
0001
0100
0001
0000
,
1000
0000
0110
0000
,
0100
0100
0100
0000
,
0010
0000
0110
0000
,
1000
1000
1000
0000
,
0001
0000
0010
0100
,
0020
0000
0000
0030
,
0100
0000
1001
0000
,
0100
0001
0100
0000
,
0010
0000
1001
0000
,
0001
0001
0001
0000
,
1000
0000
1001
0000
,
0010
0010
0010
0000
,
0100
0000
1000
0001
,
2000
0000
0000
3000
,
0001
0000
1000
0000
,
0100
0000
0001
0000
,
0001
0000
1000
0000
,
0010
0000
0001
0000
,
1000
0000
0001
0000
,
0010
0000
1000
0000
,
1000
0000
0001
0000
,
0100
0100
0100
0000
,
1000
0000
0001
0000
,
0010
0000
1000
0000
,
1000
0000
0001
0000
,
0100
0000
1000
0000
,
0001
0000
1000
0000
,
0100
0000
0001
0000
,
0001
0000
1000
0000
,
0010
0010
0010
0000
,
0020
0030
0200
0300
,
0020
0030
0200
0300
,
2000
3000
0002
0003
,
2000
3000
0002
0003
,
0100
0000
0000
0000
;

//---------------dance-double - ----------------
#NOTEDATA:;
#CHARTNAME:;
#STEPSTYPE:dance-double;
#DESCRIPTION:;
#CHARTSTYLE:;
#DIFFICULTY:Easy;
#METER:6;
#RADARVALUES:0.262761,0.400711,0.170022,0.270490,0.000000,238.000000,216.000000,22.000000,35.000000,0.000000,0.000000,0.000000,0.000000,0.000000,0.262761,0.400711,0.170022,0.270490,0.000000,238.000000,216.000000,22.000000,35.000000,0.000000,0.000000,0.000000,0.000000,0.000000;
#CREDIT:led_light;
#NOTES:
00000000
00000000
00000000
00000000
,
00000000
00000000
00000000
00000000
,
00000000
00000000
00000000
00000000
,
00000000
00000000
00000000
00000000
,
00000000
00000000
00000000
00000000
,
00021000
00030000
00002000
00003000
,
00020000
00030000
00000200
00000300
,
00002001
00003000
00000020
00000030
,
00020000
00001000
00000000
00031000
,
00102000
00010000
01003000
00011000
,
00200000
10000000
01300000
00100000
,
00020000
01000000
10030000
01100000
,
00020000
00001000
00031000
00010000
,
00020010
00001000
00030100
00011000
,
00000020
00000001
00000130
00000010
,
00002000
00000100
00003001
00000110
,
00002000
00010000
00020000
00003000
,
00031000
00000000
00200000
00300000
00000000
00000000
00200000
00300000
,
00000000
00000000
02000000
03000000
00000000
00000000
02000000
03000000
,
00000000
00000000
00000200
00000300
00000000
00000000
00000200
00000300
,
00000000
00000000
00000020
00000030
00000000
00000000
00000020
00000030
,
00001000
00001000
00000100
00000100
00000001
00000001
00000100
00000100
,
00010000
00010000
00001000
00001000
01000000
01000000
00010000
00010000
,
00100000
01000000
00100000
01000000
10000000
00100000
10000000
00100000
,
01000000
00010000
00001000
00010000
00001000
00000010
00000200
00000000
,
00000301
00001001
00000001
00000010
,
00001000
00000010
00001000
00010000
,
00001000
00001100
00000001
00000100
,
00000001
00001000
00000100
00000010
,
00001000
00011000
00010000
00001000
,
00100000
00001000
00010000
01000000
,
00100000
00100000
01000000
00100000
,
02000000
00000000
00000000
00000000
,
13000000
10010000
10000000
00100000
,
00010000
00100000
00010000
00001000
,
00010000
01010000
10000000
01000000
,
10000000
00010000
01000000
00100000
,
00010000
00011000
00001000
00010000
,
00000010
00010000
00001000
00000100
,
00000010
00000010
00000100
00000010
,
00000200
00000000
00000000
00000000
,
00000310
00001001
00000001
00000100
,
00000001
00000001
00001000
00000100
,
00000010
00011000
00001000
00000010
,
00000100
00000010
00000100
00000000
,
00001000
00011000
00010000
00001000
,
00100000
00010000
01000000
00010000
,
10000000
11000000
01000000
00010000
,
01000000
01000000
01000000
00000000
,
00100000
10010000
10000000
01000000
,
10000000
10000000
00010000
01000000
,
00100000
00011000
00010000
00100000
,
01000000
00100000
01000000
00000000
,
00010000
00011000
00001000
00010000
,
00000010
00001000
00000100
00001000
,
00000001
00000101
00000100
00001000
,
00000100
00000100
00000100
00000001
,
00000020
00000130
00000200
00000310
,
00000020
00001030
00002000
00013000
,
02000000
03100000
00200000
01300000
,
02000000
03010000
00020000
00031000
,
00000100
00000000
00000000
00000000
;

//---------------dance-double - ----------------
#NOTEDATA:;
#CHARTNAME:;
#STEPSTYPE:dance-double;
#DESCRIPTION:;
#CHARTSTYLE:;
#DIFFICULTY:Medium;
#METER:9;
#RADARVALUES:0.337836,0.494996,0.177750,0.285946,0.046370,306.000000,283.000000,23.000000,37.000000,0.000000,0.000000,0.000000,0.000000,0.000000,0.337836,0.494996,0.177750,0.285946,0.046370,306.000000,283.000000,23.000000,37.000000,0.000000,0.000000,0.000000,0.000000,0.000000;
#CREDIT:led_light;
#NOTES:
00000000
00000000
00000000
00000000
,
00000000
00000000
00000000
00000000
,
00000000
00000000
00000000
00000000
,
00000000
00000000
00000000
00000000
,
00000000
00000000
00000000
00000000
,
00220000
00330000
00001000
00010000
00002000
00003000
00100000
00010000
,
00200000
00300000
00001000
00010000
00002000
00003000
00010000
01000000
,
02020000
03030000
00010000
00001000
00020000
00030000
00000010
00001000
,
00000020
00000000
00000000
00000000
00000100
00000000
00000000
00000000
00000000
00000000
00000000
00000000
00000130
00000001
00000100
00000000
,
00002001
00000000
00000000
00000000
00000100
00000000
00000000
00000000
00003100
00000000
00010000
00000000
00001000
01000000
00010000
00000000
,
20000000
00000000
00000000
00000000
01000000
00000000
00000000
00000000
31000000
00000000
00100000
00000000
01000000
00010000
01000000
00000000
,
20000000
00000000
00000000
00000000
00100000
00000000
00000000
00000000
30100000
00000000
01000000
00000000
00100000
00010000
00001000
00000000
,
00200000
00000000
00000000
00000000
01000000
00000000
00000000
00000000
01300000
00000000
00100000
00000000
01000000
10000000
01000000
00000000
,
10020000
00000000
00000000
00000000
01000000
00000000
00000000
00000000
01030000
00000000
00001000
00000000
00010000
00000100
00001000
00000000
,
00000002
00000000
00000000
00000000
00000100
00000000
00000000
00000000
00000103
00000000
00000010
00000000
00000100
00001000
00000100
00000000
,
00000002
00000000
00000000
00000000
00000010
00000000
00000000
00000000
00000013
00000000
00000100
00000000
00000010
00001000
00010000
00000000
,
00200000
00010000
20000000
00300000
,
31000000
00000000
00200000
00300000
00000000
00000000
00200000
00300000
,
00000000
00000000
02000000
03000000
00000000
00000000
02000000
03000000
,
00000000
00000000
00000200
00000300
00000000
00000000
00000200
00000300
,
00000000
00000000
00000020
00000030
00000000
00000000
00000020
00000030
,
00001000
00000010
00000001
00000010
00001000
00000010
00000001
00000010
,
00010000
01000000
10000000
01000000
00010000
01000000
10000000
01000000
,
00100000
00100000
00001000
00001000
00010000
00010000
00000010
00000010
,
00001000
00000100
00000010
00000000
00000001
00000100
00000010
00000000
00010000
00001000
00010000
00001000
00020000
00000000
00000000
00000000
,
00031000
00000000
00011000
00000000
00010000
01000000
00100000
00000000
,
00010000
00100000
00010000
00100000
,
01000000
00000000
10010000
00000000
00010000
01000000
00100000
00000000
,
00010000
00001000
00010000
00001000
,
01000000
00000000
10010000
00000000
10000000
01000000
00010000
00000000
,
00001000
00000010
00001000
00000010
,
00000001
00000000
00001001
00000000
00000001
00000100
00000001
00000100
,
00000020
00000000
00000000
00000000
,
00010030
00000000
00011000
00000000
00001000
00000010
00000100
00000000
,
00001000
00000100
00001000
00000100
,
00000010
00000000
00001001
00000000
00001000
00000010
00000100
00000000
,
00001000
00010000
00001000
00010000
,
00000010
00000000
00001001
00000000
00000001
00000010
00001000
00000000
,
00010000
01000000
00010000
01000000
,
10000000
00000000
10010000
00000000
10000000
00100000
10000000
00100000
,
02000000
00000000
00000000
00000000
,
03001000
00011000
00100000
00110000
,
00001000
01000000
00001000
00100000
,
00010000
00011000
00001000
00001010
,
00000010
00000001
00000010
00000100
,
00001000
00001100
00000010
00000110
,
00001000
00000100
00001000
00000010
,
00000100
00001100
00000010
00010000
,
00001000
00001000
00001000
00010000
,
00001000
00000000
00011000
00000000
00010000
01000000
00010000
00000000
,
00001000
00100000
00001000
01000000
,
00010000
00000000
00011000
00000000
00001000
00000100
00001000
00000000
,
00000100
00000001
00000100
00000010
,
00001000
00000000
00001001
00000000
00000001
00000010
00000100
00000000
,
00001000
00000010
00001000
00000100
,
00000010
00000000
00001010
00000000
00000010
00000100
00010000
00000000
,
00001000
00010000
00001000
00010000
00001000
00000000
00010000
00000000
,
00002000
00003000
00100000
00010000
00200000
00300000
00001000
00010000
,
00002000
00003000
00100000
00010000
00200000
00300000
00001000
00010000
,
00000020
00000030
00010000
00001000
00020000
00030000
00000100
00001000
,
00000200
00000300
00010000
00001000
00020000
00030010
00000001
00000100
,
00000001
00000000
00000000
00000000
;

//---------------dance-double - ----------------
#NOTEDATA:;
#CHARTNAME:;
#STEPSTYPE:dance-double;
#DESCRIPTION:;
#CHARTSTYLE:;
#DIFFICULTY:Hard;
#METER:13;
#RADARVALUES:0.464800,0.754279,0.146837,0.293674,0.224120,421.000000,402.000000,19.000000,38.000000,0.000000,0.000000,0.000000,0.000000,0.000000,0.464800,0.754279,0.146837,0.293674,0.224120,421.000000,402.000000,19.000000,38.000000,0.000000,0.000000,0.000000,0.000000,0.000000;
#CREDIT:led_light;
#NOTES:
// measure 0
00000000
00000000
00000000
00000000
,  // measure 1
00000000
00000000
00000000
00000000
,  // measure 2
00000000
00000000
00000000
00000000
,  // measure 3
00000000
00000000
00000000
00000000
,  // measure 4
00000000
00000000
00000000
00000000
,  // measure 5
00000220
00000330
00001000
00010000
02000000
03000000
10000000
01000000
,  // measure 6
00020000
00000000
00030000
00000000
00001000
00000000
00010000
00000000
00200000
00000000
00300000
00000000
10000000
01000000
00000000
01000000
,  // measure 7
00200000
00300000
00001000
00010000
00000020
00000030
00010000
00001000
,  // measure 8
00200000
00000000
00000000
00000000
01000000
00000000
00000000
00000000
00000000
00000000
00320000
00000000
01030000
00100000
10000000
00100000
,  // measure 9
20010000
00000000
00000000
00000000
31000000
00100000
01000000
00100000
01000000
00000000
00010000
00000000
00001000
00000100
00000001
00000100
,  // measure 10
00000020
00000000
00000000
00000000
00001030
00000100
00001000
00000100
00001000
00000000
00000001
00000000
00000010
00000100
00000010
00000001
,  // measure 11
00001000
00000100
00002000
00000000
00003010
00001000
00000010
00001000
00000010
00000000
00000100
00000000
00000001
00000010
00001000
00010000
,  // measure 12
00002000
00000000
00000000
00000000
00103000
00010000
00100000
00010000
00100000
00000000
10000000
00000000
00100000
01000000
10000000
01000000
,  // measure 13
20010000
00000000
00000000
00000000
30100000
01000000
00100000
01000000
00100000
00000000
00010000
00000000
00001000
00000010
00000001
00000010
,  // measure 14
00000200
00000000
00000000
00000000
00001300
00000010
00001000
00000010
00001000
00000000
00000001
00000000
00000100
00000010
00000100
00000001
,  // measure 15
00001000
00000010
00002000
00000000
00003100
00001000
00000100
00001000
00000100
00000000
00000010
00000000
00000001
00000100
00001000
00010000
,  // measure 16
00002000
01000000
00020000
00003000
,  // measure 17
01030000
00000000
00200000
00300000
00000000
00000000
00200000
00300000
,  // measure 18
00000000
00000000
02000000
03000000
00000000
00000000
02000000
03000000
,  // measure 19
00000000
00000000
00000200
00000300
00000000
00000000
00000200
00000300
,  // measure 20
00000000
00000000
00000020
00000030
00000000
00000000
00000020
00000030
,  // measure 21
00001000
00000100
00000010
00000000
00000100
00001000
00000001
00000000
00001000
00000100
00010000
00000000
00000100
00001000
00000010
00000000
,  // measure 22
00010000
00001000
00100000
00000000
00010000
10000000
00100000
00000000
10000000
01000000
00100000
00000000
01000000
10000000
00100000
00000000
,  // measure 23
10000000
01000000
10000000
01000000
00100000
00010000
00100000
00010000
01000000
00001000
01000000
00001000
00010000
00001000
00010000
00001000
,  // measure 24
00100000
01000000
00010000
00001000
00100000
01000000
00010000
00001000
00000100
00000010
00000100
00000010
00002000
00000000
00000000
00000000
,  // measure 25
00003001
00000000
00000110
00000000
00001000
00000010
00001000
00000001
,  // measure 26
00000010
00000100
00010000
00001000
00100000
00010000
01000000
00100000
,  // measure 27
10000000
00000000
11000000
00000000
00010000
00100000
00010000
00100000
,  // measure 28
10000000
00100000
01000000
00100000
00001000
00010000
00000010
00000100
,  // measure 29
00001000
00000000
00000110
00000000
00001000
00000010
00001000
00000001
,  // measure 30
00000100
00000010
00001000
00000001
00001000
00000100
00001000
00010000
,  // measure 31
00100000
00000000
01100000
00000000
01000000
10000000
01000000
10000000
,  // measure 32
00200000
00000000
00000000
00000000
,  // measure 33
10300000
00000000
01100000
00000000
00010000
01000000
00010000
10000000
,  // measure 34
01000000
00100000
00001000
00010000
00000100
00001000
00000010
00000100
,  // measure 35
00000001
00000000
00000011
00000000
00001000
00000100
00001000
00000100
,  // measure 36
00000001
00000100
00000010
00000100
00010000
00001000
01000000
00100000
,  // measure 37
00010000
00000000
01100000
00000000
00010000
01000000
00010000
10000000
,  // measure 38
00100000
01000000
00010000
10000000
00010000
00100000
00010000
00001000
,  // measure 39
00000100
00000000
00000110
00000000
00000010
00000001
00000010
00000001
,  // measure 40
00000200
00000000
00000000
00000000
,  // measure 41
00000301
00000000
00001001
00000000
00000001
00000100
00000010
00000000
,  // measure 42
00001000
00000100
00000010
00000100
00000001
00000100
00001000
00000000
,  // measure 43
00000100
00000000
00000110
00000000
00001000
00010000
00001000
00000000
,  // measure 44
01000000
00010000
01000000
00100000
10000000
00010000
00100000
00000000
,  // measure 45
10000000
00000000
01100000
00000000
01000000
10000000
00100000
00000000
,  // measure 46
10000000
01000000
00100000
00010000
00100000
01000000
10000000
00000000
,  // measure 47
00010000
00000000
01010000
00000000
00100000
01000000
00001000
00000000
,  // measure 48
00010000
00010000
00010000
01000000
,  // measure 49
10000000
00000000
11000000
00100000
00010000
01000000
00100000
10000000
,  // measure 50
00010000
00100000
01000000
00100000
10000000
00100000
00010000
01000000
,  // measure 51
00001000
00000000
00000000
00000000
00011000
00000000
00000000
00010000
01000000
00000000
00010000
00000000
00001000
00000000
00010000
00000000
,  // measure 52
00000010
00001000
00000010
00000100
00000001
00001000
00000100
00000010
,  // measure 53
00000001
00000000
00000101
00000010
00001000
00000001
00000100
00000010
,  // measure 54
00001000
00000100
00000010
00000001
00000010
00000100
00001000
00000100
,  // measure 55
00000010
00000000
00001100
00001000
00000001
00000100
00000010
00010000
,  // measure 56
00001000
00010000
00001000
00100000
00010000
10000000
00100000
01000000
,  // measure 57
00002000
00003000
00100000
01000000
00020000
00030000
00001000
00000100
,  // measure 58
00000020
00000030
00010000
00001000
00200000
00300000
00001000
00010000
,  // measure 59
00000020
00000030
00000100
00001000
00020000
00030000
00001000
00000010
,  // measure 60
00000002
00000000
00000003
00000000
00000010
00000000
00001000
00000000
00020000
00000000
00130000
00010000
00100000
00000000
20000000
00000000
,  // measure 61
31000000
00000000
00000000
00000000
;
