#VERSION:0.83;
#TITLE:STARDUST MERMAID;
#SUBTITLE:;
#ARTIST:Music by MasKaleido, Vocal by ぁゅ;
#TITLETRANSLIT:;
#SUBTITLETRANSLIT:;
#ARTISTTRANSLIT:Music by MasKaleido, Vocal by ayu;
#GENRE:BEMANI;
#ORIGIN:;
#CREDIT:;
#BANNER:STARDUST MERMAID.png;
#BACKGROUND:STARDUST MERMAID-bg.png;
#PREVIEWVID:;
#JACKET:STARDUST MERMAID-jacket.png;
#CDIMAGE:;
#DISCIMAGE:;
#LYRICSPATH:;
#CDTITLE:../cdtitle.png;
#MUSIC:STARDUST MERMAID.ogg;
#OFFSET:0.860000;
#SAMPLESTART:7.824000;
#SAMPLELENGTH:15.000000;
#SELECTABLE:YES;
#BPMS:0.000=128.000;
#STOPS:;
#DELAYS:;
#WARPS:;
#TIMESIGNATURES:0.000=4=4;
#TICKCOUNTS:0.000=4;
#COMBOS:0.000=1;
#SPEEDS:0.000=1.000=0.000=0;
#SCROLLS:0.000=1.000;
#FAKES:;
#LABELS:0.000=Song Start;
#BGCHANGES:-99.000=../bg.avi=1.000=0=0=1=====,
99999=-nosongbg-=1.000=0=0=0 // don't automatically add -songbackground-
;
#KEYSOUNDS:;
#ATTACKS:
;

//---------------dance-single - ----------------
#NOTEDATA:;
#CHARTNAME:;
#STEPSTYPE:dance-single;
#DESCRIPTION:;
#CHARTSTYLE:;
#DIFFICULTY:Beginner;
#METER:2;
#RADARVALUES:0.071774,0.129723,0.016473,0.074127,0.000000,61.000000,59.000000,2.000000,9.000000,0.000000,0.000000,0.000000,0.000000,0.000000,0.071774,0.129723,0.016473,0.074127,0.000000,61.000000,59.000000,2.000000,9.000000,0.000000,0.000000,0.000000,0.000000,0.000000;
#CREDIT:led_light;
#NOTES:
0000
0000
0000
0000
,
0000
0000
0000
0000
,
0000
0000
0000
0000
,
0000
0000
0000
0000
,
0000
0000
0000
0000
,
0100
0000
0000
0000
,
0100
0000
0000
0000
,
0010
0000
0000
0000
,
0010
0000
0000
0000
,
1000
0000
0000
0000
,
1000
0000
0000
0000
,
0001
0000
0000
0000
,
0001
0000
0000
0000
,
2000
0000
0000
0000
,
3000
0000
0000
0000
,
0002
0000
0000
0000
,
0003
0000
0000
0000
,
0010
0000
0000
0000
,
0010
0000
0000
0000
,
0100
0000
0000
0000
,
0100
0000
0000
0000
,
1000
0000
0000
0000
,
1000
0000
0000
0000
,
0001
0000
0000
0000
,
0001
0000
0000
0000
,
0200
0000
0000
0000
,
0300
0000
0000
0000
,
0020
0000
0000
0000
,
0030
0000
0000
0000
,
1000
0000
0000
0000
,
0001
0000
0000
0000
,
1000
0000
0000
0000
,
1001
0000
0000
0000
,
0001
0000
0001
0000
,
0001
0000
0000
0000
,
0010
0000
0010
0000
,
0010
0000
0000
0000
,
1000
0000
1000
0000
,
1000
0000
0000
0000
,
0100
0000
0100
0000
,
0100
0000
0000
0000
,
0001
0000
0001
0000
,
0001
0000
0000
0000
,
1000
0000
1000
0000
,
1000
0000
0000
0000
,
0010
0000
0000
0000
,
0100
0000
0000
0000
,
0002
0000
0000
0000
,
0003
0000
0000
0000
,
2000
0000
0000
0000
,
3000
0000
0000
0000
,
0001
0000
0001
0000
,
0001
0000
0000
0000
,
0010
0000
0000
0000
,
0100
0000
0000
0000
,
2000
0000
0000
0000
,
3000
0000
0000
0000
,
0001
0000
0001
0000
,
0001
0000
0000
0000
,
1000
0000
1000
0000
,
1000
0000
0000
0000
,
2002
0000
0000
0000
,
0000
0000
0000
0000
,
3003
0000
0000
0000
;

//---------------dance-single - ----------------
#NOTEDATA:;
#CHARTNAME:;
#STEPSTYPE:dance-single;
#DESCRIPTION:;
#CHARTSTYLE:;
#DIFFICULTY:Easy;
#METER:5;
#RADARVALUES:0.214145,0.233501,0.024709,0.205909,0.000000,182.000000,179.000000,3.000000,25.000000,0.000000,0.000000,0.000000,0.000000,0.000000,0.214145,0.233501,0.024709,0.205909,0.000000,182.000000,179.000000,3.000000,25.000000,0.000000,0.000000,0.000000,0.000000,0.000000;
#CREDIT:led_light;
#NOTES:
0000
0000
0000
0000
,
0000
0000
0000
0000
,
0000
0000
0000
0000
,
0000
0000
0000
0000
,
0000
0000
0000
0000
,
1000
0100
0001
0100
,
2000
0001
0001
3000
,
0001
0100
0010
1000
,
0002
0003
2000
3000
,
0001
0010
1000
0010
,
0002
1000
1000
0003
,
0001
0100
0020
0030
,
1000
0100
0010
0001
,
2000
0000
0100
0000
,
0001
0001
0001
3000
,
0001
0000
0100
0100
,
0010
0000
1000
2000
,
3001
0001
0001
0000
,
1000
1000
1000
0000
,
0010
0010
0010
0000
,
0100
0001
0010
0100
,
1000
1000
1000
0000
,
0001
0001
0001
0000
,
0100
0100
0100
0000
,
0010
1000
0100
0010
,
0002
0000
1003
0000
,
2000
0000
3001
0000
,
0020
0000
0130
0000
,
0200
0000
0310
0000
,
1000
0100
0001
0000
,
1000
0010
0001
0000
,
1000
0010
0001
0010
,
1001
0000
0110
0000
,
1000
0100
0001
0100
,
2000
0001
0001
3000
,
0001
0100
0010
1000
,
0002
0003
2000
3000
,
0001
0010
1000
0010
,
0002
1000
1000
0003
,
0001
0100
0020
0030
,
1000
0100
0010
0001
,
1000
0010
0001
0010
,
2000
0001
0001
3000
,
0001
0010
0100
1000
,
0010
0010
0100
0100
,
0002
0003
2000
3000
,
0001
0010
1000
0010
,
0001
1000
0010
0010
,
0100
0001
1000
0001
,
0020
0000
1000
0000
,
0100
0100
0100
0030
,
0010
0001
0100
0010
,
1000
1000
0001
0001
,
0020
0030
0200
0300
,
1000
0010
0001
0010
,
1000
0100
0010
0010
,
0001
0100
0010
1000
,
0002
0000
0100
0000
,
1000
1000
1000
0003
,
1000
0000
0100
0100
,
0010
0000
0001
1000
,
2002
0000
0000
0000
,
0000
0000
0000
0000
,
3003
0000
0000
0000
;

//---------------dance-single - ----------------
#NOTEDATA:;
#CHARTNAME:;
#STEPSTYPE:dance-single;
#DESCRIPTION:;
#CHARTSTYLE:;
#DIFFICULTY:Hard;
#METER:10;
#RADARVALUES:0.430643,0.467001,0.230618,0.345927,0.070009,366.000000,338.000000,28.000000,42.000000,0.000000,0.000000,0.000000,0.000000,0.000000,0.430643,0.467001,0.230618,0.345927,0.070009,366.000000,338.000000,28.000000,42.000000,0.000000,0.000000,0.000000,0.000000,0.000000;
#CREDIT:led_light;
#NOTES:
0000
0000
0000
0000
,
0000
0000
0000
0000
,
0000
0000
0000
0000
,
0000
0000
0000
0000
0000
0000
0000
1001
,
0000
1001
1001
0000
0110
0000
0000
0000
,
2010
0000
3001
0000
0120
0000
0031
1000
,
0010
0100
0001
0100
0020
0000
1030
0000
,
0001
0010
0100
0000
0010
0100
1000
0000
,
0001
1000
0001
1000
0020
0000
0130
0000
,
0002
0013
2000
3010
,
0001
1000
0010
0100
0002
0000
1003
0000
,
0100
0001
0100
1000
0002
0000
1003
0000
,
0010
0100
0001
0100
1000
0100
0001
1000
,
0020
0000
0100
0000
1000
0000
0130
0001
,
0010
0100
1000
0001
2000
0000
3010
0000
,
0100
0000
0000
0001
1000
0000
0010
0000
1000
0000
0001
0000
0010
0000
0100
0000
,
0010
0000
0000
0001
1000
0000
0100
0000
1000
0000
0001
0000
0200
0000
0320
0000
,
1030
0000
0000
1000
0001
0000
0010
0000
0100
0000
0000
0000
0100
0000
0000
0000
,
1000
0000
0000
1000
0001
0000
0100
0000
0010
0000
0000
0000
1000
0000
0000
0000
,
0001
0000
0000
0001
1000
0000
0100
0000
0010
0000
0000
0000
0010
0000
0000
0000
,
0001
0000
0000
0001
1000
0000
0010
0000
0100
0000
0001
0000
0000
0001
0000
0000
,
1000
0000
0000
1000
0001
0000
0100
0000
0010
0000
0000
0000
0010
0000
0000
0000
,
1000
0000
0000
1000
0001
0000
0010
0000
0100
0000
0000
0000
1000
0000
0000
0000
,
0001
0000
0000
0001
1000
0000
0010
0000
0100
0000
0000
0000
0100
0000
0000
0000
,
0001
0000
0000
0001
1000
0000
0100
0000
0010
0000
0001
0000
1000
0000
0001
0000
,
2000
0100
0010
3001
,
0002
0010
0100
1003
,
2000
0000
0100
0000
3010
0100
0001
1000
,
0002
0000
0010
0000
0100
0000
1003
0001
,
0010
0100
1000
0100
0020
0000
0031
1000
,
0010
0100
0001
0100
0020
0000
1030
0001
,
0010
1000
0010
0001
0100
0010
1000
1001
,
0000
1001
1001
0000
0110
0000
0000
0000
,
2100
0000
3001
0000
0210
0000
0301
1000
,
0100
0010
0001
0010
0200
0000
1300
0000
,
0001
0100
0010
0000
0100
0010
1000
0000
,
0001
1000
0001
1000
0200
0000
0310
0000
,
0002
0103
2000
3100
,
0001
1000
0100
0010
0002
0000
1003
0000
,
0010
0001
0010
1000
0002
0000
1003
0000
,
0100
0010
0001
0010
1000
0010
0001
1000
,
2010
0000
3001
0000
0120
0000
0031
1000
,
0010
0100
0001
0100
0020
0000
1030
0000
,
0001
0010
0100
0000
0010
0100
1000
0010
,
1010
0011
0101
1100
,
2001
3010
0002
0013
,
1000
0000
0001
0000
0100
0010
1000
0000
,
0100
0000
0000
1000
0001
0000
0010
0000
0001
0000
1000
0000
0010
0000
0100
0000
,
0010
0000
0000
1000
0001
0000
0100
0000
0001
0000
1000
0000
0100
0000
0010
0000
,
0002
0000
0203
0000
,
2300
0000
3020
0000
0031
1000
1001
0000
,
0001
0100
0010
0000
0100
0010
1000
0100
,
1100
0101
0011
1010
,
2001
3100
0002
0103
,
1000
0000
0001
0000
0010
0100
1000
0000
,
0010
0000
0000
1000
0001
0000
0100
0000
0001
0000
1000
0000
0100
0000
0010
0000
,
0100
0000
0000
1000
0001
0000
0010
0000
0001
0000
1000
0000
0010
0000
0100
0000
,
0102
0000
1003
0000
0210
0000
1300
0001
,
0100
0010
1000
0010
0200
0000
0301
0000
,
0100
0000
0000
0010
1000
0000
0100
0000
0001
0000
0100
0000
1000
0000
0001
0000
,
0010
0000
0000
0100
1000
0000
0010
0000
0001
0000
0010
0000
1000
0000
0001
0000
,
2002
0000
0000
0000
,
0000
0000
0000
0000
,
3003
0000
0000
0000
;

//---------------dance-single - ----------------
#NOTEDATA:;
#CHARTNAME:;
#STEPSTYPE:dance-single;
#DESCRIPTION:;
#CHARTSTYLE:;
#DIFFICULTY:Challenge;
#METER:13;
#RADARVALUES:0.618903,0.674557,0.452999,0.411818,0.164727,526.000000,471.000000,55.000000,50.000000,0.000000,0.000000,0.000000,0.000000,0.000000,0.618903,0.674557,0.452999,0.411818,0.164727,526.000000,471.000000,55.000000,50.000000,0.000000,0.000000,0.000000,0.000000,0.000000;
#CREDIT:led_light;
#NOTES:
// measure 0
0000
0000
0000
0000
,  // measure 1
0000
0000
0000
0000
,  // measure 2
0000
0000
0000
0000
,  // measure 3
0200
0010
0310
0100
0001
0010
0100
1001
,  // measure 4
0000
0110
1001
0000
0110
0000
0000
0000
,  // measure 5
2100
0001
3001
1000
1020
0100
0130
0001
,  // measure 6
0100
0000
0010
0000
2000
0000
0001
0000
3001
0000
0010
0000
1001
0000
0001
1000
,  // measure 7
0010
0100
0101
0001
0010
0100
1100
0001
,  // measure 8
0200
0000
0010
0000
0310
0000
0100
0001
1000
0000
0010
0000
1001
0000
0000
0000
,  // measure 9
2100
0001
3001
2000
0010
3010
0100
0001
,  // measure 10
0020
0100
0130
0010
0001
1000
1010
0100
,  // measure 11
0001
1000
0100
1000
0002
0010
1003
0001
,  // measure 12
0010
0100
0001
1000
0010
0001
1000
0001
,  // measure 13
2001
0000
3010
0100
0102
1000
1003
0001
,  // measure 14
0010
0100
0010
0001
0100
0010
1001
0000
,  // measure 15
1100
0000
0010
0001
0010
0000
0100
0000
1000
0010
1000
0000
0001
0000
0010
0000
,  // measure 16
0011
0000
0010
0100
1000
0000
0010
0100
0001
0100
0010
0000
1000
0001
1000
0001
,  // measure 17
2000
0000
0000
3001
0010
0000
0100
0000
1000
0000
0001
0000
0010
0000
0100
0000
,  // measure 18
0020
0000
0000
0031
1000
0000
0001
0000
0100
0000
0010
0000
1000
0000
0001
0000
,  // measure 19
2000
0000
0000
3100
0010
0000
0001
0000
1000
0000
0010
0000
0001
0000
0010
0000
,  // measure 20
2000
0000
0000
3001
0010
0000
0100
0000
0010
0000
0001
0000
0100
0010
0000
1000
,  // measure 21
0002
0000
0000
1003
0100
0000
0010
0000
0001
0000
1000
0000
0100
0000
0010
0000
,  // measure 22
0200
0000
0000
1300
0001
0000
1000
0000
0010
0000
0100
0000
0001
0000
1000
0000
,  // measure 23
0002
0000
0000
0013
0100
0000
1000
0000
0001
0000
0100
0000
1000
0000
0100
0000
,  // measure 24
0002
0000
0000
1003
0100
0000
0010
0000
0100
0000
1000
0000
0010
0000
0100
0000
,  // measure 25
0002
0100
0010
2000
0003
3001
0010
0100
,  // measure 26
2000
0010
0100
0002
3000
1003
0010
0100
,  // measure 27
0002
0010
0100
2000
0003
3001
0100
0010
,  // measure 28
2000
0100
0010
0002
3000
1003
0100
0010
,  // measure 29
0001
0100
1000
0100
0020
0100
0130
0001
,  // measure 30
1000
0000
0100
0000
0001
0000
0100
0000
0020
0000
0100
0000
0130
0000
1000
0001
,  // measure 31
1000
0010
0100
0001
0010
0100
1000
1001
,  // measure 32
0000
0110
1001
0000
0110
0000
0000
0000
,  // measure 33
0102
1000
1003
0001
0021
0100
0130
1000
,  // measure 34
0100
0000
0010
0000
0002
0000
1000
0000
1003
0000
0010
0000
1001
0000
1000
0001
,  // measure 35
0010
0100
1100
1000
0010
0100
0101
1000
,  // measure 36
0200
0000
0010
0000
0310
0000
0100
1000
0001
0000
0010
0000
1001
0000
0000
0000
,  // measure 37
0102
1000
1003
0002
0010
0013
0100
1000
,  // measure 38
0020
0100
0130
0010
1000
0001
0011
0100
,  // measure 39
1000
0001
0100
0001
2000
0010
3001
1000
,  // measure 40
0010
0100
1000
0001
0010
1000
0001
1000
,  // measure 41
2010
0001
3001
1000
1200
0010
0310
0001
,  // measure 42
0010
0000
0100
0000
2000
0000
0001
0000
3001
0000
0100
0000
1001
0000
0001
1000
,  // measure 43
0100
0010
0011
0001
0100
0010
1010
0001
,  // measure 44
1001
0010
1100
0001
1001
0010
0101
0000
,  // measure 45
2100
0010
3010
0200
0001
0301
0010
0100
,  // measure 46
1000
0001
1000
0010
0100
0010
1000
0001
,  // measure 47
0010
0000
0100
1000
0010
0000
1000
0000
0100
0010
0001
0000
0100
0000
0010
0000
,  // measure 48
1000
0000
0001
0010
0100
0000
0010
0001
1000
0000
0010
0000
0100
0000
0001
0000
,  // measure 49
0102
0000
0013
0000
2100
0000
3010
0100
,  // measure 50
0001
0000
0001
0000
0100
0000
0100
0010
1000
0001
1000
0000
1001
0000
1000
0001
,  // measure 51
0010
0100
1100
1000
0010
0100
0101
1000
,  // measure 52
1001
0100
0011
1000
1001
0100
1010
0000
,  // measure 53
0012
0100
0103
0020
1000
1030
0100
0010
,  // measure 54
0001
1000
0001
0100
0010
0100
0001
1000
,  // measure 55
0100
0000
0010
0001
0100
0000
0001
0000
0010
0100
1000
0000
0010
0000
0100
0000
,  // measure 56
0001
0000
1000
0100
0010
0000
0100
1000
0001
0000
0100
0000
0010
0000
1000
0000
,  // measure 57
2001
0000
3100
0010
0012
1000
1003
0001
,  // measure 58
0100
0010
0100
0001
0010
0100
1001
0000
,  // measure 59
1010
0000
0100
0001
0100
0000
0010
0000
1000
0100
1000
0000
0001
0000
0100
0000
,  // measure 60
0101
0000
0100
0010
1000
0000
0100
0010
0001
0010
0100
1000
0001
0000
1000
0000
,  // measure 61
2002
0000
0000
0000
,  // measure 62
0000
0000
0000
0000
,  // measure 63
3003
0000
0000
0000
;

//---------------dance-single - ----------------
#NOTEDATA:;
#CHARTNAME:;
#STEPSTYPE:dance-single;
#DESCRIPTION:;
#CHARTSTYLE:;
#DIFFICULTY:Medium;
#METER:7;
#RADARVALUES:0.289449,0.337279,0.140018,0.452999,0.000000,246.000000,229.000000,17.000000,55.000000,0.000000,0.000000,0.000000,0.000000,19.000000,0.289449,0.337279,0.140018,0.452999,0.000000,246.000000,229.000000,17.000000,55.000000,0.000000,0.000000,0.000000,0.000000,19.000000;
#CREDIT:led_light;
#NOTES:
0000
0000
0000
0000
,
0000
0000
0000
0000
,
0000
0000
0000
0000
,
0000
0000
0000
0000
,
0000
0000
0000
0000
,
1001
0010
1001
0100
,
0010
0000
0001
0100
0020
0000
1030
0000
,
0200
0301
0200
1300
,
0002
0000
0103
0010
2000
0000
3001
0000
,
0020
1030
0020
0031
,
2000
0000
3010
0100
0002
0000
1003
0000
,
0001
0010
0001
0000
2000
0000
3100
0000
,
1000
0010
1000
0000
0001
0100
0001
0000
,
2000
0010
0100
0001
,
0100
0010
0002
3003
,
0001
0000
0010
0000
0100
1000
0100
0000
,
1000
0000
0010
0000
0100
0001
2000
0000
,
3001
0110
1000
1000
,
0100
1001
0010
0010
,
1000
0110
0001
0001
,
0010
1001
0100
1001
,
1000
0110
0001
0001
,
0010
1001
0100
0100
,
0001
0110
1000
1000
,
0100
1001
0010
0100
,
0002
0000
1003
0100
0020
0000
0130
0000
,
2000
0010
3002
0100
,
2003
0000
3001
0010
0200
0000
0310
0000
,
0002
0100
2003
0010
,
3001
0010
0100
0000
2000
0000
3010
0000
,
1000
0100
0010
0000
0002
0000
0103
0000
,
0010
1000
0100
0000
0010
0001
0100
0010
,
0000
1000
0001
0000
1001
0000
0000
0000
,
1001
0010
1001
0100
,
0010
0000
0001
0100
0020
0000
1030
0000
,
0200
0301
0200
1300
,
0002
0000
0103
0010
2000
0000
3001
0000
,
0020
1030
0020
0031
,
2000
0000
3010
0100
0002
0000
1003
0000
,
0001
0010
0001
0000
2000
0000
3100
0000
,
1000
0010
1000
0000
0001
0100
0001
0000
,
1001
0100
1001
0010
,
0100
0000
0001
0010
0200
0000
1300
0000
,
0020
0031
0020
1030
,
0001
0010
1000
0100
,
0002
00F3
2000
30F0
,
0002
0F03
2000
3F00
,
000F
0000
0F00
0000
00F0
F000
00F0
0000
,
F000
0000
0F00
0000
00F0
000F
F000
0000
,
0002
0000
0203
0000
,
2300
3020
0032
1003
,
0200
0301
0200
1300
,
0001
0100
1000
0010
,
0002
0103
2000
3100
,
0002
0013
2000
3010
,
000F
0000
0010
0000
0100
F000
0100
0000
,
F000
0000
0010
0000
0100
000F
F000
0000
,
0002
0010
0100
1000
,
0100
0010
2000
3003
,
1000
0000
0010
0000
0100
0001
0010
0000
,
0001
0000
0100
0000
0010
1000
0100
0000
,
2002
0000
0000
0000
,
0000
0000
0000
0000
,
3003
0000
0000
0000
;
