#VERSION:0.83;
#TITLE:SPEED DEMON;
#SUBTITLE:;
#ARTIST:GUHROOVY feat. NO+CHIN;
#TITLETRANSLIT:;
#SUBTITLETRANSLIT:;
#ARTISTTRANSLIT:;
#GENRE:BEMANI;
#ORIGIN:;
#CREDIT:;
#BANNER:SPEED DEMON.png;
#BACKGROUND:SPEED DEMON-bg.png;
#PREVIEWVID:;
#JACKET:SPEED DEMON-jacket.png;
#CDIMAGE:;
#DISCIMAGE:;
#LYRICSPATH:;
#CDTITLE:../cdtitle.png;
#MUSIC:SPEED DEMON.ogg;
#OFFSET:0.256000;
#SAMPLESTART:31.320000;
#SAMPLELENGTH:15.000000;
#SELECTABLE:YES;
#BPMS:0.000=190.000;
#STOPS:;
#DELAYS:;
#WARPS:;
#TIMESIGNATURES:0.000=4=4;
#TICKCOUNTS:0.000=4;
#COMBOS:0.000=1;
#SPEEDS:0.000=1.000=0.000=0;
#SCROLLS:0.000=1.000;
#FAKES:;
#LABELS:0.000=Song Start;
#BGCHANGES:-99.000=../bg.avi=1.000=0=0=1=====,
99999=-nosongbg-=1.000=0=0=0 // don't automatically add -songbackground-
;
#KEYSOUNDS:;
#ATTACKS:
;

//---------------dance-single - ----------------
#NOTEDATA:;
#CHARTNAME:;
#STEPSTYPE:dance-single;
#DESCRIPTION:;
#CHARTSTYLE:;
#DIFFICULTY:Challenge;
#METER:17;
#RADARVALUES:0.864076,1.156340,0.232945,0.473922,0.546215,753.000000,724.000000,29.000000,59.000000,0.000000,0.000000,0.000000,0.000000,0.000000,0.864076,1.156340,0.232945,0.473922,0.546215,753.000000,724.000000,29.000000,59.000000,0.000000,0.000000,0.000000,0.000000,0.000000;
#CREDIT:led_light;
#NOTES:
// measure 0
0000
0000
0000
0000
,  // measure 1
0000
0000
0000
0000
,  // measure 2
0000
0000
0000
0000
,  // measure 3
0000
0000
0000
0000
,  // measure 4
0000
0000
0000
0000
,  // measure 5
0000
0000
0000
0000
,  // measure 6
0000
0000
0000
0000
,  // measure 7
0000
0000
0000
0000
,  // measure 8
0000
0000
0000
0000
,  // measure 9
2100
0000
0000
0000
3001
0100
0001
0100
0001
0000
0000
0000
1000
0000
0100
0000
,  // measure 10
0010
0000
0000
0000
0000
0000
0100
0000
0000
0000
0000
0000
1000
0000
0000
0001
0000
0000
1000
0000
0000
0001
0000
0000
1000
0000
0000
0000
0000
0000
0000
0000
0000
0000
0000
0000
0001
0000
0000
0000
0100
0000
0000
0000
0010
0000
0000
0000
,  // measure 11
1000
0000
0000
0000
0001
0010
0001
0010
0001
0000
0000
0000
0010
0000
0100
0000
,  // measure 12
0010
0000
0000
0000
0000
0000
0001
0000
0000
0000
0000
0000
1000
0000
0000
0100
0000
0000
1000
0000
0000
0100
0000
0000
1000
0000
0000
0000
0000
0000
0000
0000
0000
0000
0000
0000
0001
0000
0000
0000
0010
0000
0000
0000
0100
0000
0000
0000
,  // measure 13
1000
0000
0000
0000
0010
0100
0010
0100
0010
0000
0000
0000
1000
0000
0001
0000
,  // measure 14
0010
0000
0000
0000
0000
0000
0100
0000
0000
0000
0000
0000
0010
0000
0000
0001
0000
0000
0010
0000
0000
0001
0000
0000
0010
0000
0000
0000
0000
0000
0000
0000
0000
0000
0000
0000
0100
0000
0000
0000
1000
0000
0000
0000
0001
0000
0000
0000
,  // measure 15
1000
0000
0000
0000
0010
0100
0010
0100
0010
0000
0000
0000
0001
0000
0010
0000
,  // measure 16
1000
0000
0000
0000
0000
0000
0100
0000
0000
0000
0000
0000
0010
0000
0000
0001
0000
0000
0010
0000
0000
0001
0000
0000
0020
0000
0000
0000
0000
0000
0000
0000
0000
0000
0000
0000
0130
0000
0000
0000
1000
0000
0000
0000
0001
0000
0000
0000
,  // measure 17
1001
0000
0001
0000
0010
0000
0100
0000
0010
0000
0001
0000
0010
0100
0010
0000
,  // measure 18
0001
1000
0100
1000
0001
1000
0010
0000
0100
0000
0100
0000
0001
0000
0001
0000
,  // measure 19
1001
0000
0001
0000
0010
0000
0100
0000
0010
0000
0001
0000
1000
0100
1000
0000
,  // measure 20
0001
0000
0010
0100
1000
0001
1000
0000
0001
0000
0100
0000
0010
0000
1000
0000
,  // measure 21
1001
0000
1000
0100
1000
0100
1000
0000
0001
0010
0001
0010
0001
1000
0001
0000
,  // measure 22
1000
0100
1000
0100
0010
0001
1000
0000
0010
0100
0010
0100
0001
1000
0010
0000
,  // measure 23
1000
0100
0010
0001
0100
0010
1000
0010
0100
0001
0010
0100
1000
0001
0010
0100
,  // measure 24
2000
0000
3001
0100
0001
0000
1000
0000
0100
0010
0001
0100
0010
0000
1000
0000
,  // measure 25
2100
0000
0000
0000
3001
0000
0100
0000
0010
0000
0100
0001
0000
0100
0001
0000
,  // measure 26
0010
0000
0100
0000
0010
0000
0001
0000
0100
0000
0010
1000
0100
0000
0010
0000
,  // measure 27
0021
0000
0000
0000
0130
0000
1000
0000
0001
0000
0100
0010
0000
0100
0010
0000
,  // measure 28
0001
0000
1000
0000
0001
0000
0010
0000
0100
0000
0010
1000
0001
0000
0010
0000
,  // measure 29
0120
0000
0000
0000
0031
0000
1000
0000
0010
0000
0100
0001
0000
0100
0001
0000
,  // measure 30
1000
0000
0100
0000
0001
0000
0100
0000
1000
0000
0100
0010
0001
0000
0100
0000
,  // measure 31
0201
0000
0000
0000
0310
0000
1000
0000
0001
0000
0010
0100
0000
0010
0100
0000
,  // measure 32
1000
0000
0001
1000
0010
0100
0010
0100
0001
0010
0001
0010
0100
0000
0010
0000
,  // measure 33
0012
0000
0000
0000
1003
0000
0010
0000
0100
0000
0010
1000
0100
0010
0001
0000
,  // measure 34
1000
0000
1000
0000
0010
0000
0001
0000
0010
0000
0010
1000
0001
0000
0100
0000
,  // measure 35
0201
0000
0000
0000
0310
0000
1000
0000
0001
0000
0010
0100
0000
0010
0100
0000
,  // measure 36
1000
0100
1000
0000
0001
0100
0001
0000
1000
0000
0010
0100
0001
0000
0010
0000
,  // measure 37
0120
0000
0000
0000
0031
0000
0100
0000
0010
0000
1000
0001
1000
0100
0010
0000
,  // measure 38
0100
0010
0100
0000
0001
0100
0001
0000
0100
0000
1000
0001
0010
0000
0100
0000
,  // measure 39
2100
0000
0000
0000
3010
0000
0100
0000
0001
0000
0010
0100
0000
0010
0100
0000
,  // measure 40
1000
0000
0001
1000
0100
0010
0100
0010
0001
0100
0001
0100
0010
0000
1000
0000
,  // measure 41
0001
0100
1200
0000
0001
0000
1000
0000
,  // measure 42
0301
0010
1020
0000
0001
0000
1000
0000
,  // measure 43
0031
0100
1200
0000
0001
0000
1000
0000
,  // measure 44
0301
0001
0020
0000
1030
1000
0200
0000
,  // measure 45
0301
1000
1020
0000
0001
0000
1000
0000
,  // measure 46
0031
1000
1200
0000
0001
0000
1000
0000
,  // measure 47
0301
1000
1100
0100
0002
0000
0103
1000
,  // measure 48
0001
0010
0000
0010
0100
0010
0001
0010
0001
1000
0100
1000
0010
0000
0001
0000
,  // measure 49
0010
0100
0102
0000
1000
0000
0100
0000
,  // measure 50
1003
0100
0120
0000
0001
0000
0100
0000
,  // measure 51
0031
1000
1100
1000
0002
0000
1003
1000
,  // measure 52
0001
0100
1100
0100
0002
0000
1003
1000
,  // measure 53
0100
0010
0012
0000
1000
0000
0010
0000
,  // measure 54
1003
0010
0210
0000
0001
0000
0010
0000
,  // measure 55
0301
0010
1010
0010
0002
0000
1003
1000
,  // measure 56
0001
0000
1000
0010
0100
0010
0100
0010
1000
0001
0100
0001
0010
0000
0100
0000
,  // measure 57
1000
0001
0010
0001
1000
1000
0001
0100
,  // measure 58
0001
1000
0001
0001
0010
0100
0010
0001
,  // measure 59
1000
0001
0100
0001
1000
1000
0001
0010
,  // measure 60
0001
1000
0001
0001
0100
0010
0100
0001
,  // measure 61
0010
0000
0100
0000
1000
0001
1000
0001
2000
0000
0000
0000
3001
0000
0100
0000
,  // measure 62
0010
0000
0000
0000
0000
0000
1000
0000
0000
0000
0000
0000
0001
0000
0000
0010
0000
0000
0001
0000
0000
0010
0000
0000
0100
0000
0000
0000
0000
0000
0000
0000
0000
0000
0000
0000
0010
0000
0000
0000
0100
0000
0000
0000
1000
0000
0000
0000
,  // measure 63
0100
0000
0010
0000
0001
1000
0001
1000
0002
0000
0000
0000
1003
0000
0010
0000
,  // measure 64
0100
0000
0000
0000
0000
0000
0001
0000
0000
0000
0000
0000
1000
0000
0000
0100
0000
0000
1000
0000
0000
0100
0000
0000
0020
0000
0000
0000
0000
0000
0000
0000
0000
0000
0000
0000
0130
0000
0000
0000
0010
0000
0000
0000
0001
0000
0000
0000
,  // measure 65
1001
0001
0100
0001
0020
0000
0130
1000
,  // measure 66
0001
1000
0100
1000
0020
0000
0130
0001
,  // measure 67
0010
1000
0002
0000
0103
0010
0001
1000
,  // measure 68
0010
0001
2000
0000
3100
0010
1000
0001
,  // measure 69
1000
0000
0100
0010
0100
0000
1000
0000
0002
0000
0000
0000
1003
0000
0010
0000
,  // measure 70
0100
0000
0010
1000
0010
0000
1000
0000
0002
0000
0000
0000
0013
0000
0100
0000
,  // measure 71
1000
0000
0001
0010
0002
0000
0000
0000
1003
0000
0010
0000
0100
0000
0001
0000
,  // measure 72
0020
0000
0000
0000
0000
0030
0110
0000
,  // measure 73
1001
0001
0100
0001
0010
0010
0100
1000
,  // measure 74
0001
1000
0100
1000
0010
0010
0100
0001
,  // measure 75
0010
1000
0001
0001
0200
0320
0032
2003
,  // measure 76
3010
0001
1000
1000
0200
0320
2030
3002
,  // measure 77
1003
0001
0010
0001
0100
0100
0010
1000
,  // measure 78
0001
1000
0010
1000
0100
0100
0010
0001
,  // measure 79
0100
1000
0001
0001
0020
0230
0302
2003
,  // measure 80
3001
0000
0010
0100
1000
0001
1000
0001
0100
0010
1000
0100
0010
0000
0001
0000
,  // measure 81
1001
0000
1000
0100
1000
0000
0010
0000
0100
0000
0100
0000
0010
0000
1000
0000
,  // measure 82
0001
0000
0010
0001
0010
0000
0100
0000
0010
0000
0010
0000
0100
0000
1000
0000
,  // measure 83
0001
0000
1000
0010
1000
0000
0010
0000
0002
0000
0023
0000
0230
0000
0302
0000
,  // measure 84
1003
0000
0001
0010
0001
0000
0010
0000
2000
0000
3020
0000
0230
0000
2300
0000
,  // measure 85
3001
0000
1000
0010
1000
0000
0100
0000
0010
0000
0001
0010
0001
0000
1000
0000
,  // measure 86
0001
0000
0100
0010
0100
0000
0010
0000
1000
0000
0100
0010
0100
0000
1000
0000
,  // measure 87
0001
0010
0001
0010
0100
1000
0100
1000
0001
1000
0100
1000
0010
0100
0010
1000
,  // measure 88
0001
0001
0020
0000
0130
0010
0001
1000
,  // measure 89
0001
1000
0100
1000
0001
0001
1000
0010
,  // measure 90
1000
0001
1000
1000
0100
0010
0100
1000
,  // measure 91
0001
1000
0010
1000
0001
0001
1000
0100
,  // measure 92
0001
0100
1000
0001
0010
0100
2000
3001
;

//---------------dance-single - ----------------
#NOTEDATA:;
#CHARTNAME:;
#STEPSTYPE:dance-single;
#DESCRIPTION:;
#CHARTSTYLE:;
#DIFFICULTY:Beginner;
#METER:5;
#RADARVALUES:0.192782,0.298410,0.072293,0.160652,0.000000,168.000000,159.000000,9.000000,20.000000,0.000000,0.000000,0.000000,0.000000,0.000000,0.192782,0.298410,0.072293,0.160652,0.000000,168.000000,159.000000,9.000000,20.000000,0.000000,0.000000,0.000000,0.000000,0.000000;
#CREDIT:led_light;
#NOTES:
0000
0000
0000
0000
,
0000
0000
0000
0000
,
0000
0000
0000
0000
,
0000
0000
0000
0000
,
0000
0000
0000
0000
,
0000
0000
0000
0000
,
0000
0000
0000
0000
,
0000
0000
0000
0000
,
0000
0000
0000
0000
,
0110
0000
0010
0000
,
0100
0000
0100
0000
,
0001
0000
1000
0000
,
0001
0000
0001
0000
,
1000
0000
0001
0000
,
0010
0000
0010
0000
,
0100
0000
1000
0000
,
0001
0000
0001
0000
,
0110
0000
0001
0000
,
1000
0000
0001
0001
,
1001
0000
0100
0000
,
0010
0000
0100
0100
,
0110
0000
0001
0000
,
1001
0000
0100
0000
,
0010
0010
0010
0010
,
0010
0000
0100
0000
,
0110
0000
1000
0000
,
0001
0001
0001
0000
,
1000
0000
0001
0000
,
0100
0100
0100
0000
,
1000
0000
0001
0000
,
0010
0010
0010
0000
,
1000
0000
0001
0000
,
0020
0000
0000
0030
,
0110
0000
0001
0000
,
1000
1000
1000
0000
,
0001
0000
1000
0000
,
0010
0010
0010
0000
,
0001
0000
1000
0000
,
0100
0100
0100
0000
,
0001
0000
1000
0000
,
0200
0000
0000
0300
,
0000
0020
0000
0030
,
0000
0020
0000
0030
,
0000
0200
0000
0300
,
1000
0000
0001
0000
,
0000
0002
0000
0003
,
0000
0002
0000
0003
,
0000
1000
2000
3000
,
1001
0000
0000
0000
,
0000
0020
0000
0030
,
0000
0020
0000
0030
,
0000
0100
0200
0300
,
0000
0001
0002
0003
,
0000
2000
0000
3000
,
0000
2000
0000
3000
,
0000
0001
0002
0003
,
1001
0000
0000
0000
,
0020
0000
0000
0000
,
0000
0000
0000
0000
,
0030
0000
0000
0000
,
0000
0000
0000
0000
,
1000
0000
0001
0000
,
0000
0000
0001
0000
,
0010
0000
0100
0000
,
0000
0000
0100
0000
,
1000
0000
1000
0000
,
0001
0000
0001
0000
,
0010
0000
0100
0000
,
0010
0000
0100
0000
,
1000
0000
1000
0000
,
0001
0000
0001
0000
,
0010
0000
0100
0000
,
0020
0000
0000
0030
,
0001
0001
0001
0000
,
1000
1000
1000
0000
,
0010
0010
0010
0000
,
0100
0100
0100
0000
,
0001
0001
0001
0000
,
1000
1000
1000
0000
,
0100
0100
0100
0000
,
0020
0000
0000
0030
,
0001
0000
0010
0000
,
1000
0000
0010
0000
,
0001
0001
0001
0000
,
1000
1000
1000
0000
,
0010
0000
0001
0000
,
0010
0000
1000
0000
,
0100
0100
0100
0000
,
0002
0000
0000
0003
,
0100
0000
0000
0000
,
1000
0000
0000
0000
,
0010
0000
0000
0000
,
0002
0000
0000
0000
0000
0000
0000
0003
;

//---------------dance-single - ----------------
#NOTEDATA:;
#CHARTNAME:;
#STEPSTYPE:dance-single;
#DESCRIPTION:;
#CHARTSTYLE:;
#DIFFICULTY:Hard;
#METER:16;
#RADARVALUES:0.780308,1.081738,0.281140,0.473922,0.309254,680.000000,645.000000,35.000000,59.000000,0.000000,0.000000,0.000000,0.000000,0.000000,0.780308,1.081738,0.281140,0.473922,0.309254,680.000000,645.000000,35.000000,59.000000,0.000000,0.000000,0.000000,0.000000,0.000000;
#CREDIT:led_light;
#NOTES:
0000
0000
0000
0000
,
0000
0000
0000
0000
,
0000
0000
0000
0000
,
0000
0000
0000
0000
,
0000
0000
0000
0000
,
0000
0000
0000
0000
,
0000
0000
0000
0000
,
0000
0000
0000
0000
,
0000
0000
0000
0000
,
1100
0000
0001
0100
0001
0000
1000
0100
,
0010
0100
1000
0001
1000
0000
0001
0100
,
0010
0000
0100
0001
0010
0000
0100
1000
,
0010
0100
0010
0010
1000
0000
0100
0010
,
0001
0000
1000
0100
1000
0000
0001
0100
,
0010
0100
0001
1000
0001
0000
1000
0100
,
0010
0000
0100
1000
0010
0000
0100
0001
,
0010
0100
0010
0010
0002
0000
0013
0100
,
0110
0000
0001
0000
1000
0000
0010
0000
1000
0000
0001
0000
0100
0010
1000
0000
,
0001
0010
0001
1000
0100
0010
0100
0000
1000
0000
0001
0000
0100
0000
0010
0000
,
0110
0001
1000
0100
1000
0001
0010
0100
,
1100
0000
0001
0100
0010
1000
0001
0000
0100
0000
0001
0000
1000
0000
0100
0000
,
0110
0000
0001
0000
1000
0100
1000
0000
0001
0000
1000
0000
0010
0100
0010
0000
,
1000
0000
0001
0000
0100
0010
1000
0000
0001
0000
1000
0000
0100
0010
0001
0000
,
1000
0010
0100
0001
1000
0010
0100
0001
0010
0100
1000
0010
0100
0001
0010
0100
,
1000
0000
0100
0010
0001
0000
1000
0000
0010
0100
0010
0100
0001
0000
1000
0000
,
2002
0000
3003
0000
0011
0000
0001
0000
0010
0000
0100
1000
0000
0100
1000
0000
,
0001
0000
1000
0000
0010
0000
0001
0000
0010
0000
0000
0010
1000
0000
0001
0000
,
2002
0000
3003
0000
1100
0000
1000
0000
0100
0000
0001
0100
0000
0100
0000
0000
,
1000
0000
0001
0000
0010
0000
1000
0000
0010
0000
0000
0010
0001
0000
1000
0000
,
2002
0000
3003
0000
1100
0000
1000
0000
0100
0000
0010
0001
0000
0010
0001
0000
,
1000
0000
0001
0000
0100
0000
1000
0000
0100
0000
0000
0100
0001
0000
1000
0000
,
2002
0000
3003
0000
0011
0000
0001
0000
0010
0000
0100
1000
0000
1000
0000
0000
,
0001
0000
1000
0100
0010
0001
0010
0001
1000
0100
1000
0100
0010
0000
0001
0000
,
2002
0000
3003
0000
0101
0000
0001
0000
0100
0000
0010
1000
0000
0010
1000
0000
,
0001
0000
1000
0000
0100
0000
0001
0000
0100
0000
1000
0100
1000
0000
0001
0000
,
2002
0000
3003
0000
1010
0000
1000
0000
0010
0000
0001
1000
0000
1000
0000
0000
,
0100
0000
0001
0000
1000
0000
0001
0000
0010
0000
0100
0010
0100
0000
1000
0000
,
2002
0000
3003
0000
1010
0000
1000
0000
0010
0000
0001
0010
0000
0001
0010
0000
,
1000
0000
0001
0000
0010
0000
1000
0000
0010
0000
0001
0010
0001
0000
1000
0000
,
2002
0000
3003
0000
0101
0000
0001
0000
0100
0000
0010
1000
0000
1000
0000
0000
,
0001
0000
1000
0010
0100
0001
0100
0001
1000
0100
1000
0100
0010
0000
0001
0000
,
1000
0001
0102
0000
1000
0000
0100
0000
,
1003
0100
2100
0000
0001
0000
0100
0000
,
3001
0100
0210
0000
1000
0000
0010
0000
,
1300
0100
0002
0000
1003
0100
0002
0000
,
0103
1000
2001
0000
0100
0000
0001
0000
,
3010
0100
0102
0000
1000
0000
0100
0000
,
1003
0100
0110
0010
0002
0000
1003
0010
,
0100
0001
0000
1000
0100
1000
0100
1000
0001
0010
0100
1000
0001
0000
0001
0000
,
1000
0001
0012
0000
1000
0000
0010
0000
,
1003
0010
2010
0000
0001
0000
0010
0000
,
3001
0010
0110
0100
2000
0000
3001
0001
,
1000
0010
0110
0100
0002
0000
1003
0001
,
0010
0100
2100
0000
0001
0000
0100
0000
,
3001
0100
0120
0000
1000
0000
0100
0000
,
1030
0100
0110
0010
0002
0000
1003
0001
,
0100
0000
0010
1000
0100
1000
0001
1000
0001
0100
0010
1000
0001
0000
0010
0000
,
0100
1000
0001
1000
0010
0100
0001
1000
,
0000
1000
0001
0100
0001
1000
0100
0010
,
0100
1000
0001
0010
0001
1000
0100
0010
,
0000
0010
0100
1000
0001
1000
0010
0100
,
0001
1000
0001
1000
0002
0000
1003
0100
,
0010
0001
1000
0100
1000
0000
0001
1000
,
0010
0100
0010
0100
0020
0000
0130
0001
,
1000
0010
0100
0001
0020
0000
0130
1000
,
0001
1000
0001
1000
0020
0000
0130
0001
,
1000
0001
1000
0001
0020
0000
0130
1000
,
0001
1000
0020
0000
0031
0010
1000
1000
,
0001
1000
0200
0000
0301
0100
1000
1000
,
0001
1000
0001
1000
0020
0000
0130
0001
,
1000
0001
1000
0001
0020
0000
0130
1000
,
0001
1000
0020
0000
0031
0010
1000
1000
,
0002
0000
0000
1003
,
1100
0100
0001
0100
2000
0000
3001
0010
,
0100
0100
0010
0001
2000
0000
3010
0100
,
0001
0010
2000
0000
3001
0100
1000
0001
,
1000
0010
0002
0000
1003
0100
0001
1000
,
0010
0010
0001
0010
2000
0000
3001
0100
,
0010
0010
0100
0001
2000
0000
3100
0010
,
0001
0100
2000
0000
3001
0010
1000
0001
,
0010
0000
0100
1000
0001
1000
0001
1000
0010
0100
0001
0010
0200
0000
0000
0000
,
0310
0010
1000
0010
0002
0000
1003
0100
,
0010
0010
0100
1000
0002
0000
0103
0010
,
1000
0100
0002
0000
1003
0010
0001
1000
,
0001
0100
2000
0000
3001
0010
1000
0001
,
0100
0100
1000
0100
0002
0000
1003
0010
,
0100
0100
0010
1000
0002
0000
0013
0100
,
1000
0001
1000
0001
1000
0010
1000
0010
0100
0001
0010
0100
1000
0010
0100
0001
,
1000
0001
0020
0000
0130
1000
0010
0100
,
0010
1000
0001
1000
0100
0010
0001
1000
,
0000
1000
0001
0010
0001
1000
0010
0100
,
0010
1000
0001
0100
0001
1000
0010
0100
,
0001
0100
0010
1000
0100
0010
0002
1003
;

//---------------dance-single - ----------------
#NOTEDATA:;
#CHARTNAME:;
#STEPSTYPE:dance-single;
#DESCRIPTION:;
#CHARTSTYLE:;
#DIFFICULTY:Easy;
#METER:8;
#RADARVALUES:0.351139,0.447616,0.257043,0.506053,0.000000,306.000000,274.000000,32.000000,63.000000,0.000000,0.000000,0.000000,0.000000,0.000000,0.351139,0.447616,0.257043,0.506053,0.000000,306.000000,274.000000,32.000000,63.000000,0.000000,0.000000,0.000000,0.000000,0.000000;
#CREDIT:led_light;
#NOTES:
0000
0000
0000
0000
,
0000
0000
0000
0000
,
0000
0000
0000
0000
,
0000
0000
0000
0000
,
0000
0000
0000
0000
,
0000
0000
0000
0000
,
0000
0000
0000
0000
,
0000
0000
0000
0000
,
0000
0000
0000
0000
,
0100
0000
1001
0000
,
0010
0000
0100
0100
,
0001
0010
1000
0100
,
0001
0000
0010
0100
,
0100
0000
1001
0000
,
0010
0000
0100
0100
,
1000
0010
0001
0100
,
1000
1000
0020
0030
,
0101
0001
1000
0001
,
0101
0001
0010
0100
,
1100
1000
0001
1000
,
1100
1000
0010
0100
,
1010
0001
0200
0310
,
1100
0001
0020
0130
,
2000
3200
0302
0023
,
1030
0001
0200
0310
,
2002
3003
0001
0010
,
0100
0100
0010
0001
,
2200
3300
1000
0010
,
0001
0001
0010
1000
,
2002
3003
1000
0100
,
0010
0010
0100
1000
,
0022
0033
0001
0100
,
0020
0000
0000
0130
,
2002
3003
0001
0100
,
0010
1000
0001
0100
,
2020
3030
0001
0010
,
1000
0010
0001
0100
,
0202
0303
1000
0100
,
0010
0001
1000
0100
,
0022
0033
1000
0010
,
0200
0000
0000
0310
,
1000
1001
0002
0103
,
1000
0110
0002
0013
,
1000
1001
0002
0103
,
0010
2000
3001
0200
,
0301
1001
2000
3100
,
0001
0110
2000
3010
,
0001
1001
1200
0301
,
0200
0000
0000
0000
,
0310
0110
0200
1300
,
0010
1001
0200
0301
,
0010
0110
0200
1300
,
0001
0020
0130
2000
,
3100
0110
0020
0031
,
0100
1001
0020
1030
,
0100
0110
0012
0103
,
0020
0000
0000
1030
,
0002
0000
0000
0000
,
0000
0000
0000
0000
,
0003
0000
0000
0000
,
0000
0000
0000
0000
,
0001
0000
0110
0000
,
1000
0000
0001
0001
,
0010
0000
1001
0000
,
0100
0010
0020
0030
,
1000
0010
0002
0003
,
0001
0010
2000
3000
,
0001
0010
1000
1000
,
0010
0001
1000
1000
,
0001
0100
2000
3000
,
1000
0100
0002
0003
,
1000
0100
0001
0001
,
0200
0000
0000
0310
,
0001
1000
0100
0010
,
0001
0100
0010
1000
,
0010
0001
0020
1030
,
0100
0001
0200
1300
,
0001
1000
0010
0100
,
0001
0010
0100
1000
,
0100
0001
0200
1300
,
0020
0000
0000
0000
,
1030
0001
0010
0100
,
1000
0010
0100
0001
,
0100
1000
0200
0301
,
0010
1000
0020
0031
,
1000
0001
0100
0010
,
1000
0100
0010
0001
,
0020
2030
3200
0302
,
0023
0000
0000
0130
,
0001
0000
0100
0000
,
1000
0000
0001
0001
,
1000
0000
0010
0000
,
0001
0000
0010
0000
1000
0000
0002
0003
;

//---------------dance-single - ----------------
#NOTEDATA:;
#CHARTNAME:;
#STEPSTYPE:dance-single;
#DESCRIPTION:;
#CHARTSTYLE:;
#DIFFICULTY:Medium;
#METER:12;
#RADARVALUES:0.618509,0.596821,0.265075,0.481955,0.000000,539.000000,506.000000,33.000000,60.000000,0.000000,0.000000,0.000000,0.000000,0.000000,0.618509,0.596821,0.265075,0.481955,0.000000,539.000000,506.000000,33.000000,60.000000,0.000000,0.000000,0.000000,0.000000,0.000000;
#CREDIT:led_light;
#NOTES:
0000
0000
0000
0000
,
0000
0000
0000
0000
,
0000
0000
0000
0000
,
0000
0000
0000
0000
,
0000
0000
0000
0000
,
0000
0000
0000
0000
,
0000
0000
0000
0000
,
0000
0000
0000
0000
,
0000
0000
0000
0000
,
0110
0000
2000
0000
3010
0000
0100
0001
,
0010
0100
0020
0000
0031
0000
1000
0100
,
0010
0000
0020
0000
0031
0000
0100
0010
,
1000
0001
0200
0000
0310
0000
1000
0001
,
0010
0000
0002
0000
0103
0000
0010
1000
,
0100
0010
0200
0000
1300
0000
0001
0010
,
0100
0000
0200
0000
1300
0000
0010
0100
,
0001
1000
0020
0000
0130
0000
0001
1000
,
1001
0000
0001
0100
0001
0000
1000
0100
,
1100
0000
0001
0010
0100
1000
0001
0000
,
1001
0000
0001
0010
0001
0000
1000
0010
,
1010
0000
0001
0100
0010
1000
0001
0000
,
0101
0001
1000
0000
0100
0010
0001
0010
,
0100
1000
0001
0000
0100
0010
1000
0010
,
0001
1000
0100
0001
1000
0100
0001
1000
,
0010
0000
0010
0000
0100
1000
0001
0001
,
2001
0000
3010
0000
0100
0001
1000
0000
,
0001
0010
0100
0010
0001
0000
1000
0000
,
2100
0000
3001
0000
0100
0010
1000
0000
,
0001
0100
0010
0100
0001
0000
0010
0000
,
0120
0000
0031
0000
1000
0001
0100
0000
,
0010
1000
0001
0100
0010
0000
1000
0000
,
1200
0000
0310
0000
0100
1000
0001
0000
,
1000
0001
1000
0010
1000
0010
0100
0001
,
1002
0000
0013
0000
0100
1000
0001
0000
,
1000
0010
0100
0010
1000
0000
0001
0000
,
0102
0000
1003
0000
0100
0010
0001
0000
,
1000
0100
0010
0100
1000
0000
0010
0000
,
0120
0000
1030
0000
0001
1000
0100
0000
,
0010
0001
1000
0100
0010
0000
0001
0000
,
0201
0000
0310
0000
0100
0001
1000
0000
,
0001
1000
0001
0010
0001
0010
0100
1000
,
0001
0012
1000
0100
,
1003
2100
0001
0010
,
3001
0102
1000
0010
,
1003
0100
2000
0000
3001
0100
0002
0000
,
1003
1200
0001
1000
,
0310
0021
1000
0001
,
0130
1000
0001
1000
0020
0000
0130
0001
,
0010
0000
0100
0010
0100
1000
0001
1000
,
0001
0102
1000
0010
,
1003
2010
0001
0100
,
3001
0010
0001
1000
0002
0000
0103
0001
,
1000
0010
1000
0001
2000
0000
3001
0100
,
0001
1020
0001
1000
,
0130
0201
1000
0001
,
0310
1000
0001
1000
0200
0000
0310
0001
,
0100
0100
0010
0010
1000
1000
0100
0010
,
0001
0010
0100
1000
0001
0000
0100
0001
,
0000
0001
0000
1000
0100
0010
0001
0000
,
1000
0001
0100
0010
1000
0000
0001
1000
,
0000
1000
0000
0100
0001
0100
1000
0000
,
0001
0010
0100
0010
0002
0000
0103
0010
,
1000
0001
1000
0100
2000
0000
3010
1000
,
0001
0100
0010
0100
0002
0000
0013
0100
,
1000
0001
1000
0010
2000
0000
3100
1000
,
0001
0100
0001
0000
2010
0000
3001
0010
,
0100
1000
0001
0000
0201
0000
0310
1000
,
0001
0010
2000
0000
3010
0001
0100
0010
,
1000
0100
0002
0000
0103
1000
0010
0100
,
0001
0010
0001
0000
2100
0000
3001
0100
,
0010
1000
0001
0000
0021
0000
0130
1000
,
0001
0100
2000
0000
3100
0001
0010
0100
,
2000
0000
0000
3001
,
0101
1000
0010
0000
0102
0000
1003
0100
,
1000
0001
0010
0000
2100
0000
3001
0100
,
0001
0010
2000
0000
3010
0001
0100
0010
,
1000
0100
0002
0000
0103
1000
0010
0100
,
0010
1000
0100
0000
0012
0000
1003
0010
,
1000
0001
0100
0000
2010
0000
3001
0010
,
0001
0100
2000
0000
3100
0001
0010
0100
,
1000
0001
0010
0001
1000
1000
0020
0000
,
0130
0001
0010
0001
0200
0000
0310
1000
,
0100
1000
0010
0100
0020
0000
1030
0001
,
0010
1000
0002
0000
1003
0010
0001
1000
,
0010
0001
2000
0000
3001
0010
1000
0001
,
0010
0001
0100
0001
0020
0000
0130
1000
,
0010
1000
0100
0010
0200
0000
1300
0001
,
0100
0010
1000
0100
0010
0001
0100
0010
,
1000
0100
0020
0000
0130
1000
0010
0100
,
0001
0100
0010
1000
0001
0000
0010
0001
,
0000
0001
0000
1000
0010
0100
0001
0000
,
1000
0001
0010
0100
1000
0000
0001
1000
,
0010
0001
0010
1000
0001
0000
2002
3003
;
