#TITLE:Roses;
#SUBTITLE:;
#ARTIST:Kawai Sprite;
#TITLETRANSLIT:;
#SUBTITLETRANSLIT:;
#ARTISTTRANSLIT:;
#GENRE:Friday Night Funkin';
#CREDIT:;
#BANNER:Roses.png;
#BACKGROUND:../bg.png;
#LYRICSPATH:;
#CDTITLE:../cdtitle.png;
#MUSIC:Roses.ogg;
#OFFSET:0.998000;
#SAMPLESTART:1.001000;
#SAMPLELENGTH:15.000000;
#SELECTABLE:YES;
#BPMS:0.000000=120.000000
;
#STOPS:
;
#BGCHANGES: -1.000=Roses.avi=1.000=0=0=0=StretchNoLoop====,
99999=-nosongbg-=1.000=0=0=0 // don't automatically add -songbackground-
;
#KEYSOUNDS:;
#ATTACKS:;

//---------------dance-single - ----------------
#NOTES:
     dance-single:
     :
     Hard:
     14:
     0.729439,0.720478,0.000000,0.318443,0.922388,465.000000,465.000000,0.000000,29.000000,0.000000,0.000000,0.729439,0.720478,0.000000,0.318443,0.922388,465.000000,465.000000,0.000000,29.000000,0.000000,0.000000:
0000
0000
0000
0000
,
0001
0000
0000
0000
1000
0000
0100
0000
0002
0000
0000
0103
0000
0000
0000
0010
,
0000
0010
0000
0100
1000
0100
1000
0000
0002
0000
0000
0013
0000
0010
0000
1000
,
0010
0000
0000
0000
0001
0000
0100
0000
2000
0000
0000
3100
0000
0000
0000
0010
,
0000
0010
0000
0100
0001
0100
0001
0000
2000
0000
0000
3010
0000
0010
0000
0001
,
0020
0000
1030
0000
0010
0100
0010
0000
2000
0000
3001
0000
0010
0000
1000
0010
,
2000
0000
3010
0000
0001
0000
0010
0100
0020
0000
0031
0000
0100
0000
0010
0000
,
0200
0000
1300
0000
0100
0010
0100
0000
0002
0000
1003
0000
0100
0000
0001
0100
,
0002
0000
0103
0000
1000
0000
0100
0010
0200
0000
1300
0000
0010
0000
0100
0000
,
0010
0000
0000
0000
1000
0100
1000
0100
1000
0000
0001
0000
1000
0000
0010
0000
,
0100
0010
0001
1000
0100
0010
0100
0001
,
1000
0000
0000
0000
0001
0010
0001
0010
0001
0000
1000
0000
0001
0000
0100
0000
,
0010
0100
1000
0001
0010
0100
0010
1000
,
0001
0000
0010
0100
0000
0001
0100
0000
0010
0000
0001
0100
0000
0010
0100
0010
,
1000
0000
0100
0010
0000
1000
0010
0000
0100
0000
1000
0010
0000
0100
0010
0000
,
1000
0000
0010
0100
0000
1000
0100
0000
0010
0000
1000
0100
0000
0010
0100
0010
,
0001
0000
0100
0010
0000
0001
0010
0000
0100
0000
0001
0010
0000
0100
0010
0000
,
0001
0000
1000
0100
0010
0000
0001
0000
0010
0000
1000
0010
0000
0010
0001
0000
,
1000
0000
0100
0010
0001
0000
0100
0000
0010
0000
0001
0010
0000
0100
0010
0000
,
1000
0000
0001
0100
0010
0000
1000
0000
0010
0000
0001
0010
0000
0010
1000
0000
,
0001
0000
0100
0010
1000
0000
0100
0000
0010
0000
1000
0010
0000
0100
0010
0000
,
0001
0010
0100
0010
0001
0010
0001
0000
0100
0000
1000
0100
0010
0100
0001
0000
,
1000
0000
0001
0100
0010
0100
0010
0000
1000
0000
0100
0010
0000
0010
0100
0000
,
1000
0100
0010
0100
1000
0100
1000
0000
0010
0000
0001
0010
0100
0010
1000
0000
,
0001
0000
1000
0010
0100
0010
0100
0000
0001
0000
0010
0100
0000
0100
0010
0000
,
0001
0010
0001
0010
0100
0010
0100
0010
0001
0010
0100
0010
0002
0000
0003
0000
,
1000
0100
1000
0100
0010
0100
0010
0100
1000
0100
0010
0100
2000
0000
3000
0000
,
0001
0100
0001
0100
0010
0100
0010
0100
0001
0100
0010
0100
0002
0000
0003
0000
,
1000
0010
1000
0010
0100
0010
0100
0010
1000
0010
0100
0010
2000
0000
3000
0000
,
0001
0010
0001
0010
0100
1000
0100
0000
0010
0001
0010
0001
1000
0100
1000
0000
,
0001
0100
0001
0100
0010
1000
0010
0000
0100
0001
0100
0001
1000
0100
1000
0000
,
0001
0010
0001
0010
0100
1000
0100
0000
0010
0001
0010
0001
1000
0100
1000
0000
,
0001
0100
0001
0100
0010
1000
0010
0000
0100
0001
0100
0001
1000
0100
1000
0000
,
0001
0000
0000
0000
1000
0000
0100
0000
0002
0000
0000
0103
0000
0000
0000
0010
,
0000
0010
0000
0100
1000
0100
1000
0000
0002
0000
0000
0013
0000
0010
0000
1000
,
0010
0000
0000
0000
0001
0000
0100
0000
2000
0000
0000
3100
0000
0000
0000
0010
,
0000
0010
0000
0100
0001
0100
0001
0000
2000
0000
0000
3010
0000
0010
0000
0001
,
0020
0000
1030
0000
0010
0100
0010
0000
2000
0000
3001
0000
0010
0000
1000
0010
,
2000
0000
3010
0000
0001
0000
0010
0100
0020
0000
0031
0000
0100
0000
0010
0000
,
0200
0000
1300
0000
0100
0010
0100
0000
0002
0000
1003
0000
0100
0000
0001
0100
,
0002
0000
0103
0000
1000
0000
0100
0010
0200
0000
1300
0000
0010
0000
0100
0000
,
0001
0010
0001
0010
0100
1000
0100
0000
0010
0001
0010
0001
1000
0100
1000
0000
,
0001
0100
0001
0100
0010
1000
0010
0000
0100
0001
0100
0001
1000
0100
1000
0000
,
0001
0010
0001
0010
0100
1000
0100
0000
0010
0001
0010
0001
1000
0100
1000
0000
,
0001
0100
0001
0100
0010
1000
0010
0000
0100
0001
0100
0001
1000
0100
1000
0000
,
0002
0003
0000
0000
;

//---------------dance-single - ----------------
#NOTES:
     dance-single:
     :
     Medium:
     10:
     0.459625,0.422349,0.109808,0.098827,0.000000,293.000000,283.000000,10.000000,9.000000,0.000000,0.000000,0.459625,0.422349,0.109808,0.098827,0.000000,293.000000,283.000000,10.000000,9.000000,0.000000,0.000000:
0000
0000
0000
0000
,
0001
0000
1000
0100
0002
0000
0103
0000
,
1000
1000
0100
0010
0001
0000
0011
0000
,
1000
0000
0001
0010
2000
0000
3010
0000
,
0001
0001
0010
0100
1000
0000
1100
0000
,
0001
0010
1000
0000
0001
0100
1000
0000
,
0001
0010
1000
0000
0001
0100
1000
0000
,
1000
0010
0001
0000
1000
0100
0001
0000
,
1000
0010
0001
0000
1000
0100
0001
0000
,
1001
0000
0001
0010
1000
0010
0001
0000
,
1000
0100
1000
0000
0001
0100
0001
0000
,
1001
0000
1000
0010
0001
0010
1000
0000
,
0001
0100
0001
0000
1000
0100
1000
0000
,
0100
0001
0100
0000
1000
0100
1000
0000
,
0010
0001
0010
0000
1000
0010
1000
0010
,
0100
1000
0100
0000
0001
0100
0001
0000
,
0010
1000
0010
0000
0001
0010
0001
0010
,
0100
0100
0100
0000
0001
0100
1000
0000
,
0010
0010
0010
0000
0001
0010
1000
0000
,
0001
0001
0001
0000
0100
0001
0010
0000
,
1000
1000
1000
0000
0100
1000
0010
0000
,
0001
0010
0001
0100
0001
0000
1001
0000
,
1000
0010
1000
0100
1000
0000
0110
0000
,
0001
0100
0001
0010
0001
0000
1001
0000
,
1000
0100
1000
0010
1000
0000
0110
0000
,
0001
0010
0001
0010
0100
0010
0002
0003
,
1000
0100
1000
0100
0010
0100
2000
3000
,
0001
0100
0001
0100
0010
0100
0002
0003
,
1000
0010
1000
0010
0100
0010
2000
3000
,
0001
0010
0100
0010
0001
0010
1000
0010
,
0001
1000
0100
1000
0010
1000
0100
1000
,
0001
0100
0010
0100
0001
0100
1000
0100
,
0001
1000
0010
1000
0100
1000
0010
1000
,
0001
0000
1000
0100
0002
0000
0103
0000
,
1000
1000
0100
0010
0001
0000
0011
0000
,
1000
0000
0001
0010
2000
0000
3010
0000
,
0001
0001
0010
0100
1000
0000
1100
0000
,
0001
0010
1000
0000
0001
0100
1000
0000
,
0001
0010
1000
0000
0001
0100
1000
0000
,
1000
0010
0001
0000
1000
0100
0001
0000
,
1000
0010
0001
0000
1000
0100
0001
0000
,
1000
0100
0010
0100
1000
0100
0001
0100
,
1000
0001
0010
0001
0100
0001
0010
0001
,
1000
0010
0100
0010
1000
0010
0001
0010
,
1000
0001
0100
0001
0010
0001
0100
0001
,
2000
3000
0000
0000
;

//---------------dance-single - ----------------
#NOTES:
     dance-single:
     :
     Easy:
     5:
     0.247852,0.223597,0.000000,0.054904,0.000000,158.000000,158.000000,0.000000,5.000000,0.000000,0.000000,0.247852,0.223597,0.000000,0.054904,0.000000,158.000000,158.000000,0.000000,5.000000,0.000000,0.000000:
0000
0000
0000
0000
,
0000
0001
2000
3000
,
0010
0100
0010
0010
,
0000
1000
0002
0003
,
0100
0010
0100
0100
,
0001
0010
1000
0010
,
0001
0010
1000
0010
,
0001
0100
1000
0100
,
0001
0100
1000
0100
,
0001
0000
0001
0001
,
1000
0100
0010
0001
,
0000
1000
1000
0000
,
0001
0100
0010
1000
,
0001
0010
0001
0010
,
1000
0100
1000
0100
,
0001
0100
0001
0100
,
1000
0010
1000
0010
,
0001
1000
0100
0000
,
1000
0001
0100
0000
,
0001
1000
0010
0000
,
1000
0001
0010
0000
,
0100
0100
0100
0000
,
0010
0010
0010
0000
,
0001
0001
0001
0000
,
1000
1000
1000
0000
,
0001
1000
0001
0001
,
1000
0001
1000
1000
,
0001
1000
0001
0001
,
1000
0001
1000
1000
,
0001
0010
1000
0100
,
0001
0010
1000
0100
,
0001
0100
1000
0010
,
0001
0100
1000
0010
,
0000
0001
2000
3000
,
0010
0100
0010
0010
,
0000
1000
0002
0003
,
0100
0010
0100
0100
,
0001
0010
1000
0010
,
0001
0010
1000
0010
,
0001
0100
1000
0100
,
0001
0100
1000
0100
,
0001
0100
1000
0010
,
0001
0100
1000
0010
,
0001
0010
1000
0100
,
0001
0010
1000
0100
,
0002
0003
0000
0000
;

//---------------dance-single - ----------------
#NOTES:
     dance-single:
     :
     Beginner:
     3:
     0.142750,0.173909,0.000000,0.010981,0.000000,91.000000,91.000000,0.000000,1.000000,0.000000,0.000000,0.142750,0.173909,0.000000,0.010981,0.000000,91.000000,91.000000,0.000000,1.000000,0.000000,0.000000:
0000
0000
0000
0000
,
0000
1000
1000
0000
,
0010
0010
0010
0000
,
0000
0001
0001
0000
,
0100
0100
0100
0000
,
1000
0000
0100
0000
,
0001
0000
0100
0000
,
1000
0000
0010
0000
,
0001
0000
0010
0000
,
0000
1000
1000
0000
,
0100
0000
0010
0000
,
0000
0001
0001
0000
,
0100
0000
0010
0000
,
0100
0000
1000
0000
,
0100
0000
1000
0000
,
0001
0000
0010
0000
,
0001
0000
0010
0000
,
1000
0000
0000
0000
,
1000
0000
0000
0000
,
0001
0000
0000
0000
,
0001
0000
0000
0000
,
1000
0000
0100
0000
,
1000
0000
0000
0000
,
0001
0000
0010
0000
,
0001
0000
0000
0000
,
1000
1000
1000
0000
,
1000
1000
1000
0000
,
0001
0001
0001
0000
,
0001
0001
0001
0000
,
0100
0000
0100
0000
,
0100
0000
0100
0000
,
0010
0000
0010
0000
,
0010
0000
0010
0000
,
0000
1000
1000
0000
,
0100
0100
0100
0000
,
0000
0001
0001
0000
,
0010
0010
0010
0000
,
1000
0000
0010
0000
,
0001
0000
0010
0000
,
1000
0000
0100
0000
,
0001
0000
0100
0000
,
1000
0000
1000
0000
,
1000
0000
1000
0000
,
0001
0000
0001
0000
,
0001
0000
0001
0000
,
2000
3000
0000
0000
;

//---------------dance-single - FNF Hard----------------
#NOTES:
     dance-single:
     :
     Edit:
     14:
     0.731008,0.814192,0.000000,0.329424,1.032196,466.000000,466.000000,0.000000,30.000000,0.000000,0.000000,0.731008,0.814192,0.000000,0.329424,1.032196,466.000000,466.000000,0.000000,30.000000,0.000000,0.000000:
// measure 0
0000
0000
0000
0000
,  // measure 1
0000
0000
0000
0000
0001
0000
0100
0000
2000
0000
3000
0100
0000
0000
0000
0010
,  // measure 2
0000
0010
0000
0010
1000
0100
1000
0000
0002
0000
0003
0001
0000
1000
0000
0100
,  // measure 3
0000
0000
0000
0000
0001
0000
0100
0000
2000
0000
3000
0100
0000
0000
0000
0010
,  // measure 4
0000
0010
0000
0010
1000
0100
1000
0000
0002
0000
0003
0001
0000
1000
0000
0100
,  // measure 5
0020
0030
0000
0000
0001
0000
0000
0000
0010
0000
0100
0000
1000
0000
0002
0000
0000
0000
0003
0000
0100
0000
0000
0000
1000
0000
0000
0000
0100
0000
0002
0000
,  // measure 6
0000
0003
0100
0000
0001
0000
0010
0002
0000
0003
0100
0000
1000
0000
0001
0000
,  // measure 7
0020
0030
0000
0000
0001
0000
0000
0000
0010
0000
0100
0000
1000
0000
0002
0000
0000
0000
0003
0000
0100
0000
0000
0000
1000
0000
0000
0000
0100
0000
0002
0000
,  // measure 8
0000
0003
0100
0000
0001
0000
0010
0002
0000
0003
0100
0000
1000
0000
0001
0000
,  // measure 9
0000
0000
0000
0000
0000
0000
0000
0000
1000
0000
0010
0000
1000
0000
0010
0000
0002
0003
0000
0000
0100
0000
0000
0000
1000
0000
0000
0000
0001
0000
0000
0000
,  // measure 10
1000
0001
1000
0010
0001
0100
1000
0001
,  // measure 11
0000
0000
0000
0000
0000
0000
0000
0000
1000
0000
0010
0000
1000
0000
0010
0000
0002
0003
0000
0000
0100
0000
0000
0000
1000
0000
0000
0000
0001
0000
0000
0000
,  // measure 12
1000
0001
1000
0010
0001
0100
1000
0001
,  // measure 13
0010
0000
1000
0100
0000
1000
0001
0000
0001
0000
0100
0001
0000
1000
0001
0100
,  // measure 14
0010
0000
1000
0100
0000
1000
0001
0000
0001
0000
0100
0001
0000
1000
0001
0000
,  // measure 15
0010
0000
1000
0100
0000
1000
0001
0000
0001
0000
0100
0001
0000
1000
0001
0100
,  // measure 16
0010
0000
1000
0100
0000
1000
0001
0000
0001
0000
0100
0001
0000
1000
0001
0000
,  // measure 17
1000
0000
0100
1000
0001
0000
0100
0000
0010
0000
0100
0001
0000
0100
1000
0000
,  // measure 18
0100
0000
0100
1000
0001
0000
0100
0000
0010
0000
0100
0001
0000
0100
1000
0000
,  // measure 19
1000
0000
0100
1000
0001
0000
0100
0000
0010
0000
0100
0001
0000
0100
1000
0000
,  // measure 20
0100
0000
0100
1000
0001
0000
0100
0000
0010
0000
0100
0001
0000
0100
1000
0000
,  // measure 21
0100
1000
1000
0001
0010
0010
0001
0000
0010
0000
1000
0100
0100
0100
0001
0000
,  // measure 22
0100
0000
1000
0001
0010
0010
0001
0000
0010
0000
1000
0001
0000
0100
0001
0000
,  // measure 23
0100
1000
1000
0001
0010
0010
0001
0000
0010
0000
1000
0100
0100
0100
0001
0000
,  // measure 24
0100
0000
1000
0001
0010
0010
0001
0000
0010
0000
1000
0001
0000
0100
0001
0000
,  // measure 25
0010
0001
0010
1000
0010
1000
0001
1000
0010
0001
0100
0001
2000
0000
0000
3000
,  // measure 26
0010
0001
0010
1000
0001
1000
0010
1000
0010
1000
0001
1000
0200
0000
0000
0300
,  // measure 27
0010
0001
0010
1000
0010
1000
0001
1000
0010
0001
0100
0001
2000
0000
0000
3000
,  // measure 28
0010
0001
0010
1000
0001
1000
0010
1000
0010
1000
0001
1000
0200
0000
0000
0300
,  // measure 29
1000
0001
0100
1000
0001
1000
0100
0001
1000
0001
0100
1000
0001
1000
0100
0001
,  // measure 30
1000
0001
0100
1000
0001
1000
0100
0001
1000
0001
0100
1000
0001
1000
0100
0001
,  // measure 31
1000
0001
0100
1000
0001
1000
0100
0001
1000
0001
0100
1000
0001
1000
0100
0001
,  // measure 32
1000
0001
0100
1000
0001
1000
0100
0001
1000
0001
0100
1000
0001
1000
0100
0001
,  // measure 33
0000
0000
0000
0000
0001
0000
0100
0000
2000
0000
3000
0100
0000
0000
0000
0010
,  // measure 34
0000
0010
0000
0010
1000
0100
1000
0000
0002
0000
0003
0001
0000
1000
0000
0100
,  // measure 35
0000
0000
0000
0000
0001
0000
0100
0000
2000
0000
3000
0100
0000
0000
0000
0010
,  // measure 36
0000
0010
0000
0010
1000
0100
1000
0000
0002
0000
0003
0001
0000
1000
0000
0100
,  // measure 37
0020
0030
0000
0000
0001
0000
0000
0000
0010
0000
0100
0000
1000
0000
0002
0000
0000
0000
0003
0000
0100
0000
0000
0000
1000
0000
0000
0000
0100
0000
0002
0000
,  // measure 38
0000
0003
0100
0000
0001
0000
0010
0002
0000
0003
0100
0000
1000
0000
0001
0000
,  // measure 39
0020
0030
0000
0000
0001
0000
0000
0000
0010
0000
0100
0000
1000
0000
0002
0000
0000
0000
0003
0000
0100
0000
0000
0000
1000
0000
0000
0000
0100
0000
0002
0000
,  // measure 40
0000
0003
0100
0000
0001
0000
0010
0002
0000
0003
0100
0000
1000
0000
0001
0000
,  // measure 41
1000
0001
0100
1000
0001
1000
0100
0001
1000
0001
0100
1000
0001
1000
0100
0001
,  // measure 42
1000
0001
0100
1000
0001
1000
0100
0001
1000
0001
0100
1000
0001
1000
0100
0001
,  // measure 43
1000
0001
0100
1000
0001
1000
0100
0001
1000
0001
0100
1000
0001
1000
0100
0001
,  // measure 44
1000
0001
0100
1000
0001
1000
0100
0001
1000
0001
0100
1000
0001
1000
0100
0001
;
