#VERSION:0.83;
#TITLE:Roses;
#SUBTITLE:[B-Side Remix];
#ARTIST:Rozebud;
#TITLETRANSLIT:;
#SUBTITLETRANSLIT:;
#ARTISTTRANSLIT:;
#GENRE:Friday Night Funkin';
#ORIGIN:;
#CREDIT:;
#BANNER:Roses [B-Side Remix].png;
#BACKGROUND:../bg.png;
#PREVIEWVID:;
#JACKET:Roses [B-Side Remix]-jacket.png;
#CDIMAGE:;
#DISCIMAGE:;
#LYRICSPATH:;
#CDTITLE:../cdtitle.png;
#MUSIC:Roses [B-Side Remix].ogg;
#OFFSET:1.841000;
#SAMPLESTART:0.048000;
#SAMPLELENGTH:15.000000;
#SELECTABLE:YES;
#BPMS:0.000=127.000;
#STOPS:;
#DELAYS:;
#WARPS:;
#TIMESIGNATURES:0.000=4=4;
#TICKCOUNTS:0.000=4;
#COMBOS:0.000=1;
#SPEEDS:0.000=1.000=0.000=0;
#SCROLLS:0.000=1.000;
#FAKES:;
#LABELS:0.000=Song Start;
#BGCHANGES: -1.000=Roses [B-Side Remix].avi=1.000=0=0=0=StretchNoLoop====,
99999=-nosongbg-=1.000=0=0=0 // don't automatically add -songbackground-
;
#KEYSOUNDS:;
#ATTACKS:
;

//---------------dance-single - FNF Hard----------------
#NOTEDATA:;
#CHARTNAME:;
#STEPSTYPE:dance-single;
#DESCRIPTION:FNF Hard;
#CHARTSTYLE:;
#DIFFICULTY:Edit;
#METER:17;
#RADARVALUES:0.889129,0.854204,0.000000,0.115044,1.461063,541.000000,541.000000,0.000000,10.000000,0.000000,0.000000,0.000000,0.000000,0.000000,0.889129,0.854204,0.000000,0.115044,1.461063,541.000000,541.000000,0.000000,10.000000,0.000000,0.000000,0.000000,0.000000,0.000000;
#CREDIT:led_light (FNF Hard);
#NOTES:
// measure 0
0000
0000
0000
0000
,  // measure 1
0000
0000
0000
0000
0010
0000
0001
0000
1000
0000
0000
0001
0000
0000
0001
0100
,  // measure 2
0000
0100
0000
0100
0010
0001
1000
0000
0010
0001
1000
0010
0000
0100
0000
1000
,  // measure 3
0000
0000
0000
0000
0100
0000
1000
0000
0001
0000
0000
1000
0000
0000
1000
0010
,  // measure 4
0000
0010
0000
0010
0100
1000
0001
0000
0100
1000
0001
0010
0000
1000
0000
0100
,  // measure 5
0100
0000
0001
0000
1000
0000
1000
0010
0000
0010
0001
0000
1000
0000
1000
0010
,  // measure 6
0000
0010
0001
0100
1000
0000
0100
0100
0001
0100
1000
1000
0000
0100
0010
0000
,  // measure 7
0010
0000
1000
0000
0001
0000
0001
0100
0000
0100
1000
0000
0001
0000
0001
0100
,  // measure 8
0000
0100
1000
0010
0001
0000
0010
0010
1000
0001
0100
0100
0000
0010
0100
0000
,  // measure 9
0000
0000
0000
0000
0010
0001
0100
1000
0010
0001
0000
0001
0010
0000
1000
0010
,  // measure 10
0000
0001
0000
0001
0010
0000
1000
0000
0001
0010
0100
1000
0001
0000
1000
0000
,  // measure 11
0000
0000
0000
0000
0100
1000
0010
0001
0100
1000
0000
1000
0100
0000
0001
0100
,  // measure 12
0000
1000
0000
1000
0100
0000
0001
0000
0001
1000
0100
0010
0001
0000
1000
0000
,  // measure 13
1000
0000
0001
0010
0000
0001
1000
1000
0100
0100
0001
0000
0010
0000
1000
0010
,  // measure 14
0001
0000
0100
0001
0010
1000
0001
0000
0010
0000
1000
0010
0000
0001
0010
0100
,  // measure 15
0001
0000
1000
0100
0000
1000
0001
0001
0010
0010
1000
0000
0100
0000
0001
0100
,  // measure 16
1000
0000
0010
1000
0100
0001
1000
0000
0100
0000
0001
0100
0000
1000
0100
0010
,  // measure 17
0100
0001
1000
0010
0001
0001
0100
0000
0010
0010
1000
0001
0000
0100
0020
0000
,  // measure 18
0030
1000
0000
0100
0001
0000
1000
0000
0010
0100
1000
0100
0001
1000
0010
0000
,  // measure 19
0010
1000
0001
0100
1000
1000
0010
0000
0100
0100
0001
1000
0000
0010
0200
0000
,  // measure 20
0300
0001
0000
0010
1000
0000
0001
0000
0100
0010
0001
0010
1000
0001
0100
0000
,  // measure 21
0001
1000
1000
0100
0010
0001
0100
1000
0001
1000
0100
0001
1000
1000
0020
0030
,  // measure 22
1000
0100
1000
0010
0001
0010
1000
1000
0001
0001
1000
0020
0030
0010
0002
0003
,  // measure 23
1000
0001
0001
0010
0100
1000
0010
0001
1000
0001
0010
1000
0001
0001
0200
0300
,  // measure 24
0001
0010
0001
0100
1000
0100
0001
0001
1000
1000
0001
0200
0300
0100
2000
3000
,  // measure 25
0010
0001
0100
1000
0100
1000
0010
0001
0100
0010
0001
1000
0001
1000
0001
0001
,  // measure 26
0010
0100
0001
1000
0010
0001
1000
0001
0100
1000
0100
0010
0001
0001
0020
0030
,  // measure 27
0100
1000
0010
0001
0010
0001
0100
1000
0010
0100
1000
0001
1000
0001
1000
1000
,  // measure 28
0100
0010
1000
0001
0100
1000
0001
1000
0010
0001
0010
0100
1000
1000
0200
0300
,  // measure 29
1000
0001
0100
0010
0001
0100
1000
0010
1000
0001
0100
0010
0001
0100
1000
0010
,  // measure 30
1000
0001
0100
0010
0001
0100
1000
0010
1000
0001
0100
0010
0001
0100
1000
0010
,  // measure 31
0001
1000
0010
0100
1000
0010
0001
0100
0001
1000
0010
0100
1000
0010
0001
0100
,  // measure 32
0001
1000
0010
0100
1000
0010
0001
0100
0001
1000
0010
0100
1000
0010
0001
0100
,  // measure 33
0000
0000
0000
0000
0010
0000
0001
0000
1000
0000
0000
0001
0000
0000
0001
0100
,  // measure 34
0000
0100
0000
0100
0010
0001
1000
0000
0010
0001
1000
0010
0000
0100
0000
1000
,  // measure 35
0000
0000
0000
0000
0100
0000
1000
0000
0001
0000
0000
1000
0000
0000
1000
0010
,  // measure 36
0000
0010
0000
0010
0100
1000
0001
0000
0100
1000
0001
0010
0000
1000
0000
0100
,  // measure 37
0100
0000
0001
0000
1000
0000
1000
0010
0000
0010
0001
0000
1000
0000
1000
0010
,  // measure 38
0000
0010
0001
0100
1000
0000
0100
0100
0001
0100
1000
1000
0000
0100
0010
0000
,  // measure 39
0010
0000
1000
0000
0001
0000
0001
0100
0000
0100
1000
0000
0001
0000
0001
0100
,  // measure 40
0000
0100
1000
0010
0001
0000
0010
0010
1000
0001
0100
0100
0000
0010
1000
0000
,  // measure 41
1000
0001
0100
0010
0001
0100
1000
0010
1000
0001
0100
1000
0001
0100
1000
0001
,  // measure 42
0100
0010
0100
1000
0100
0010
0100
1000
1000
0001
0100
0010
0001
0100
1000
0010
,  // measure 43
0001
1000
0010
0100
1000
0010
0001
0100
0001
1000
0010
0001
1000
0010
0001
1000
,  // measure 44
0010
0100
0010
0001
0010
0100
0010
0001
0001
1000
0010
0100
1000
0010
0001
0100
,  // measure 45
0001
0000
0000
0000
;

//---------------dance-single - ----------------
#NOTEDATA:;
#CHARTNAME:;
#STEPSTYPE:dance-single;
#DESCRIPTION:;
#CHARTSTYLE:;
#DIFFICULTY:Beginner;
#METER:3;
#RADARVALUES:0.139697,0.155310,0.000000,0.000000,0.000000,85.000000,85.000000,0.000000,0.000000,0.000000,0.000000,0.000000,0.000000,0.000000,0.139697,0.155310,0.000000,0.000000,0.000000,85.000000,85.000000,0.000000,0.000000,0.000000,0.000000,0.000000,0.000000,0.000000;
#CREDIT:led_light;
#NOTES:
// measure 0
0000
0000
0000
0000
,  // measure 1
0000
0100
0100
0000
,  // measure 2
0100
0000
0100
0100
,  // measure 3
0000
0010
0010
0000
,  // measure 4
0010
0000
0010
0010
,  // measure 5
0001
0000
0001
0000
,  // measure 6
0001
0000
0001
0000
,  // measure 7
1000
0000
1000
0000
,  // measure 8
1000
0000
1000
0000
,  // measure 9
0000
0001
0001
0000
,  // measure 10
0001
0000
0001
0000
,  // measure 11
0000
1000
1000
0000
,  // measure 12
1000
0000
1000
0000
,  // measure 13
0010
0000
1000
0000
,  // measure 14
0010
0000
1000
0000
,  // measure 15
0001
0000
0010
0000
,  // measure 16
0001
0000
0010
0000
,  // measure 17
0100
0000
0000
0000
,  // measure 18
0100
0000
0000
0000
,  // measure 19
0010
0000
0000
0000
,  // measure 20
0010
0000
0000
0000
,  // measure 21
0001
0000
0000
0000
,  // measure 22
0001
0000
0000
0000
,  // measure 23
1000
0000
0000
0000
,  // measure 24
1000
0000
0000
0000
,  // measure 25
0001
0000
0001
0000
,  // measure 26
0100
0000
0001
0000
,  // measure 27
1000
0000
1000
0000
,  // measure 28
0100
0000
1000
0000
,  // measure 29
0010
0000
1000
0000
,  // measure 30
0010
0000
1000
0000
,  // measure 31
0001
0000
0010
0000
,  // measure 32
0001
0000
0010
0000
,  // measure 33
0000
0100
0100
0000
,  // measure 34
0100
0000
0100
0100
,  // measure 35
0000
0010
0010
0000
,  // measure 36
0010
0000
0010
0010
,  // measure 37
0001
0000
0001
0000
,  // measure 38
0001
0000
0001
0000
,  // measure 39
1000
0000
1000
0000
,  // measure 40
1000
0000
1000
0000
,  // measure 41
0010
0000
1000
0000
,  // measure 42
0010
0000
1000
0000
,  // measure 43
0001
0000
0010
0000
,  // measure 44
0001
0000
0010
0000
,  // measure 45
0100
0000
0000
0000
;

//---------------dance-single - ----------------
#NOTEDATA:;
#CHARTNAME:;
#STEPSTYPE:dance-single;
#DESCRIPTION:;
#CHARTSTYLE:;
#DIFFICULTY:Easy;
#METER:6;
#RADARVALUES:0.267889,0.232965,0.000000,0.023009,0.000000,163.000000,163.000000,0.000000,2.000000,0.000000,0.000000,0.000000,0.000000,0.000000,0.267889,0.232965,0.000000,0.023009,0.000000,163.000000,163.000000,0.000000,2.000000,0.000000,0.000000,0.000000,0.000000,0.000000;
#CREDIT:led_light;
#NOTES:
// measure 0
0000
0000
0000
0000
,  // measure 1
0000
0010
0010
0000
,  // measure 2
0100
0100
1000
0001
,  // measure 3
0000
0100
0100
0000
,  // measure 4
0010
0010
1000
0001
,  // measure 5
0100
1000
0100
1000
,  // measure 6
0100
0001
0100
0001
,  // measure 7
0010
1000
0010
1000
,  // measure 8
0010
0001
0010
0001
,  // measure 9
0000
0001
1000
0000
,  // measure 10
1000
1000
0010
0100
,  // measure 11
0000
0001
1000
0000
,  // measure 12
1000
1000
0100
0010
,  // measure 13
0001
0001
0100
0100
,  // measure 14
0001
0001
0010
0100
,  // measure 15
1000
1000
0100
0100
,  // measure 16
1000
1000
0010
0100
,  // measure 17
0001
0010
1000
0020
,  // measure 18
0030
0001
0100
0100
,  // measure 19
1000
0100
0001
0200
,  // measure 20
0300
1000
0010
0010
,  // measure 21
0001
0100
0100
0001
,  // measure 22
1000
0100
0010
0100
,  // measure 23
1000
0010
0010
1000
,  // measure 24
0001
0010
0100
0010
,  // measure 25
0001
0100
0001
0001
,  // measure 26
0100
0001
0100
0100
,  // measure 27
0010
1000
0010
0010
,  // measure 28
1000
0010
1000
1000
,  // measure 29
0100
0100
0010
0010
,  // measure 30
0100
0010
0100
0010
,  // measure 31
0001
0001
1000
1000
,  // measure 32
0001
1000
0001
1000
,  // measure 33
0000
0010
0010
0000
,  // measure 34
0100
0100
0001
1000
,  // measure 35
0000
0100
0100
0000
,  // measure 36
0010
0010
0001
1000
,  // measure 37
0100
0001
0100
0001
,  // measure 38
0100
1000
0100
1000
,  // measure 39
0010
0001
0010
0001
,  // measure 40
0010
1000
0010
1000
,  // measure 41
0100
0100
0010
0010
,  // measure 42
0100
0010
0100
0010
,  // measure 43
0001
0001
1000
1000
,  // measure 44
0001
1000
0001
1000
,  // measure 45
0010
0000
0000
0000
;

//---------------dance-single - ----------------
#NOTEDATA:;
#CHARTNAME:;
#STEPSTYPE:dance-single;
#DESCRIPTION:;
#CHARTSTYLE:;
#DIFFICULTY:Medium;
#METER:9;
#RADARVALUES:0.379646,0.364403,0.069027,0.080531,0.000000,231.000000,225.000000,6.000000,7.000000,0.000000,0.000000,0.000000,0.000000,0.000000,0.379646,0.364403,0.069027,0.080531,0.000000,231.000000,225.000000,6.000000,7.000000,0.000000,0.000000,0.000000,0.000000,0.000000;
#CREDIT:led_light;
#NOTES:
// measure 0
0000
0000
0000
0000
,  // measure 1
0000
0000
0100
0100
0200
0000
0300
0000
,  // measure 2
0001
0000
0001
0000
0001
0100
0010
0000
,  // measure 3
0000
0000
0010
0010
0020
0000
0030
0000
,  // measure 4
1000
0000
1000
0000
1000
0100
0010
0000
,  // measure 5
0001
0010
0001
0000
0001
0100
0001
0000
,  // measure 6
1000
0100
1000
0000
1000
0000
0001
0000
,  // measure 7
1000
0100
1000
0000
1000
0010
1000
0000
,  // measure 8
0001
0010
0001
0000
0001
0000
1000
0000
,  // measure 9
0000
0000
0001
0100
0001
0000
0001
0000
,  // measure 10
0010
1000
0010
0011
,  // measure 11
0000
0000
1000
0100
1000
0000
1000
0000
,  // measure 12
0010
0001
0010
1010
,  // measure 13
1000
0100
0001
0000
0100
0000
0100
0000
,  // measure 14
1000
0100
0001
0000
1000
0010
0001
0000
,  // measure 15
1000
0010
0001
0000
0010
0000
0010
0000
,  // measure 16
1000
0010
0001
0000
1000
0100
0001
0000
,  // measure 17
0100
0010
0100
0000
0100
0000
0020
0000
,  // measure 18
0030
0000
1000
0000
0100
0010
0001
0000
,  // measure 19
0010
0100
0010
0000
0010
0000
0200
0000
,  // measure 20
0300
0000
1000
0000
0010
0100
0001
0000
,  // measure 21
0100
1000
0100
0000
0010
1000
0010
0000
,  // measure 22
1000
0100
1000
0000
0010
0000
0011
0000
,  // measure 23
0010
0001
0010
0000
0100
0001
0100
0000
,  // measure 24
0001
0010
0001
0000
0100
0000
1100
0000
,  // measure 25
0010
1000
0100
0000
0100
1000
0010
0000
,  // measure 26
0010
0001
0100
0000
0100
0000
0110
0000
,  // measure 27
0100
0001
0010
0000
0010
0001
0100
0000
,  // measure 28
0100
1000
0010
0000
0010
0000
0110
0000
,  // measure 29
1000
0100
0001
0000
0001
0100
1000
0000
,  // measure 30
1000
0100
0001
0000
0001
0100
1000
0000
,  // measure 31
0001
0010
1000
0000
1000
0010
0001
0000
,  // measure 32
0001
0010
1000
0000
1000
0010
0001
0000
,  // measure 33
0000
0000
0100
0100
0200
0000
0300
0000
,  // measure 34
0001
0000
0001
0000
0001
0100
0010
0000
,  // measure 35
0000
0000
0010
0010
0020
0000
0030
0000
,  // measure 36
1000
0000
1000
0000
1000
0100
0010
0000
,  // measure 37
0001
0010
0001
0000
0001
0100
0001
0000
,  // measure 38
1000
0100
1000
0000
1000
0000
0001
0000
,  // measure 39
1000
0100
1000
0000
1000
0010
1000
0000
,  // measure 40
0001
0010
0001
0000
0001
0000
1000
0000
,  // measure 41
0001
0100
1000
0000
1000
0100
0001
0000
,  // measure 42
0001
0100
1000
0000
1000
0100
0001
0000
,  // measure 43
1000
0010
0001
0000
0001
0010
1000
0000
,  // measure 44
1000
0010
0001
0000
0001
0010
1000
0000
,  // measure 45
0200
0300
0000
0000
;

//---------------dance-single - ----------------
#NOTEDATA:;
#CHARTNAME:;
#STEPSTYPE:dance-single;
#DESCRIPTION:;
#CHARTSTYLE:;
#DIFFICULTY:Hard;
#METER:15;
#RADARVALUES:0.856259,0.806892,0.000000,0.080531,1.305753,521.000000,521.000000,0.000000,7.000000,0.000000,0.000000,0.000000,0.000000,0.000000,0.856259,0.806892,0.000000,0.080531,1.305753,521.000000,521.000000,0.000000,7.000000,0.000000,0.000000,0.000000,0.000000,0.000000;
#CREDIT:led_light;
#NOTES:
// measure 0
0000
0000
0000
0000
,  // measure 1
0000
0000
0000
0000
0100
0000
0100
0000
2000
0000
0000
3001
0000
0000
0001
0100
,  // measure 2
0000
0100
0000
0100
0010
0100
0010
0000
0100
0001
0100
0001
0000
1000
0000
0100
,  // measure 3
1000
0000
0000
0000
0010
0000
0010
0000
0002
0000
0000
1003
0000
0000
1000
0010
,  // measure 4
0000
0010
0000
0010
0100
0010
0100
0000
0010
1000
0010
1000
0000
0001
0000
0010
,  // measure 5
0001
0000
0100
0000
0010
0000
0010
0001
0000
0001
1000
0000
0010
0000
0010
0001
,  // measure 6
0000
0001
0100
0001
0100
0000
0010
1000
0001
0000
1000
0100
0000
1000
0001
0000
,  // measure 7
1000
0000
0010
0000
0100
0000
0100
1000
0000
1000
0001
0000
0100
0000
0100
1000
,  // measure 8
0000
1000
0010
1000
0010
0000
0100
0001
1000
0000
1000
0100
0010
0001
1000
0000
,  // measure 9
0100
0000
0000
0000
1000
0001
1000
0001
0100
0001
0000
0100
0010
0000
1000
0001
,  // measure 10
0000
0100
0000
0001
1000
0000
0100
0000
0001
0100
0001
0100
1000
0000
0100
0000
,  // measure 11
0010
0000
0000
0000
0001
1000
0001
1000
0010
1000
0000
0010
0100
0000
0001
1000
,  // measure 12
0000
0010
0000
1000
0001
0000
0010
0000
1000
0010
1000
0010
0001
0000
0010
0000
,  // measure 13
0100
0000
1000
0001
0000
0001
0100
0000
0010
0100
0010
0000
1000
0000
0001
0100
,  // measure 14
0001
0000
0010
0100
0010
0001
0010
0000
0100
0000
1000
0100
0000
0100
1000
0001
,  // measure 15
0100
0000
0001
1000
0000
1000
0100
0000
0010
0100
0010
0000
0001
0000
1000
0100
,  // measure 16
1000
0000
0010
0100
0010
1000
0010
0000
0100
0000
0001
0100
0000
0100
0001
1000
,  // measure 17
0001
0000
0100
0010
1000
0010
1000
0000
0100
0010
0100
0010
0000
0100
0002
0000
,  // measure 18
0103
0010
0000
0010
0100
0000
1000
0000
0001
0010
0100
1000
0000
0100
0010
0000
,  // measure 19
0100
1000
0010
0100
0001
0100
0001
0000
0010
0100
0010
0100
0000
0010
2000
0000
,  // measure 20
3010
0100
0000
0100
0010
0000
0001
0000
1000
0100
0010
0001
0000
0010
0100
0000
,  // measure 21
1000
0001
1000
0001
0100
0001
1000
0001
0100
0000
0001
1000
0100
0010
0100
0000
,  // measure 22
1000
0100
1000
0100
0010
0001
0100
0001
1000
0001
1000
0100
0000
0001
0100
0000
,  // measure 23
1000
0001
1000
0001
0010
0001
1000
0001
0010
0000
0001
1000
0010
0100
0010
0000
,  // measure 24
1000
0010
1000
0010
0100
0001
0010
0001
1000
0001
1000
0010
0000
0001
0010
0000
,  // measure 25
1000
0100
1000
0100
0010
0100
0010
0100
1000
0100
0010
0100
1000
0100
1000
0000
,  // measure 26
0001
0010
0001
0010
0100
0010
0100
0010
0001
0010
0100
0010
0001
0010
0001
0000
,  // measure 27
1000
0010
1000
0010
0100
0010
0100
0010
1000
0010
0100
0010
1000
0010
1000
0000
,  // measure 28
0001
0100
0001
0100
0010
0100
0010
0100
0001
0100
0010
0100
0001
0100
0001
0000
,  // measure 29
0010
0100
0010
0100
1000
0100
0010
0000
0100
0010
0100
0010
0001
0010
0100
0000
,  // measure 30
1000
0001
1000
0001
0100
0010
1000
0000
0001
1000
0001
1000
0010
0100
0001
0000
,  // measure 31
0100
0010
0100
0010
1000
0010
0100
0000
0010
0100
0010
0100
0001
0100
0010
0000
,  // measure 32
1000
0001
1000
0001
0010
0100
1000
0000
0001
1000
0001
1000
0100
0010
0001
0000
,  // measure 33
1000
0000
0000
0000
0100
0000
0100
0000
0002
0000
0000
1003
0000
0000
1000
0100
,  // measure 34
0000
0100
0000
0100
0010
0100
0010
0000
0100
1000
0100
1000
0000
0001
0000
0100
,  // measure 35
0001
0000
0000
0000
0010
0000
0010
0000
2000
0000
0000
3001
0000
0000
0001
0010
,  // measure 36
0000
0010
0000
0010
0100
0010
0100
0000
0010
0001
0010
0001
0000
1000
0000
0010
,  // measure 37
1000
0000
0100
0000
0010
0000
0010
1000
0000
1000
0001
0000
0010
0000
0010
1000
,  // measure 38
0000
1000
0100
1000
0100
0000
0010
0001
1000
0000
0001
0100
0000
0001
1000
0000
,  // measure 39
0001
0000
0010
0000
0100
0000
0100
0001
0000
0001
1000
0000
0100
0000
0100
0001
,  // measure 40
0000
0001
0010
0001
0010
0000
0100
1000
0001
0000
0001
0100
0010
1000
0001
0000
,  // measure 41
0100
0010
0100
0010
1000
0010
0100
0000
0010
0100
0010
0100
0001
0100
0010
0000
,  // measure 42
1000
0001
1000
0001
0010
0100
1000
0000
0001
1000
0001
1000
0100
0010
0001
0000
,  // measure 43
0010
0100
0010
0100
1000
0100
0010
0000
0100
0010
0100
0010
0001
0010
0100
0000
,  // measure 44
1000
0001
1000
0001
0100
0010
1000
0000
0001
1000
0001
1000
0010
0100
0001
0000
,  // measure 45
2000
3000
0000
0000
;
