#VERSION:0.83;
#TITLE:Renegade;
#SUBTITLE:;
#ARTIST:Steff Da Campo & SMACK;
#TITLETRANSLIT:;
#SUBTITLETRANSLIT:;
#ARTISTTRANSLIT:;
#GENRE:Spinnin' Records;
#ORIGIN:;
#CREDIT:;
#BANNER:Renegade.png;
#BACKGROUND:Renegade-bg.png;
#PREVIEWVID:;
#JACKET:Renegade-jacket.png;
#CDIMAGE:;
#DISCIMAGE:;
#LYRICSPATH:;
#CDTITLE:../cdtitle.png;
#MUSIC:Renegade.ogg;
#OFFSET:-0.130000;
#SAMPLESTART:17.271000;
#SAMPLELENGTH:15.000000;
#SELECTABLE:YES;
#BPMS:0.000=126.000;
#STOPS:34.938=0.476,
50.938=0.476,
65.938=0.476,
80.938=0.476,
222.938=0.476,
238.938=0.476,
253.938=0.476,
268.938=0.476;
#DELAYS:;
#WARPS:;
#TIMESIGNATURES:0.000=4=4;
#TICKCOUNTS:0.000=4;
#COMBOS:0.000=1;
#SPEEDS:0.000=1.000=0.000=0;
#SCROLLS:0.000=1.000;
#FAKES:;
#LABELS:0.000=Song Start;
#BGCHANGES:0.000=Renegade.avi=1.000=0=0=0=StretchNoLoop====,
99999=-nosongbg-=1.000=0=0=0 // don't automatically add -songbackground-
;
#KEYSOUNDS:;
#ATTACKS:
;

//---------------dance-single - ----------------
#NOTEDATA:;
#CHARTNAME:;
#STEPSTYPE:dance-single;
#DESCRIPTION:;
#CHARTSTYLE:;
#DIFFICULTY:Challenge;
#METER:14;
#RADARVALUES:0.476731,0.717237,0.285641,0.069668,0.431944,479.000000,438.000000,41.000000,10.000000,0.000000,0.000000,0.000000,0.000000,0.000000,0.476731,0.717237,0.285641,0.069668,0.431944,479.000000,438.000000,41.000000,10.000000,0.000000,0.000000,0.000000,0.000000,0.000000;
#CREDIT:led_light;
#NOTES:
0000
0000
0000
0000
,
0000
0000
0000
0000
,
0000
0000
0000
0000
,
0000
0000
0000
0000
,
0000
0000
0000
0000
,
1100
0000
0000
0100
0000
0001
0000
0000
0100
0010
0000
0100
1000
0000
0000
0010
0000
0001
0000
0000
0010
0100
0000
0010
,
0100
0000
0000
1000
0000
0100
0000
0000
0010
0100
0000
0001
0010
0000
0000
1000
0000
0010
0000
0000
0100
0010
0000
0001
,
1000
0000
0100
1000
0000
0010
0100
0000
0010
0100
0000
0001
0010
0000
0001
0010
0000
0100
1000
0000
0010
0001
0000
0010
,
1000
0000
0000
0110
,
1001
0000
0000
0001
0000
0100
0010
0000
1000
0001
0000
0000
1000
0000
0000
0000
0000
0000
1100
0000
0000
0001
0000
0000
,
0100
0000
0000
0010
0000
1000
0010
0000
0001
0010
0000
0000
0100
0000
0000
0010
0000
0000
1001
0000
0000
0000
0000
0000
,
0011
0000
0000
0010
0000
0100
0010
0000
0001
1000
0000
0000
0100
0000
0000
0000
0000
0000
0010
0000
0000
0100
0000
0000
,
1000
0000
0000
0001
0000
0100
1000
0000
0000
0100
0000
0010
0000
0000
0010
0000
0000
0000
0110
0000
0000
0010
0000
0100
,
0001
0000
1000
0010
0000
0000
0100
0000
0000
0000
0000
0000
0010
0000
0000
1000
0000
0000
0100
0000
0000
0010
0000
1000
,
0010
0000
0001
0010
0000
0000
0100
0000
0000
0010
0000
0000
1001
0000
0000
0000
0000
0000
0110
0000
0000
0001
0000
1000
,
0100
0000
1000
0100
0000
0000
0010
0000
0000
0000
0000
0000
1000
0000
0010
0000
0001
0000
0000
0000
0000
1000
0000
0000
,
0000
0100
0001
0100
1001
0010
0100
0001
,
0100
0000
0010
0100
0000
0000
0001
0000
0000
0010
0000
0000
0100
0000
0000
0100
0000
0000
0001
0000
0100
1000
0000
0000
,
0100
0000
0000
0010
0000
0000
0110
0000
0000
0000
0000
0000
0001
0000
0000
0010
0000
0000
1000
0000
0010
1000
0000
0000
,
0010
0000
0000
0001
0000
0000
1000
0000
0000
1000
0000
0000
0001
0000
0000
0100
0000
0010
1000
0000
0010
1000
0000
0000
,
0100
0000
0000
0010
0000
0000
0010
0000
0001
0010
0000
0000
0100
0000
0000
1000
0000
0000
0001
0000
0000
0001
0000
0000
,
0010
0000
0000
0010
0000
0000
0100
0000
0000
1000
0000
0001
0010
0000
0001
0010
0000
0000
0100
0000
0000
0010
0000
0000
,
1100
0000
0000
0000
0000
0000
0100
0000
0000
1000
0000
0000
0010
0000
0001
0010
0000
0000
1000
0000
0000
0100
0000
0000
,
0010
0000
0000
0000
0000
0000
0010
0000
0000
0000
0000
0000
0010
0000
0100
0000
0010
0000
0100
0000
0000
0010
0000
0000
,
2002
0000
0000
0000
,
0000
0000
0000
0000
,
0000
0000
0000
0000
,
0000
0000
0000
0003
,
0200
0000
0000
3000
,
0002
0000
0000
0003
,
0020
0000
0000
0030
,
1300
0000
0000
0000
,
0001
0000
0000
0000
1000
0000
0000
0001
0000
0001
0000
0000
0100
0000
0000
0000
,
0010
0000
0000
0000
0100
0000
0000
0010
0000
0010
0000
0000
1000
0000
0100
0000
,
0010
0000
0000
0000
0100
0000
0000
0010
0000
0010
0000
0000
0001
0000
0000
0000
,
1000
0000
0000
0000
0001
0000
0000
1000
0000
1000
0000
0000
0010
0000
0000
0000
,
1000
0000
0000
0000
0001
0000
0000
1000
0000
1000
0000
0000
0100
0000
0000
0000
,
0010
0000
0000
0000
0100
0000
0000
0010
0000
0010
0000
0000
0001
0000
0100
0000
,
0010
0000
0000
0000
0100
0000
0000
0010
0000
0010
0000
0000
1000
0000
0000
0000
,
0002
0000
0000
0000
,
1003
0000
0000
0000
1001
0000
0000
0010
0100
0001
0000
0000
1100
0000
0000
0000
,
0001
0000
0000
0000
0011
0000
0000
0100
1000
0100
0000
0000
1000
0000
0010
0000
,
0101
0000
0000
0000
0101
0000
0000
0001
0010
0001
0000
0000
1100
0000
0000
0000
,
1000
0000
0000
0000
0011
0000
0000
0100
0010
0100
0000
0000
1000
0000
0000
0000
,
0001
0000
0000
0000
1001
0000
0000
0100
0010
1000
0000
0000
0011
0000
0000
0000
,
1000
0000
0000
0000
1100
0000
0000
0010
0001
0010
0000
0000
0001
0000
0100
0000
,
1010
0000
0000
0000
1010
0000
0000
1000
0100
1000
0000
0000
0011
0000
0000
0000
,
0220
0000
0000
0330
,
2002
0000
0000
0000
,
0000
0000
0000
0000
,
0000
0000
0000
0000
,
0000
0000
0000
3003
,
0011
0000
0000
0010
0000
1000
0000
0000
0010
0100
0000
0010
0001
0000
0000
0100
0000
1000
0000
0000
0100
0010
0000
0100
,
0010
0000
0000
0001
0000
0010
0000
0000
0100
0010
0000
1000
0100
0000
0000
0001
0000
0100
0000
0000
0010
0100
0000
1000
,
0001
0000
0010
0001
0000
0100
0010
0000
0100
0010
0000
1000
0100
0000
1000
0100
0000
0010
0001
0000
0100
1000
0000
0100
,
0001
0000
0000
0110
,
1001
0000
0000
1000
0000
0010
0100
0000
0001
1000
0000
0000
0001
0000
0000
0000
0000
0000
0011
0000
0000
1000
0000
0000
,
0010
0000
0000
0100
0000
0001
0100
0000
1000
0100
0000
0000
0010
0000
0000
0100
0000
0000
1001
0000
0000
0000
0000
0000
,
1100
0000
0000
0100
0000
0010
0100
0000
1000
0001
0000
0000
0010
0000
0000
0000
0000
0000
0100
0000
0000
0010
0000
0000
,
0001
0000
0000
1000
0000
0010
0001
0000
0000
0010
0000
0100
0000
0000
0100
0000
0000
0000
0110
0000
0000
0100
0000
0010
,
1000
0000
0001
0100
0000
0000
0010
0000
0000
0000
0000
0000
0100
0000
0000
0001
0000
0000
0010
0000
0000
0100
0000
0001
,
0100
0000
1000
0100
0000
0000
0010
0000
0000
0100
0000
0000
1001
0000
0000
0000
0000
0000
0110
0000
0000
1000
0000
0001
,
0010
0000
0001
0010
0000
0000
0100
0000
0000
0000
0000
0000
0001
0000
0100
0000
1000
0000
0000
0000
0000
0001
0000
0000
,
0000
0010
1000
0010
1001
0100
0010
1000
,
0010
0000
0100
0010
0000
0000
1000
0000
0000
0100
0000
0000
0010
0000
0000
0010
0000
0000
1000
0000
0010
0001
0000
0000
,
0010
0000
0000
0100
0000
0000
0110
0000
0000
0000
0000
0000
1000
0000
0000
0100
0000
0000
0001
0000
0100
0001
0000
0000
,
0100
0000
0000
1000
0000
0000
0001
0000
0000
0001
0000
0000
1000
0000
0000
0010
0000
0100
0001
0000
0100
0001
0000
0000
,
0010
0000
0000
0100
0000
0000
0100
0000
1000
0100
0000
0000
0010
0000
0000
0001
0000
0000
1000
0000
0000
1000
0000
0000
,
0100
0000
0000
0100
0000
0000
0010
0000
0000
0001
0000
1000
0100
0000
1000
0100
0000
0000
0010
0000
0000
0100
0000
0000
,
0011
0000
0000
0000
0000
0000
0010
0000
0000
0001
0000
0000
0100
0000
1000
0100
0000
0000
0001
0000
0000
0010
0000
0000
,
0100
0000
0000
0000
0000
0000
0100
0000
0000
0000
0000
0000
0100
0000
0010
0000
0100
0000
0010
0000
0000
0100
0000
0000
,
1001
0000
0000
0000
;

//---------------dance-single - ----------------
#NOTEDATA:;
#CHARTNAME:;
#STEPSTYPE:dance-single;
#DESCRIPTION:;
#CHARTSTYLE:;
#DIFFICULTY:Hard;
#METER:11;
#RADARVALUES:0.384172,0.494646,0.306541,0.062702,0.153271,386.000000,342.000000,44.000000,9.000000,0.000000,0.000000,0.000000,0.000000,0.000000,0.384172,0.494646,0.306541,0.062702,0.153271,386.000000,342.000000,44.000000,9.000000,0.000000,0.000000,0.000000,0.000000,0.000000;
#CREDIT:led_light;
#NOTES:
// measure 0
0000
0000
0000
0000
,  // measure 1
0000
0000
0000
0000
,  // measure 2
0000
0000
0000
0000
,  // measure 3
0000
0000
0000
0000
,  // measure 4
0000
0000
0000
0000
,  // measure 5
0001
1000
0100
0000
0001
1000
0100
0000
,  // measure 6
0010
0001
1000
0000
0010
0001
1000
0000
,  // measure 7
1000
0000
0100
1000
0000
0000
0100
0000
0001
0100
0000
0000
1000
0000
0010
1000
0000
0000
0010
0000
0001
0010
0000
0000
,  // measure 8
1000
0000
0000
0011
,  // measure 9
1010
0000
0001
1000
0100
0000
0010
0001
,  // measure 10
0100
0000
0000
1000
0000
0000
0100
0000
0001
0100
0000
0000
0010
0000
0000
1000
0000
0000
1100
0000
0000
0000
0000
0000
,  // measure 11
0101
0000
0010
1000
0001
0000
0010
0100
,  // measure 12
0001
0000
0000
0100
0000
0000
1000
0000
0000
0000
0000
0001
0000
0000
0001
0000
0000
0000
1001
0000
0000
0000
0000
0000
,  // measure 13
0101
0010
1000
0000
0100
0001
0100
1000
,  // measure 14
0100
0000
0010
0100
0000
0000
1000
0000
0000
0010
0000
0000
0101
0000
0000
0000
0000
0000
1001
0000
0000
0000
0000
0000
,  // measure 15
1000
0000
0000
0100
0000
0000
0010
0000
0000
0000
0000
0000
0100
0000
0010
0000
0100
0000
0000
0000
0000
0100
0000
0000
,  // measure 16
0000
0100
0010
0100
0110
0000
1001
0000
,  // measure 17
0010
1000
0100
0000
0001
0100
1000
0010
,  // measure 18
0001
0000
0110
0000
1010
0000
0001
0010
,  // measure 19
0010
0000
0000
0000
0000
0000
1000
0000
0000
0100
0000
0000
0100
0000
0000
0001
0000
0000
1000
0000
0010
0100
0000
0000
,  // measure 20
0010
0000
0101
0001
1000
0000
0101
0001
,  // measure 21
1000
0000
0000
1000
0000
0000
0100
0000
0000
1000
0000
0000
0001
0000
0100
0001
0000
0000
0100
0000
0000
0010
0000
0000
,  // measure 22
1010
0000
0000
0000
0000
0000
0001
0000
0000
0010
0000
0000
0100
0000
0010
0100
0000
0000
1000
0000
0000
0001
0000
0000
,  // measure 23
1000
0000
0000
0000
0000
0000
1000
0000
0000
0000
0000
0000
1000
0000
0010
0000
0100
0000
0001
0000
0000
0010
0000
0000
,  // measure 24
0220
0000
0000
0000
,  // measure 25
0000
0000
0000
0000
,  // measure 26
0000
0000
0000
0000
,  // measure 27
0000
0000
0000
0300
,  // measure 28
0200
0000
0000
0030
,  // measure 29
2000
0000
0000
0300
,  // measure 30
0002
0000
0000
0000
,  // measure 31
3003
0000
0000
0000
,  // measure 32
1000
0000
0000
0000
1001
0000
0000
0001
0000
0001
0000
0000
0100
0000
0000
0000
,  // measure 33
0010
0000
0000
0000
1010
0000
0000
1000
0000
1000
0000
0000
0100
0000
0010
0000
,  // measure 34
0001
0000
0000
0000
0101
0000
0000
0001
0000
0001
0000
0000
1000
0000
0000
0000
,  // measure 35
0100
0000
0000
0000
0110
0000
0000
0100
0000
0100
0000
0000
1000
0000
0000
0000
,  // measure 36
0001
0000
0000
0000
1001
0000
0000
1000
0000
1000
0000
0000
0010
0000
0000
0000
,  // measure 37
0100
0000
0000
0000
0101
0000
0000
0001
0000
0001
0000
0000
0010
0000
0100
0000
,  // measure 38
1000
0000
0000
0000
1010
0000
0000
1000
0000
1000
0000
0000
0001
0000
0000
0000
,  // measure 39
0020
0000
0000
0000
,  // measure 40
0130
0000
0110
0000
0100
1000
0010
0000
,  // measure 41
0100
0001
0010
0001
0100
0010
1000
0000
,  // measure 42
0001
0000
0101
0000
0010
1000
0100
0000
,  // measure 43
0001
0100
1000
0010
0001
0010
1000
0000
,  // measure 44
0010
0000
0110
0000
0010
1000
0100
0000
,  // measure 45
0010
0001
0100
0001
0010
0100
1000
0000
,  // measure 46
0001
0000
0011
0000
0100
1000
0010
0000
,  // measure 47
0200
0000
0000
0300
,  // measure 48
2002
0000
0000
0000
,  // measure 49
0000
0000
0000
0000
,  // measure 50
0000
0000
0000
0000
,  // measure 51
0000
0000
0000
3003
,  // measure 52
1000
0001
0010
0000
1000
0001
0010
0000
,  // measure 53
0100
1000
0001
0000
0100
1000
0001
0000
,  // measure 54
0001
0000
0010
0001
0000
0000
0010
0000
1000
0010
0000
0000
0001
0000
0100
0001
0000
0000
0100
0000
1000
0100
0000
0000
,  // measure 55
0001
0000
0000
1100
,  // measure 56
0101
0000
1000
0001
0010
0000
0100
1000
,  // measure 57
0010
0000
0000
0001
0000
0000
0010
0000
1000
0010
0000
0000
0100
0000
0000
0001
0000
0000
0011
0000
0000
0000
0000
0000
,  // measure 58
1010
0000
0100
0001
1000
0000
0100
0010
,  // measure 59
1000
0000
0000
0010
0000
0000
0001
0000
0000
0000
0000
1000
0000
0000
1000
0000
0000
0000
1001
0000
0000
0000
0000
0000
,  // measure 60
1010
0100
0001
0000
0010
1000
0010
0001
,  // measure 61
0010
0000
0100
0010
0000
0000
0001
0000
0000
0100
0000
0000
1010
0000
0000
0000
0000
0000
1001
0000
0000
0000
0000
0000
,  // measure 62
0001
0000
0000
0010
0000
0000
0100
0000
0000
0000
0000
0000
0010
0000
0100
0000
0010
0000
0000
0000
0000
0010
0000
0000
,  // measure 63
0000
0010
0100
0010
0110
0000
1001
0000
,  // measure 64
0100
0001
0010
0000
1000
0010
0001
0100
,  // measure 65
1000
0000
0110
0000
0101
0000
1000
0100
,  // measure 66
0100
0000
0000
0000
0000
0000
0001
0000
0000
0010
0000
0000
0010
0000
0000
1000
0000
0000
0001
0000
0100
0010
0000
0000
,  // measure 67
0100
0000
1010
1000
0001
0000
1010
1000
,  // measure 68
0001
0000
0000
0001
0000
0000
0010
0000
0000
0001
0000
0000
1000
0000
0010
1000
0000
0000
0010
0000
0000
0100
0000
0000
,  // measure 69
0101
0000
0000
0000
0000
0000
1000
0000
0000
0100
0000
0000
0010
0000
0100
0010
0000
0000
0001
0000
0000
1000
0000
0000
,  // measure 70
0001
0000
0000
0000
0000
0000
0001
0000
0000
0000
0000
0000
0001
0000
0100
0000
0010
0000
1000
0000
0000
0100
0000
0000
,  // measure 71
0110
0000
0000
0000
;

//---------------dance-single - ----------------
#NOTEDATA:;
#CHARTNAME:;
#STEPSTYPE:dance-single;
#DESCRIPTION:;
#CHARTSTYLE:;
#DIFFICULTY:Medium;
#METER:8;
#RADARVALUES:0.299574,0.370984,0.215972,0.118436,0.000000,301.000000,270.000000,31.000000,17.000000,0.000000,0.000000,0.000000,0.000000,0.000000,0.299574,0.370984,0.215972,0.118436,0.000000,301.000000,270.000000,31.000000,17.000000,0.000000,0.000000,0.000000,0.000000,0.000000;
#CREDIT:led_light;
#NOTES:
0000
0000
0000
0000
,
0000
0000
0000
0000
,
0000
0000
0000
0000
,
0000
0000
0000
0000
,
0000
0000
0000
0000
,
1000
0100
0100
0000
0001
0100
0100
0000
,
1000
0010
0010
0000
0001
0010
0010
0000
,
1000
1000
1000
1000
0100
0001
0100
1000
,
0010
0000
0000
0100
,
1001
0000
0010
0010
0010
0000
0001
0100
,
1000
0000
0001
0010
0100
0000
0010
0000
,
1001
0000
0100
0100
0100
0000
1000
0010
,
0001
2000
3000
0101
,
0010
1000
0100
0000
0001
0100
1000
0100
,
0001
0100
1100
0001
,
1000
0100
0001
0000
0200
0000
0000
0300
,
0000
0010
0100
1001
,
0001
0100
1000
0000
1010
0000
1000
0010
,
0001
0000
1001
0000
0010
0000
0100
0001
,
1000
0000
0001
0001
0001
0000
1000
0100
,
1000
0000
0010
0100
0101
0000
1000
0100
,
0110
0000
0100
0000
1000
0001
0010
0000
,
0100
0000
0011
0000
1000
0010
0010
0000
,
0001
0000
0001
0000
0001
0100
1000
0000
,
0022
0000
0000
0000
,
0000
0000
0000
0000
,
0000
0000
0000
0000
,
0000
0000
0000
0033
,
2000
0000
0000
0000
,
3200
0000
0000
0000
,
0320
0000
0000
0000
,
0030
0000
0000
0000
,
0100
0000
0100
0000
0100
1000
0001
0000
,
1000
0000
1000
0000
0001
0100
0010
0000
,
0100
0100
0200
0300
,
0001
0001
0002
0003
,
0010
0000
0010
0000
0010
0001
1000
0000
,
0001
0000
0001
0000
1000
0010
0100
0000
,
0010
0010
0020
0030
,
2000
0000
0000
0000
,
3001
0000
0101
0000
0001
1000
0100
0000
,
1000
0000
1001
0000
0010
1000
0100
1000
,
0010
0000
0110
0000
0010
1000
0001
0000
,
0010
0000
0110
0000
0010
0001
1000
0000
,
0001
0000
0011
0000
0001
1000
0010
0000
,
1000
0000
1001
0000
0100
1000
0010
1000
,
0100
0000
0110
0000
0100
1000
0001
0000
,
0220
0000
0000
0330
,
2002
0000
0000
0000
,
0000
0000
0000
0000
,
0000
0000
0000
0000
,
0000
0000
0000
3003
,
0001
0010
0010
0000
1000
0010
0010
0000
,
0001
0100
0100
0000
1000
0100
0100
0000
,
0001
0001
0001
0001
0010
1000
0010
0001
,
0100
0000
0000
0010
,
1001
0000
0100
0100
0100
0000
1000
0010
,
0001
0000
1000
0100
0010
0000
0100
0000
,
1001
0000
0010
0010
0010
0000
0001
0100
,
1000
0002
0003
1010
,
0100
0001
0010
0000
1000
0010
0001
0010
,
1000
0010
0011
1000
,
0001
0010
1000
0000
0020
0000
0000
0030
,
0000
0100
0010
1001
,
1000
0010
0001
0000
0101
0000
0001
0100
,
1000
0000
1001
0000
0100
0000
0010
1000
,
0001
0000
1000
1000
1000
0000
0001
0010
,
0001
0000
0100
0010
1010
0000
0001
0010
,
0110
0000
0010
0000
0001
1000
0100
0000
,
0010
0000
1100
0000
0001
0100
0100
0000
,
1000
0000
1000
0000
1000
0010
0001
0000
,
1100
0000
0000
0000
;

//---------------dance-single - ----------------
#NOTEDATA:;
#CHARTNAME:;
#STEPSTYPE:dance-single;
#DESCRIPTION:;
#CHARTSTYLE:;
#DIFFICULTY:Easy;
#METER:5;
#RADARVALUES:0.207015,0.296788,0.160237,0.069668,0.000000,208.000000,185.000000,23.000000,10.000000,0.000000,0.000000,0.000000,0.000000,0.000000,0.207015,0.296788,0.160237,0.069668,0.000000,208.000000,185.000000,23.000000,10.000000,0.000000,0.000000,0.000000,0.000000,0.000000;
#CREDIT:led_light;
#NOTES:
0000
0000
0000
0000
,
0000
0000
0000
0000
,
0000
0000
0000
0000
,
0000
0000
0000
0000
,
0000
0000
0000
0000
,
0010
0010
0100
0100
,
0001
0001
1000
1000
,
0100
0001
0010
1000
,
0100
0000
0000
0110
,
0001
0001
0000
1000
,
1000
0001
0010
0100
,
0100
1001
0000
0010
,
0010
1000
0100
0001
,
1001
0000
0100
0100
,
0001
0010
1000
1000
,
1100
0000
0002
0000
,
0000
0003
0010
1100
,
0001
1100
0010
0100
,
0100
0000
0001
0110
,
1000
0100
0100
0001
,
0100
1000
1100
0001
,
0101
0010
0001
1000
,
0100
0100
1010
0100
,
0010
0010
0010
0010
,
2002
0000
0000
0000
,
0000
0000
0000
0000
,
0000
0000
0000
0000
,
0000
0000
0000
3003
,
0200
0000
0000
0000
,
0000
0000
0000
0000
,
0020
0000
0000
0000
,
0330
0000
0000
0000
,
0001
0001
0001
0000
,
0010
0010
0010
0100
,
1000
1000
1000
0000
,
0001
0001
0001
0000
,
1000
1000
1000
0000
,
0010
0010
0010
0100
,
0001
0001
0001
0000
,
2000
0000
0000
0000
,
3001
1000
0100
0100
,
0010
0001
1000
0000
,
0100
1000
0001
0000
,
0100
0100
0100
0000
,
0001
1000
0010
0010
,
0100
0001
1000
0000
,
0010
1000
0001
0000
,
0020
0000
0000
0030
,
2002
0000
0000
0000
,
0000
0000
0000
0000
,
0000
0000
0000
0000
,
0000
0000
0000
3003
,
0100
0100
0010
0010
,
1000
1000
0001
0001
,
0010
1000
0100
0001
,
0010
0000
0000
0110
,
1000
1000
0000
0001
,
0001
1000
0100
0010
,
0010
1001
0000
0100
,
0100
0001
0010
1000
,
1001
0000
0010
0010
,
1000
0100
0001
0001
,
0011
0000
2000
0000
,
0000
3000
0100
0011
,
1000
0011
0100
0010
,
0010
0000
1000
0110
,
0001
0010
0010
1000
,
0010
0001
0011
1000
,
1010
0100
1000
0001
,
0010
0010
0101
0010
,
0100
0100
0100
0100
,
1001
0000
0000
0000
;

//---------------dance-single - ----------------
#NOTEDATA:;
#CHARTNAME:;
#STEPSTYPE:dance-single;
#DESCRIPTION:;
#CHARTSTYLE:;
#DIFFICULTY:Beginner;
#METER:3;
#RADARVALUES:0.117441,0.197858,0.069668,0.097536,0.000000,118.000000,108.000000,10.000000,14.000000,0.000000,0.000000,0.000000,0.000000,0.000000,0.117441,0.197858,0.069668,0.097536,0.000000,118.000000,108.000000,10.000000,14.000000,0.000000,0.000000,0.000000,0.000000,0.000000;
#CREDIT:led_light;
#NOTES:
0000
0000
0000
0000
,
0000
0000
0000
0000
,
0000
0000
0000
0000
,
0000
0000
0000
0000
,
0000
0000
0000
0000
,
0001
0000
0001
0000
,
1000
0000
1000
0000
,
0010
0010
0010
0010
,
0010
0000
0000
0000
,
1000
1000
0000
0010
,
0010
0010
0000
0000
,
0001
0001
0000
0100
,
0100
0100
0000
0000
,
1000
0000
0001
0001
,
0001
0000
0000
0010
,
0010
0000
0200
0000
,
0000
0300
0000
0110
,
0000
0110
0000
0001
,
0001
0000
1000
1000
,
0000
0001
0000
1000
,
0000
0000
1001
0000
,
1001
0000
0010
0000
,
0000
0100
0100
0000
,
0010
0000
0010
0000
,
2002
0000
0000
0000
,
0000
0000
0000
0000
,
0000
0000
0000
0000
,
0000
0000
0000
0000
,
0000
0000
0000
0000
,
0000
0000
0000
0000
,
0000
0000
0000
0000
,
3003
0000
0000
0000
,
2000
0000
3000
0000
,
0002
0000
0003
0000
,
0200
0000
0300
0000
,
0020
0000
0030
0000
,
0002
0000
0003
0000
,
0020
0000
0030
0000
,
2000
0000
3000
0000
,
0200
0000
0000
0300
,
0100
0000
0100
0000
,
1000
0000
1000
0000
,
0010
0000
0010
0000
,
0001
0000
0001
0000
,
0010
0000
0010
0000
,
0100
0000
0100
0000
,
0001
0000
0001
0000
,
2000
0000
0000
3000
,
0002
0000
0000
0000
,
0000
0000
0000
0000
,
0000
0000
0000
0000
,
0000
0000
0000
0003
,
1000
0000
1000
0000
,
0001
0000
0001
0000
,
0100
0100
0100
0100
,
0100
0000
0000
0000
,
0001
0001
0000
0100
,
0100
0100
0000
0000
,
1000
1000
0000
0010
,
0010
0010
0000
0000
,
0001
0000
1000
1000
,
1000
0000
0000
0100
,
0100
0000
0020
0000
,
0000
0030
0000
0110
,
0000
0110
0000
1000
,
1000
0000
0001
0001
,
0000
1000
0000
0001
,
0000
0000
1001
0000
,
1001
0000
0100
0000
,
0000
0010
0010
0000
,
0100
0000
0100
0000
,
1001
0000
0000
0000
;
