#TITLE:恋愛観測;
#SUBTITLE:-VENUS Mix-;
#ARTIST:VENUS;
#TITLETRANSLIT:Renaikansoku;
#SUBTITLETRANSLIT:;
#ARTISTTRANSLIT:;
#GENRE:BEMANI;
#CREDIT:;
#BANNER:Renaikansoku -VENUS Mix-.png;
#BACKGROUND:Renaikansoku -VENUS Mix--bg.png;
#LYRICSPATH:;
#CDTITLE:../cdtitle.png;
#MUSIC:Renaikansoku -VENUS Mix-.ogg;
#OFFSET:-0.380000;
#SAMPLESTART:33.084999;
#SAMPLELENGTH:15.000000;
#SELECTABLE:YES;
#BPMS:0.000000=188.000000
;
#STOPS:
;
#BGCHANGES:-99.000=../bg.avi=1.000=0=0=1=====,
99999=-nosongbg-=1.000=0=0=0 // don't automatically add -songbackground-
;
#KEYSOUNDS:;
#ATTACKS:;

//---------------dance-double - ----------------
#NOTES:
     dance-double:
     :
     Hard:
     13:
     0.647224,0.706433,0.380925,0.453868,0.040524,559.000000,512.000000,47.000000,56.000000,0.000000,0.000000,0.647224,0.706433,0.380925,0.453868,0.040524,559.000000,512.000000,47.000000,56.000000,0.000000,0.000000:
00000000
00000000
00000000
00000000
,
00000000
00000000
00000000
00000000
,
00000000
00000000
00000000
00000000
,
00000000
00000000
00000000
00000000
,
00000000
00000000
00000000
00000000
,
00100000
00010000
00100000
00000000
00001000
00010000
00001000
00010000
,
00100000
00100000
10000000
10000000
,
01000000
00010000
01000000
00000000
00010000
00001000
00010000
00001000
,
00000100
00000000
00000100
00000000
00000010
00001000
00000001
00002001
,
00000000
00003100
00000010
00000000
00000011
00000000
00000100
00001000
,
00000001
00000100
00000010
00010000
00001000
00100000
00010000
20010000
,
00000000
30010000
01000000
00000000
10100000
00000000
01000000
00010000
,
10000000
01000000
00100000
00001000
00010000
00000010
00001000
00001002
,
00000000
00000013
00000100
00000000
00000110
00000000
00000001
00001000
,
00000010
00000100
00000001
00001000
00000100
00000010
00000100
00020000
,
00000000
00031000
01000000
00200000
00000000
01300000
00010000
10000000
,
00000000
01000000
00100000
01000000
,
10000000
01000000
00100000
01000000
00100000
00010000
00001000
00000100
,
00001000
00000001
00000100
00002000
00000000
00003100
00000001
00000020
,
00000000
00001030
00000010
00000002
00000000
00000103
00000010
00001000
,
00010000
01000000
00100000
00020000
00000000
00130000
10000000
02000000
,
00000000
03010000
01000000
00200000
00000000
00301000
00010000
00000010
,
00000100
00000001
00001000
00000200
00000000
00000301
00000100
00002000
,
00000000
00003001
00000100
00002000
00000000
00003100
00000010
00020000
,
00000000
00031000
00010000
00001000
01000000
00100000
01000000
00100000
,
10000000
01000000
00010000
00002000
00000000
00013000
00001000
00000100
,
00000110
00000000
00000110
00000000
00001000
00010000
01000000
01100000
,
00000000
01100000
00010000
00000000
10000000
00010000
01000000
00100000
,
20000000
00000000
30010000
10000000
01000000
00010000
00001000
00010000
,
00010010
00000000
00001001
00000000
00000011
00000000
00000100
00020000
,
00001000
00030000
01000000
00002000
00010000
00003000
00000010
00020000
,
00001000
00030000
00100000
00001000
00020000
00000000
00031000
00000000
,
00000200
00000000
00000310
00001000
00000100
00000010
00000000
00002001
,
00000000
00003001
00000100
00001000
00010000
00001000
00010000
01000000
,
01100000
00000000
01100000
00000000
00010000
00001000
00000100
00000110
,
00000000
00000110
00001000
00000000
00000001
00001000
00000100
00000010
,
00000002
00000000
00001003
00000001
00000100
00001000
00010000
00001000
,
00101000
00000000
10010000
00000000
10100000
00000000
01000000
00002000
,
00010000
00003000
00000100
00020000
01000000
00030000
00100000
00002000
,
00000010
00003000
00000001
00000000
00001000
00000100
00010000
00000000
,
00000010
00011000
01000000
00011000
,
00020000
01030000
20000000
30100000
,
10000000
01000000
00010000
00000000
01000000
00010000
00001000
00010000
,
00000000
00001000
00010000
00000000
00001000
00000010
00000001
00001000
,
00000001
00000100
00001000
00000000
00000100
00001000
00010000
00001000
,
00000000
01000000
00200000
00000000
20300000
00000000
30020000
00000000
,
10030000
01000000
00010000
00000000
01000000
00010000
00001000
00010000
,
00000000
00001000
00010000
00000000
00001000
00000010
00000001
00001000
,
00000001
00000100
00001000
00000000
00000100
00001000
00010000
00002000
,
00000000
00013000
02000000
00000000
13000000
00010000
00200000
00000000
,
01300000
10000000
00010000
01000000
00100000
10000000
00010000
00000000
,
10000000
01000000
01000000
00100000
00010000
00010000
00001000
00000100
,
00000000
00000000
00001000
00000000
00000000
00010000
00000000
00000000
00001000
00000000
00000100
00000000
00000010
00000000
00000010
00000000
,
00000001
00000100
00000100
00000010
00001000
00001000
00010000
01000000
,
00000000
00000000
00010000
00000000
00000000
00001000
00000000
00000000
00010000
00000000
01000000
00000000
00100000
00000000
00100000
00000000
,
10000000
00000000
00010000
00100000
00000000
00010000
00100000
00000000
01000000
00000000
10000000
00100000
00000000
10000000
00100000
00000000
,
01000000
00001000
00010000
00000100
00000010
00000001
00001000
00000010
,
00000100
00000000
00000000
00000001
00000000
00000000
00000011
00000000
00000010
00000000
00000000
00001000
00000000
00000000
00011000
00000000
,
00010000
00000000
00000000
00100000
00000000
00000000
10100000
00000000
10000000
00000000
00000000
01000000
00000000
00000000
01010000
00000000
,
00010000
00001000
00001000
00010000
00100000
00100000
10000000
00010000
,
20020000
00000000
00000000
30030000
,
01100000
00000000
01100000
00000000
00000000
00000000
00000000
00000110
,
00000000
00000110
00000000
00000000
00000000
00000000
00000000
00000000
,
00000100
00000100
00000010
00000010
,
00000001
00000000
00000100
00000000
00001000
00000000
00010000
00200000
,
10000000
00300000
10000000
02000000
00010000
03000000
00001000
00000020
,
00000001
00000030
00001000
00000010
00000100
00000001
00001000
00000000
,
00000001
00000010
00000010
00001000
00010000
00010000
00100000
10000000
,
10000000
01000000
00010000
00010000
00001000
00010000
00001000
00000100
,
00000110
00000000
00000110
00000000
00001000
00010000
01000000
01100000
,
00000000
01100000
00010000
00000000
10000000
00010000
01000000
00100000
,
20000000
00000000
30010000
10000000
01000000
00010000
00001000
00010000
,
00010010
00000000
00001001
00000000
00000011
00000000
00000100
00020000
,
00001000
00030000
01000000
00002000
00000100
00003000
00000010
00020000
,
00100000
00030000
10000000
00000000
00010000
00100000
00001000
00000000
,
00001000
00000000
01000000
00002000
00000100
00003000
00000010
00020000
,
00100000
00030000
10000000
00000000
00010000
00100000
00001000
00000000
,
00100000
00011000
00000100
00011000
,
00002000
00003200
00000302
00000023
,
00000130
00001100
00000000
00010000
00000000
01001000
00000000
00100000
,
00000000
10010000
00000000
12000000
00000000
13000000
00010000
10000000
,
00100000
00010000
00001000
00000000
00000100
00000000
00000110
00000000
,
00002000
00003100
00000002
00000013
,
00000001
00000100
00001000
00000000
00000100
00001000
00010000
00001000
,
00000000
00010000
00001000
00000000
00010000
00100000
10000000
00010000
,
10000000
01000000
00010000
01000000
00000000
00010000
00001000
00010000
,
00001000
00000010
00000001
00002000
00000000
00003001
00000100
00000001
,
00001000
00000100
00000100
00000010
00000001
00000001
00000100
00001000
,
00010000
01000000
01000000
10000000
00100000
00100000
01000000
00001000
,
00010000
00000010
00001000
00000100
00000010
00000001
00001000
00000220
,
00000000
00000000
00000000
00000000
,
00000000
00000000
00000000
00000330
;

//---------------dance-double - ----------------
#NOTES:
     dance-double:
     :
     Easy:
     8:
     0.358926,0.483349,0.340401,0.543020,0.000000,310.000000,268.000000,42.000000,67.000000,0.000000,0.000000,0.358926,0.483349,0.340401,0.543020,0.000000,310.000000,268.000000,42.000000,67.000000,0.000000,0.000000:
00000000
00000000
00000000
00000000
,
00000000
00000000
00000000
00000000
,
00000000
00000000
00000000
00000000
,
00000000
00000000
00000000
00000000
,
00000000
00000000
00000000
00000000
,
00001000
00010000
01000000
00000000
,
00010000
00001000
00000100
00000000
,
00001000
00010000
00100000
00000000
,
00010000
00001000
00000010
00000001
,
00000001
00000100
00001000
00000000
,
00010000
01000000
10000000
00000000
,
10000000
00100000
00010000
00000000
,
00001000
00000010
00000001
00000000
,
00000100
00001000
00010000
00000000
,
01000000
00010000
00001000
00000000
,
00000100
00000000
00000010
00000000
,
00001001
00000000
00000000
00000000
,
00000110
00000000
00001001
00000000
,
00000110
00000000
00000000
00000001
00000000
00000100
00000000
00001000
,
00000000
00010000
00000000
02000000
00000000
00000000
03000000
00000000
,
01100000
00000000
00000000
10000000
00000000
00100000
00000000
00010000
,
00000000
00001000
00000000
00000020
00000000
00000000
00000030
00000000
,
00000110
00000000
00000000
00000001
00000000
00001000
00000000
00010000
,
00000000
10000000
00000000
00010000
00000000
00001000
00000000
00000002
,
00000000
00001000
00001000
00001003
,
00020000
00000000
00000000
20030000
00000000
00000000
31000000
00000000
,
11000000
00110000
00001000
00010000
,
00001010
00000101
00000001
00001000
,
00000100
00000100
00000010
00000010
,
00000002
00000203
00002300
00013000
,
00220000
00330000
22000000
33000000
,
20020000
30030000
01000000
00100000
,
00010000
00000000
00001000
00000000
00000100
00000000
00000000
00000020
,
00000000
00001030
00000001
00000100
,
00000101
00001010
00010000
00001000
,
00110000
11000000
10000000
00010000
,
01000000
01000000
00100000
00100000
,
20000000
32000000
03020000
00031000
,
00002020
00003030
00000220
00000330
,
00002002
00003003
00000100
00000010
,
00001000
00010000
01000000
01000000
,
00200000
00300000
00020000
00030000
,
20000000
01000000
00000000
31000000
,
00200000
00001000
00000000
00301000
,
00020000
00000010
00000000
00030010
,
00000000
00001000
00000001
00001000
,
00000002
00000100
00000000
00000103
,
00000020
00010000
00000000
00010030
,
00002000
00000000
00100000
00000000
00000000
00000000
00103000
00020000
,
00000000
00000000
20030000
00000000
00000000
30020000
00000000
00000000
,
01030000
00100000
10000000
00010000
,
10000000
01000000
00010000
00011000
,
00000000
00001000
00000010
00000001
,
00000001
00000100
00001000
00011000
,
00000000
00010000
00100000
10000000
,
10000000
01000000
00010000
01000000
,
10000000
00100000
00010000
00001000
,
00011000
00000000
00001100
00000000
,
00000011
00000000
00001010
00000000
,
00011000
00010000
01000000
10000000
,
20020000
00000000
00000000
30030000
,
01000000
00000000
00100000
00000000
00000000
00000000
00000000
00000100
,
00000000
00000010
00000000
00000000
00000000
00000000
00000000
00000000
,
00001000
00001000
00000001
00000001
,
00000100
00001000
00010000
00001000
,
00022000
00033000
00220000
00330000
,
02200000
03300000
10000000
00010000
,
01000000
00000000
00000000
01000000
00000000
00000000
00100000
00000000
,
00000000
00100000
00000000
00000000
10000000
00000000
01000000
00000000
,
11000000
00110000
00001000
00010000
,
00001010
00000101
00000001
00001000
,
00000100
00000100
00000010
00000010
,
00000002
00000203
00002300
00013000
,
00220000
00330000
02200000
03300000
,
20020000
30030000
01000000
00100000
,
02200000
03300000
20020000
30030000
,
22000000
33000000
10000000
00100000
,
00010000
00001000
00000100
00000100
,
00000020
00000030
00002000
00003000
,
00001001
00000000
00000000
00000001
00000000
00000010
00000000
00001000
,
00000000
00010000
00000000
00200000
00000000
00000000
01300000
00000000
,
00001000
00010000
01000000
01000000
,
00200000
00300000
00020000
00030000
,
20000000
01000000
00000000
31000000
,
00200000
00001000
00000000
00301000
,
00020000
00000010
00000000
00030010
,
00000100
00000001
00001000
00000001
,
00000010
00000000
00000000
00001000
00000000
00000000
00001000
00000000
,
00010000
00000000
00000000
00100000
00000000
00000000
00100000
00000000
,
10000000
00000000
01000000
00000000
00100000
00000000
00001000
00020000
,
00000000
00000000
00000000
00000000
,
00000000
00000000
00000000
00030000
;

//---------------dance-double - ----------------
#NOTES:
     dance-double:
     :
     Medium:
     10:
     0.457341,0.520529,0.405239,0.818583,0.016210,395.000000,345.000000,50.000000,101.000000,0.000000,0.000000,0.457341,0.520529,0.405239,0.818583,0.016210,395.000000,345.000000,50.000000,101.000000,0.000000,0.000000:
00000000
00000000
00000000
00000000
,
00000000
00000000
00000000
00000000
,
00000000
00000000
00000000
00000000
,
00000000
00000000
00000000
00000000
,
00000000
00000000
00000000
00000000
,
00100000
00100000
00010000
00010000
,
01000000
01000000
00100000
00100000
,
10000000
01000000
00010000
00001000
,
00000100
00000000
00000001
00000000
00000010
00000000
00000100
00002000
,
00000000
00003001
00001001
00000100
,
00000010
00000000
00000010
00000000
00001000
00000000
00000100
00020000
,
00000000
00031000
00011000
00100000
,
00010000
00000000
01000000
00000000
00100000
00000000
10000000
02000000
,
00000000
03100000
01100000
00010000
,
10000000
00000000
00100000
00000000
01000000
00000000
00001000
00020000
,
00000000
00000000
00030100
00002000
00000000
00000000
00003001
00000100
,
00000000
00000010
00001000
00001000
,
00000001
00000000
00000010
00000100
00000000
00010000
00001000
00000000
,
02000000
00000000
03100000
10000000
00000000
10010000
00000000
00100000
,
00000000
01100000
00000000
00021000
00000000
00031000
00000100
00000000
,
00000020
00000000
00000130
00000001
00000000
00001001
00000000
00000100
,
00000000
00000110
00000000
00012000
00000000
00013000
00100000
00000000
,
02000000
00000000
03010000
10000000
00000000
11000000
00000000
01000000
,
00000000
01010000
00000000
00010000
00000000
00011000
00000000
00010020
,
00000000
00000100
00000100
00000130
,
00000010
00000000
00010000
00002000
00000000
00103000
01000000
00000000
,
01100000
01100000
00010000
00001000
,
00000110
00000110
00001000
00010000
,
02000000
13000000
00200000
01300000
,
00002000
00023000
00030200
00000310
,
00000002
00000103
00002000
00003010
,
00000002
00000013
00002000
00003100
,
00001000
00000000
00000010
00000000
00000100
00000001
00000000
00000021
,
00000000
00000130
00001000
00000000
00000010
00000100
00000010
00000000
,
00000110
00000110
00001000
00010000
,
01100000
01100000
00010000
00001000
,
00000200
00000301
00000020
00000130
,
00020000
00032000
02003000
03100000
,
20200000
30300000
22000000
33000000
,
00220000
00330000
00020000
01030000
,
00100000
10000000
01000000
00100000
,
20020000
30030000
02200000
03300000
,
20000000
31000000
00020000
01030000
,
20000000
00000000
30100000
00000000
00010000
00001000
00010000
00000000
,
00002000
00003010
00000002
00000013
,
00000100
00002000
00003020
00000230
,
00000302
00000103
00002000
00003100
,
00000002
00000000
00000013
00000000
00001000
00010000
00001000
00000000
,
00020000
00000000
00130000
00000000
20000000
00000000
31000000
00200000
,
00000000
00310000
20000000
00000000
30100000
01000000
00020000
00000000
,
10030000
01000000
00010000
00002000
00010000
00000000
00013000
00000000
,
00011000
00000000
00001000
00000000
00000110
00000000
00000001
00002000
,
00000000
00003001
00000100
00001000
,
00011000
00000000
00010000
00000000
01100000
00000000
10000000
00020000
,
00000000
10030000
00100000
00010000
,
00001000
00000100
00000001
00000000
00000001
00000010
00001000
00000000
,
00010000
01000000
10000000
00000000
10000000
00100000
00010000
00000000
,
00001000
00000000
00000000
00001000
00000000
00000000
00001000
00000000
00000010
00000000
00000000
00000010
00000000
00000000
00000010
00000000
,
00000001
00000000
00000000
00000001
00000000
00000000
00000001
00000000
00000100
00000000
00000000
00000100
00000000
00000000
00000100
00000000
,
00000010
00000000
00000100
00001000
00000000
00010000
00001000
00000000
,
00022000
00000000
00000000
00033000
,
00101000
00000000
00101000
00000000
00000000
00000000
00000000
00010010
,
00000000
00010010
00000000
00000000
00000000
00000000
00000000
00000000
,
00001000
00001000
00010000
00010000
,
00000200
00000320
00000032
00000103
,
00000020
00001030
00020000
00031000
,
00000200
00001300
00020000
00031000
,
00000100
00000000
00000001
00000010
00000000
00001000
00010000
00000000
,
00100000
10000000
00000000
00010000
00200000
00000000
01300000
00000000
,
01100000
01100000
00010000
00001000
,
00000110
00000110
00001000
00010000
,
02000000
13000000
00200000
01300000
,
00002000
00023000
00030200
00000310
,
00000022
00000033
00000202
00000303
,
00002020
00003030
00002000
00003100
,
00000220
00000330
00002002
00003003
,
00000202
00000303
00002000
00003100
,
00000010
00000001
00000100
00000010
,
00002002
00003003
00000220
00000330
,
00001000
00000001
00000000
00000100
00000000
00001000
00000000
00010000
,
00000000
01000000
00000000
20000000
00000000
00000000
30010000
00000000
,
10000000
00100000
01000000
00010000
,
20020000
30030000
02200000
03300000
,
20000000
31000000
00020000
01030000
,
10000000
00000000
00100000
00000000
00010000
00001000
00010000
00000000
,
00002000
00003010
00000002
00000013
,
00000100
00001000
00000020
00000130
,
00000001
00000000
00001000
00000100
00000000
00000010
00000100
00000000
,
00010000
00000000
00001000
01000000
00000000
00100000
01000000
00000000
,
00010000
00000000
10000000
00000000
01000000
00000000
00010000
00002000
,
00000000
00000000
00000000
00000000
,
00000000
00000000
00000000
00003000
;

//---------------dance-single - ----------------
#NOTES:
     dance-single:
     :
     Hard:
     13:
     0.650698,0.706433,0.397134,0.437658,0.040524,562.000000,513.000000,49.000000,54.000000,0.000000,0.000000,0.650698,0.706433,0.397134,0.437658,0.040524,562.000000,513.000000,49.000000,54.000000,0.000000,0.000000:
0000
0000
0000
0000
,
0000
0000
0000
0000
,
0000
0000
0000
0000
,
0000
0000
0000
0000
,
0000
0000
0000
0000
,
0010
0001
0010
0000
0001
0100
0001
0100
,
0010
0010
1000
1000
,
0100
0001
0100
0000
1000
0010
1000
0010
,
0100
0000
0100
0000
0001
0010
0010
2001
,
0000
3100
0010
0000
0110
0000
0001
1000
,
0010
0001
0010
1000
0001
0010
0100
2001
,
0000
3010
0100
0000
0110
0000
0001
1000
,
0100
0001
0100
1000
0001
0100
0010
0210
,
0000
0301
1000
0000
1001
0000
1000
0001
,
0010
1000
0010
0001
1000
0010
0100
0002
,
0000
1003
0100
0002
0000
0103
1000
0001
,
0000
0100
0010
0010
,
1000
0100
0010
0100
0010
0001
1000
0001
,
0100
1000
0100
0002
0000
1003
0100
0002
,
0000
0103
1000
0002
0000
0103
1000
0100
,
0010
0001
0010
2000
0000
3001
0010
2000
,
0000
3010
0001
2000
0000
3010
0001
0010
,
0100
0001
0010
0200
0000
1300
0010
0002
,
0000
1003
0100
0002
0000
1003
0100
0002
,
0000
0103
0010
0100
1000
0001
1000
0001
,
0100
1000
0100
0020
0000
0130
0001
0010
,
0110
0000
0110
0000
0100
1000
0010
0110
,
0000
0110
0001
0000
1000
0100
0010
0001
,
2000
0000
3010
0100
0001
1000
0100
0010
,
0110
0000
1100
0000
1001
0000
0001
0200
,
1000
0300
0001
0020
1000
0030
0001
0020
,
1000
0030
0001
0100
2000
0000
3001
0000
,
0200
0000
0310
1000
0100
0010
0000
2001
,
0000
3001
0100
0010
0001
0010
1000
0100
,
0110
0000
0110
0000
0010
0001
0100
0110
,
0000
0110
1000
0000
0001
0010
0100
1000
,
0002
0000
0103
0010
1000
0001
0010
0100
,
0110
0000
0011
0000
1001
0000
1000
0020
,
0001
0030
1000
0200
0001
0300
1000
0200
,
0001
0300
1000
0000
0010
0001
1000
0000
,
0010
0101
0010
1100
,
0020
0130
0002
1003
,
1000
0100
0001
0000
1000
0010
0001
1000
,
0000
0001
0010
0000
1000
0010
0001
1000
,
0001
0100
1000
0000
0001
0010
1000
0001
,
0000
1000
0020
0000
2030
0000
3002
0000
,
1003
0100
0001
0000
1000
0010
0001
1000
,
0000
0001
0010
0000
1000
0010
0001
1000
,
0001
0100
1000
0000
0001
0010
1000
0002
,
0000
1003
0200
0000
0310
0001
0200
0000
,
0310
1000
0001
0010
0100
1000
0001
0000
,
1000
0100
0100
0001
0100
0100
1000
0010
,
0000
0000
0001
0000
0000
0010
0000
0000
0100
0000
0010
0000
1000
0000
1000
0000
,
0001
0010
0010
1000
0010
0010
0001
0100
,
0000
0000
1000
0000
0000
0100
0000
0000
0010
0000
0100
0000
0001
0000
0001
0000
,
1000
0000
0001
0010
0000
0001
0010
0000
0100
0000
1000
0001
0000
1000
0001
0000
,
0100
0010
1000
0100
0010
0001
0100
0010
,
1000
0000
0000
0100
0000
0000
1100
0000
0001
0000
0000
0100
0000
0000
0101
0000
,
1000
0000
0000
0010
0000
0000
1010
0000
0001
0000
0000
0010
0000
0000
0011
0000
,
1000
0100
0100
0001
0010
0010
1000
0001
,
2002
0000
0000
3003
,
1100
0000
1100
0000
0000
0000
0000
0101
,
0000
0101
0000
0000
0000
0000
0000
0000
,
0100
0100
0010
0010
,
1000
0000
0100
0000
0001
0000
1000
0020
,
0001
0030
1000
0020
0001
0030
1000
0200
,
0001
0300
1000
0100
0010
0001
1000
0000
,
0001
0100
0100
0010
1000
1000
0100
0001
,
0001
0100
1000
1000
0010
0100
0001
0010
,
0110
0000
0110
0000
0100
1000
0010
0110
,
0000
0110
0001
0000
1000
0100
0010
0001
,
2000
0000
3010
0100
0001
1000
0100
0010
,
0110
0000
1100
0000
1001
0000
0001
0200
,
1000
0300
0001
0020
1000
0030
0001
0020
,
1000
0030
0001
0000
0100
1000
0001
0000
,
1000
0000
0001
0200
1000
0300
0001
0020
,
1000
0030
0001
0010
0100
1000
0001
0000
,
0100
1010
0100
0011
,
0200
0310
2000
3001
,
0010
0110
0000
1001
0000
1010
0000
0110
,
0000
0101
0000
2001
0000
3001
0010
0100
,
1000
0001
0100
0000
0010
0000
1001
0000
,
0020
0130
0002
1003
,
1000
0100
0001
0000
1000
0010
0001
1000
,
0000
0001
0010
0000
1000
0010
0001
1000
,
0001
0100
1000
0001
0000
0010
1000
0001
,
1000
0100
0010
0002
0000
0103
0010
1000
,
0001
0010
0010
1000
0100
0100
0001
1000
,
0010
0001
0001
0100
1000
1000
0010
0100
,
0001
0010
0100
1000
0001
0100
0010
2002
,
0000
0000
0000
0000
,
0000
0000
0000
3003
;

//---------------dance-single - ----------------
#NOTES:
     dance-single:
     :
     Medium:
     10:
     0.459657,0.520529,0.405239,0.818583,0.016210,397.000000,347.000000,50.000000,101.000000,0.000000,0.000000,0.459657,0.520529,0.405239,0.818583,0.016210,397.000000,347.000000,50.000000,101.000000,0.000000,0.000000:
0000
0000
0000
0000
,
0000
0000
0000
0000
,
0000
0000
0000
0000
,
0000
0000
0000
0000
,
0000
0000
0000
0000
,
1000
1000
0100
0100
,
0001
0001
0010
0010
,
1000
0100
0001
0010
,
1000
0000
0010
0000
0001
0000
0100
0020
,
0000
0130
0110
0001
,
0100
0000
0010
0000
1000
0000
0100
0020
,
0000
0130
0110
1000
,
0010
0000
0100
0000
0001
0000
0010
0200
,
0000
0310
1001
0100
,
0010
0000
1000
0000
0100
0000
0010
0002
,
0000
0000
0103
0020
0000
0000
1030
0001
,
0000
0010
0100
0100
,
1000
0000
0100
0010
0000
0001
1000
0000
,
0020
0000
0130
0001
0000
1001
0000
0100
,
0000
0110
0000
2001
0000
3001
0010
0000
,
0200
0000
0310
0001
0000
1001
0000
0010
,
0000
0110
0000
2001
0000
3001
0100
0000
,
0020
0000
1030
0001
0000
0011
0000
1000
,
0000
1010
0000
0010
0000
0110
0000
2001
,
0000
0100
0100
3100
,
0001
0000
0100
2000
0000
3010
0100
0000
,
0110
0110
0001
0010
,
0110
0110
1000
0010
,
0200
1300
0200
0301
,
0020
0032
0203
0310
,
2000
3010
0002
0013
,
2000
3100
0002
0103
,
1000
0000
0010
0000
0100
0001
0000
2001
,
0000
3001
0010
0000
0100
0010
0100
0000
,
0110
0110
0001
0100
,
0110
0110
1000
0100
,
0020
1030
0020
0031
,
0200
0302
0023
0130
,
2200
3300
0202
0303
,
2002
3003
0020
0130
,
1000
0010
0001
0010
,
0220
0330
2002
3003
,
2000
3100
0002
0103
,
2000
0000
3010
0000
0100
0001
0100
0000
,
0002
0013
2000
3010
,
0001
0020
0230
1300
,
0002
0103
2000
3100
,
0002
0000
0013
0000
0100
1000
0100
0000
,
2000
0000
3010
0000
0002
0000
0013
2000
,
0000
3100
0020
0000
0031
1000
0020
0000
,
0130
0001
1000
0200
0010
0000
0310
0000
,
0011
0000
0001
0000
0101
0000
0010
2000
,
0000
0000
3001
0000
0010
0100
1000
0000
,
1100
0000
1000
0000
1010
0000
0100
0002
,
0000
0000
1003
0000
0100
0010
0001
0000
,
1000
0010
0100
0000
0001
0100
0010
0000
,
1000
0100
0010
0000
0001
0010
0100
0000
,
1000
0000
0000
1000
0000
0000
1000
0000
0001
0000
0000
0001
0000
0000
0001
0000
,
0100
0000
0000
0100
0000
0000
0100
0000
0010
0000
0000
0010
0000
0000
0010
0000
,
1000
0000
0100
0010
0000
0001
1000
0000
,
2002
0000
0000
3003
,
0110
0000
0110
0000
0000
0000
0000
1001
,
0000
1001
0000
0000
0000
0000
0000
0000
,
0100
0100
0010
0010
,
0200
2300
3020
0130
,
0002
0013
2000
3010
,
0002
0103
0020
1030
,
0001
0000
0010
0001
0000
0100
0010
0000
,
1000
0100
0000
1000
0020
0000
0130
0000
,
0110
0110
0001
0010
,
0110
0110
1000
0010
,
0200
1300
0200
0301
,
0020
0032
0203
0310
,
2020
3030
0022
0033
,
2002
3003
0200
0310
,
2200
3300
0202
0303
,
2002
3003
0020
0130
,
1000
0100
0001
0100
,
0220
0330
2002
3003
,
0010
0100
0000
0001
0000
0100
0000
1000
,
0000
0100
0000
0020
0000
0000
0130
0000
,
0001
0010
1000
0010
,
0220
0330
2002
3003
,
2000
3010
0002
0013
,
2000
0000
3100
0000
0010
0001
0010
0000
,
0002
0103
2000
3100
,
0001
0010
0200
1300
,
0001
0000
0100
0010
0000
1000
0100
0000
,
0010
0000
0100
1000
0000
0010
0100
0000
,
0001
0000
0010
0000
0100
0000
1000
0002
,
0000
0000
0000
0000
,
0000
0000
0000
0003
;

//---------------dance-single - ----------------
#NOTES:
     dance-single:
     :
     Easy:
     8:
     0.368189,0.483349,0.389029,0.518706,0.000000,318.000000,270.000000,48.000000,64.000000,0.000000,0.000000,0.368189,0.483349,0.389029,0.518706,0.000000,318.000000,270.000000,48.000000,64.000000,0.000000,0.000000:
0000
0000
0000
0000
,
0000
0000
0000
0000
,
0000
0000
0000
0000
,
0000
0000
0000
0000
,
0000
0000
0000
0000
,
0001
0100
0010
0000
,
1000
0100
0010
0000
,
0001
1000
0010
0000
,
0100
0001
1000
1000
,
0001
0010
1000
0000
,
0001
0100
1000
0000
,
1000
0010
0001
0000
,
1000
0100
0001
0000
,
1000
0100
0001
0000
,
1000
0010
0001
0000
,
1001
0000
0110
0000
,
1001
0000
0000
0000
,
0100
0100
0010
0010
,
0110
0000
0000
1000
0000
0100
0000
0001
,
0000
0100
0000
1001
0000
0000
0000
0000
,
0110
0000
0000
0001
0000
0100
0000
1000
,
0000
0100
0000
1001
0000
0000
0000
0000
,
0110
0000
0000
1000
0000
0010
0000
0001
,
0000
0100
0000
1000
0000
0001
0000
2000
,
0000
0001
0001
3001
,
0100
0000
0000
0020
0000
0000
0130
0000
,
1001
1001
0100
0010
,
0110
0110
0001
1000
,
0010
0010
0100
0100
,
0002
0013
2000
3010
,
0022
0033
0202
0303
,
0220
0330
1000
0001
,
0100
0000
0010
0000
1000
0000
0000
1001
,
0000
0100
0010
0100
,
1001
1001
0010
0100
,
0110
0110
0001
1000
,
0100
0100
0010
0010
,
0002
0103
2000
3100
,
0202
0303
0022
0033
,
0220
0330
0001
1000
,
0100
0010
0001
1000
,
0020
0030
0200
0300
,
0002
1000
0000
1003
,
0200
0010
0000
0310
,
0002
0100
0000
0103
,
0000
0001
1000
0001
,
2000
0001
0000
3001
,
0020
0100
0000
0130
,
2000
0000
0010
0000
0000
0000
3010
0200
,
0000
0000
0302
0000
0000
2003
0000
0000
,
3100
0010
0001
0001
,
0100
0010
1000
1001
,
0000
0001
1000
1000
,
0100
0010
0001
1001
,
0000
1000
0001
0001
,
0100
1000
0100
0001
,
0010
1000
0010
0001
,
0101
0000
1100
0000
,
1010
0000
0011
0000
,
1001
0001
0100
1000
,
0220
0000
0000
0330
,
0001
0000
0001
0000
0000
0000
0000
1000
,
0000
1000
0000
0000
0000
0000
0000
0000
,
0100
0100
0010
0010
,
0002
0103
2000
3100
,
0202
0303
0022
0033
,
0220
0330
0001
1000
,
0100
0000
0000
0100
0000
0000
0010
0000
,
0000
0010
0000
0000
0001
0000
1000
0000
,
1001
1001
0010
0100
,
0110
0110
1000
0001
,
0100
0100
0010
0010
,
2000
3100
0002
0103
,
2200
3300
2020
3030
,
0220
0330
1000
0001
,
0022
0033
0202
0303
,
0220
0330
1000
0001
,
0100
0010
1000
0001
,
0020
0030
0200
0300
,
1001
0000
0000
1000
0000
0010
0000
0001
,
0000
0010
0000
0110
0000
0000
0100
0000
,
0010
0100
0001
1000
,
0200
0300
0020
0030
,
0002
1000
0000
1003
,
0200
0010
0000
0310
,
0002
0100
0000
0103
,
0020
2030
3002
0013
,
0110
0000
0000
0001
0000
0000
0001
0000
,
0110
0000
0000
1000
0000
0000
1000
0000
,
0100
0000
0010
0000
0001
0000
0100
0020
,
0000
0000
0000
0000
,
0000
0000
0000
0030
;

//---------------dance-single - ----------------
#NOTES:
     dance-single:
     :
     Beginner:
     4:
     0.171358,0.223084,0.089153,0.024314,0.000000,148.000000,137.000000,11.000000,3.000000,0.000000,0.000000,0.171358,0.223084,0.089153,0.024314,0.000000,148.000000,137.000000,11.000000,3.000000,0.000000,0.000000:
0000
0000
0000
0000
,
0000
0000
0000
0000
,
0000
0000
0000
0000
,
0000
0000
0000
0000
,
0000
0000
0000
0000
,
0010
0000
0000
0000
,
0010
0000
0000
0000
,
0100
0000
0000
0000
,
0100
0000
0000
0000
,
0001
0000
0001
0000
,
1000
0000
1000
0000
,
0001
0000
0001
0000
,
1000
0000
1000
0000
,
0010
0000
0010
0000
,
0100
0000
0100
0000
,
0001
0000
1000
0000
,
0001
0000
0000
0000
,
1001
0000
0000
0000
,
1001
0000
0000
0000
,
0100
0000
0000
0000
,
0110
0000
0000
0000
,
0100
0000
0000
0000
,
1001
0000
0000
0000
,
0100
0000
0000
0000
,
0220
0000
0000
0000
,
0330
0000
0000
0000
,
1000
1000
0000
0000
,
0001
0001
0000
0000
,
1000
0000
0001
0000
,
0100
0100
0100
0000
,
0010
0000
1000
0000
,
0001
0000
1000
0000
,
0100
0000
0010
0000
,
0001
0000
1000
0000
,
0001
0001
0000
0000
,
1000
1000
0000
0000
,
0001
0000
1000
0000
,
0010
0010
0010
0000
,
0100
0000
0001
0000
,
1000
0000
0001
0000
,
0010
0000
0100
0000
,
1000
0000
0001
0000
,
1000
0000
0000
0000
,
1000
0000
0000
0000
,
0001
0000
0000
0000
,
0001
0000
0000
0000
,
1000
0000
0000
0000
,
1000
0000
0000
0000
,
0001
0000
0000
0000
,
0010
0000
0010
0000
,
0010
0000
0000
0000
,
0100
0000
0000
0110
,
0000
0000
0010
0000
,
0001
0000
0000
1001
,
0000
0000
1000
0000
,
0100
0000
0100
0000
,
0010
0000
0010
0000
,
0001
0000
0100
0000
,
0010
0000
1000
0000
,
0001
0000
1000
0000
,
1001
0000
0000
0000
,
1000
1000
0000
0000
,
0001
0001
0000
0000
,
0100
0000
0000
0000
,
0010
0000
0100
0000
,
0001
0000
1000
0000
,
0001
0000
0010
0000
,
0100
0000
1000
0000
,
0001
0000
0001
0000
,
1000
1000
0000
0000
,
0001
0001
0000
0000
,
1000
0000
0001
0000
,
0100
0100
0100
0000
,
0010
0000
1000
0000
,
0001
0000
1000
0000
,
0100
0000
1000
0000
,
0001
0000
1000
0000
,
0100
0000
0010
0000
,
0001
0000
1000
0000
,
1001
0000
0000
0000
,
0000
0000
0000
0000
,
0100
0000
0010
0000
,
1000
0000
0001
0000
,
1000
0000
0000
0000
,
1000
0000
0000
0000
,
0001
0000
0000
0000
,
0001
0000
0000
0000
,
1001
0000
0000
0000
,
0110
0000
0000
0000
,
0100
0000
0000
0000
,
0020
0000
0000
0000
,
0000
0000
0000
0030
;

//---------------dance-single - ----------------
#NOTES:
     dance-single:
     :
     Challenge:
     16:
     0.838266,1.078239,0.867211,0.470077,0.218829,724.000000,617.000000,107.000000,58.000000,0.000000,0.000000,0.838266,1.078239,0.867211,0.470077,0.218829,724.000000,617.000000,107.000000,58.000000,0.000000,0.000000:
0000
0000
0000
0000
,
0000
0000
0000
0000
,
0000
0000
0000
0000
,
0000
0000
0000
0000
,
0000
0000
0000
0000
,
0001
0010
2000
0000
3010
0001
0100
0010
,
1000
0100
0001
0100
2000
0000
3002
0000
,
1003
0010
0100
0010
1000
0100
0010
0100
,
1000
0000
0001
0000
0100
0000
0010
0000
1000
0001
1000
0001
0010
0100
0020
0000
,
0000
0130
1100
0000
1001
0000
0110
0001
,
1000
0010
1000
0100
0010
0001
1000
0120
,
0000
0130
0101
0000
1100
0000
1001
0010
,
0100
0001
1000
0100
0010
0001
1000
2010
,
0000
3001
0110
0000
1001
0000
0110
1000
,
0010
0100
0010
1000
0100
0010
0001
2000
,
0000
3010
0100
0002
0000
1003
0100
0010
,
0001
0000
0000
0000
0010
0000
0000
0000
0100
0010
0100
0010
0100
0000
0000
0000
,
2000
3200
0320
0230
0320
0032
1003
0010
,
0100
0001
0100
0001
1000
0000
1100
0000
0000
0000
0001
0100
0010
0000
1010
0000
,
0000
0000
1000
0001
0010
0000
1001
0000
0000
0000
0001
0000
0101
0000
0100
0000
,
0010
1000
0010
1000
0001
0000
0011
0000
0000
0000
1000
0010
0100
0000
0101
0000
,
0000
0000
0001
1000
0100
0000
1001
0000
0000
0000
1000
0000
1010
0000
0010
0000
,
0100
0001
0100
0001
1000
0000
1010
0000
0000
0000
0001
1000
0100
0000
1100
0000
,
0000
0000
1000
0001
0100
0000
0101
0000
0000
0000
0100
0010
1000
0000
2001
0000
,
0000
3001
0010
1000
0010
0100
0010
0001
,
1000
0010
0001
0021
0000
0130
0001
0010
,
0110
0000
1001
0000
1010
0100
0001
1100
,
0010
1001
0010
0100
0001
1000
0100
0010
,
0002
1000
1003
0010
0100
0001
0010
0100
,
1100
0000
0011
0000
1010
0000
0101
0002
,
0010
0003
1100
2000
3010
0100
0001
1000
,
0002
0000
0013
0100
1000
0100
0010
0001
,
2000
0000
3010
0100
0001
1000
0000
2001
,
0000
0000
3010
0001
0010
0000
1000
0000
0100
0010
0100
0000
1000
0000
0010
0000
,
0110
0000
1001
0000
0011
0100
1000
0101
,
0010
1001
0010
0100
1000
0001
0100
0010
,
2000
0001
3001
0010
0100
1000
0010
0100
,
0101
0000
1010
0000
0011
0000
1100
2000
,
3010
0100
0101
0002
0013
0100
1000
0021
,
0000
0130
0010
0001
0100
0010
1000
0001
,
0011
0010
0100
1000
1010
0010
0100
0001
,
2000
0100
3100
1000
0002
0010
0013
0001
,
1000
0100
0010
1000
0010
0100
1000
0010
,
0100
1000
0100
0010
2000
0000
0010
0000
,
3001
0010
0100
0001
0100
0010
0001
0100
,
0010
0001
0020
0000
2030
0000
3002
0000
,
1003
0100
0010
1000
0010
0100
1000
0010
,
0100
1000
0100
0010
2000
0000
0010
0000
,
3001
0010
0100
0001
0100
0010
0001
2100
,
0000
3001
0201
0000
0310
1000
0002
0000
,
0013
0000
0100
1000
0100
0000
1000
0010
1000
0000
0001
0000
0010
0000
0100
0000
,
1100
0010
0010
0101
0010
0010
1001
0110
,
0000
0000
0100
0000
0000
0100
0000
0000
0010
1000
0001
0100
0010
0000
1000
0000
,
1010
0100
0100
0011
0100
0100
1001
0110
,
0000
0000
0010
0000
0000
0010
0000
0000
0100
1000
0001
0010
0100
0000
1000
0000
,
0001
0000
0010
0100
0000
0010
0100
1000
0001
0000
0100
0010
0000
0100
0010
1000
,
0001
0010
0100
1000
0001
0010
0100
0010
0001
0100
0010
1000
0100
0010
0001
1000
,
0001
0000
0000
0011
0000
0000
0110
0000
0101
0000
0000
1100
0000
0000
1001
0000
,
0011
0000
0000
1100
0000
0000
1010
0000
0110
0000
0000
0101
0000
0000
1100
0000
,
0001
0000
0100
1000
0100
0000
0001
0000
0010
1000
0010
0000
0001
0100
0010
0000
,
1001
1001
2002
0000
0000
0000
3003
0000
,
0110
0000
0101
0000
0000
0001
0010
0110
,
0000
0000
1100
0000
0000
0000
1000
0001
1000
0000
0001
0000
2000
0000
0000
0000
,
3001
0000
0001
0000
0100
0000
0100
0010
,
2000
0000
3001
0010
0100
0010
0001
0100
,
0020
0000
1030
0100
0010
0100
1000
0020
,
0100
0000
1030
0000
0001
0010
0100
0000
,
1000
0100
1000
0000
0001
0000
1000
0010
1000
0000
0001
0000
0010
0100
0010
0000
,
0001
0000
0100
0010
0100
0000
0001
0000
0010
0000
0100
0000
1000
0000
0010
0000
,
0110
0000
1001
0000
0011
0100
1000
0101
,
0010
1001
0010
0100
1000
0001
0100
0010
,
2000
0001
3001
0010
0100
1000
0010
0100
,
0101
0000
1010
0000
0011
0000
1100
2000
,
3010
0100
0101
0002
0013
0100
1000
0021
,
0000
0130
0010
0001
0100
0010
1000
0001
,
0010
0100
1100
2000
3010
0100
0001
1020
,
0000
0130
0010
1000
0100
0010
0002
0000
,
1003
0000
0110
0001
1000
0001
0010
1000
,
0010
0011
1000
1010
,
0110
1001
0000
1100
0000
0011
0000
0101
,
0000
1010
0000
0210
0000
0310
1000
0001
,
0011
0010
0100
1000
1010
0010
0100
0001
,
2000
0100
3100
1000
0002
0010
0013
0001
,
1000
0100
0010
1000
0010
0100
1000
0010
,
0100
1000
0100
0010
2000
0000
0010
0000
,
3001
0010
0100
0001
0100
0010
0001
0100
,
0010
0001
0010
0100
0002
0000
2003
3000
,
1010
0100
0001
0101
0001
0010
0100
1000
,
1100
1000
0010
1010
0100
0001
1000
0100
,
0020
0000
0000
0000
0000
0030
0110
2002
,
0000
0000
0000
0000
,
0000
0000
0000
3003
;

//---------------dance-double - ----------------
#NOTES:
     dance-double:
     :
     Challenge:
     16:
     0.824372,0.966697,0.867211,0.461972,0.190462,712.000000,605.000000,107.000000,57.000000,0.000000,0.000000,0.824372,0.966697,0.867211,0.461972,0.190462,712.000000,605.000000,107.000000,57.000000,0.000000,0.000000:
// measure 0
00000000
00000000
00000000
00000000
,  // measure 1
00000000
00000000
00000000
00000000
,  // measure 2
00000000
00000000
00000000
00000000
,  // measure 3
00000000
00000000
00000000
00000000
,  // measure 4
00000000
00000000
00000000
00000000
,  // measure 5
00001000
00010000
00200000
00000000
00310000
00001000
00000010
00000001
,  // measure 6
00000100
00001000
00010000
00100000
20000000
00000000
30020000
00000000
,  // measure 7
00130000
01000000
10000000
01000000
00100000
00001000
00010000
00001000
,  // measure 8
00010000
00000000
00000010
00000000
00001000
00000000
00000001
00000000
00000010
00000100
00000010
00000001
00001000
00000001
00002000
00000000
,  // measure 9
00000000
00003010
00010010
00000000
00101000
00000000
00011000
00001000
,  // measure 10
01000000
00010000
10000000
01000000
00100000
00010000
10000000
10200000
,  // measure 11
00000000
01300000
01010000
00000000
00011000
00000000
00110000
00001000
,  // measure 12
00010000
00000010
00001000
00000100
00000010
00000001
00001000
00002010
,  // measure 13
00000000
00003001
00000101
00000000
00000110
00000000
00001001
00000100
,  // measure 14
00000010
00000001
00000010
00000100
00010000
00001000
00010000
00000020
,  // measure 15
00000000
00010030
00001000
00200000
00000000
00301000
00010000
00000100
,  // measure 16
00001000
00000000
00000000
00000000
00000001
00000000
00000000
00000000
00000010
00000100
00000010
00000100
00000010
00000000
00000000
00000000
,  // measure 17
00000002
00000203
00000320
00002030
00023000
02030000
03200000
10300000
,  // measure 18
00010000
10000000
00010000
00000000
00100000
00000000
11000000
00000000
00000000
00000000
00010000
01000000
00010000
00000000
01100000
00000000
,  // measure 19
00000000
00000000
00010000
00001000
00010000
00000000
00011000
00000000
00000000
00000000
00000100
00000000
00001100
00000000
00001000
00000000
,  // measure 20
00000001
00001000
00000001
00000000
00000100
00000000
00001010
00000000
00000000
00000000
00000001
00000010
00000001
00000000
00000110
00000000
,  // measure 21
00000000
00000000
00001000
00010000
00001000
00000000
00011000
00000000
00000000
00000000
00100000
00000000
00110000
00000000
00010000
00000000
,  // measure 22
10000000
00100000
01000000
00000000
00010000
00000000
01010000
00000000
00000000
00000000
00001000
00010000
00000100
00000000
00010100
00000000
,  // measure 23
00000000
00000000
00001000
00000010
00000100
00000000
00000110
00000000
00000000
00000000
00000001
00001000
00000010
00000000
00002001
00000000
,  // measure 24
00000000
00003001
00000010
00000100
00010000
00001000
00010000
00100000
,  // measure 25
10000000
01000000
00010000
00002000
00000000
01003000
00100000
10000000
,  // measure 26
11000000
00000000
00110000
00000000
00011000
00010000
00000010
00001010
,  // measure 27
00000100
00000101
00000001
00001000
00000100
00000010
00000001
00000100
,  // measure 28
00000020
00010000
00010030
00001000
00100000
00010000
10000000
00100000
,  // measure 29
01100000
00000000
01010000
00000000
00011000
00000000
00001100
00000020
,  // measure 30
00000001
00000030
00000101
00000020
00010030
00001000
00100000
01000000
,  // measure 31
20000000
00000000
30010000
01000000
00100000
10000000
00010000
10000000
,  // measure 32
02000000
00000000
03100000
00001000
00010000
00000010
00000000
00001002
,  // measure 33
00000000
00000000
00000013
00000100
00000010
00000000
00000001
00000000
00000100
00000010
00000100
00000000
00000001
00000000
00000010
00000000
,  // measure 34
00000011
00000000
00001100
00000000
00011000
00001000
01000000
01010000
,  // measure 35
00100000
10100000
10000000
00010000
00100000
01000000
10000000
00100000
,  // measure 36
02000000
00001000
03001000
00010000
00000100
00001000
00000001
00000100
,  // measure 37
00000110
00000000
00001010
00000000
00011000
00000000
00110000
02000000
,  // measure 38
10000000
03000000
10100000
02000000
03001000
00010000
00001000
00102000
,  // measure 39
00000000
00013000
00000010
00001000
00000001
00000010
00000100
00000000
,  // measure 40
00001100
00010000
00001000
01000000
01010000
00001000
00010000
00000100
,  // measure 41
00002000
00000010
00003010
00010000
00002000
00100000
00103000
00010000
,  // measure 42
10000000
01000000
00010000
10000000
00100000
00010000
00001000
00000100
,  // measure 43
00000001
00001000
00000010
00000001
00002000
00000000
00000100
00000000
,  // measure 44
00003001
00000100
00001000
00000001
00000010
00001000
00010000
01000000
,  // measure 45
10000000
00010000
00200000
00000000
20300000
00000000
30020000
00000000
,  // measure 46
10030000
01000000
00010000
10000000
00100000
00010000
00001000
00000100
,  // measure 47
00000001
00001000
00000010
00000001
00002000
00000000
00000100
00000000
,  // measure 48
00003001
00000100
00001000
00000001
00000010
00001000
00010000
02010000
,  // measure 49
00000000
03100000
20100000
00000000
30010000
00100000
02000000
00000000
,  // measure 50
13000000
00000000
00010000
00100000
00010000
00000000
10000000
01000000
10000000
00000000
00100000
00000000
00010000
00000000
00001000
00000000
,  // measure 51
00011000
00100000
00010000
00011000
00000010
00001000
00001001
00000110
,  // measure 52
00000000
00000000
00001000
00000000
00000000
00001000
00000000
00000000
00000001
00000100
00000001
00000100
00001000
00000000
00010000
00000000
,  // measure 53
00011000
00000100
00001000
00011000
01000000
00010000
10010000
01100000
,  // measure 54
00000000
00000000
00010000
00000000
00000000
00010000
00000000
00000000
10000000
00100000
10000000
00100000
00010000
00000000
00001000
00000000
,  // measure 55
00010000
00000000
00000100
00001000
00000000
00000100
00001000
00000001
00000100
00000000
00000010
00001000
00000000
00000010
00001000
00000001
,  // measure 56
00000010
00000100
00000010
00000000
00000001
00000100
00000001
00000000
00000100
00001000
00000100
00000000
00001000
00010000
00001000
00000000
,  // measure 57
00011000
00000000
00000000
00110000
00000000
00000000
10100000
00000000
11000000
00000000
00000000
01010000
00000000
00000000
00011000
00000000
,  // measure 58
00001100
00000000
00000000
00000101
00000000
00000000
00000011
00000000
00001010
00000000
00000000
00011000
00000000
00000000
00110000
00000000
,  // measure 59
10000000
00000000
00100000
01000000
00100000
00000000
10000000
00000000
01000000
00100000
01000000
00000000
00010000
00001000
00010000
00000000
,  // measure 60
00011000
00011000
00022000
00000000
00000000
00000000
00033000
00000000
,  // measure 61
00101000
00000000
00110000
00000000
00000000
00001000
00010000
00010010
,  // measure 62
00000000
00000000
00001010
00000000
00000000
00000000
00000001
00001000
00000001
00000000
00001000
00000000
00000002
00000000
00000000
00000000
,  // measure 63
00001003
00000000
00001000
00000000
00000100
00000000
00000100
00000010
,  // measure 64
00000002
00000000
00000103
00001000
00010000
00100000
10000000
01000000
,  // measure 65
00200000
00000000
01300000
10000000
00100000
01000000
00001000
00020000
,  // measure 66
00001000
00030000
00010000
00000000
00000010
00001000
00000100
00000000
,  // measure 67
00000010
00000100
00000010
00000000
00000001
00000000
00000100
00000010
00000100
00000000
00001000
00000000
00010000
00001000
00010000
00000000
,  // measure 68
00001000
00000000
00100000
01000000
00100000
00000000
00010000
00000000
01000000
00000000
00100000
00000000
10000000
00000000
01000000
00000000
,  // measure 69
11000000
00000000
00110000
00000000
00011000
00010000
00000010
00001010
,  // measure 70
00000100
00000101
00000001
00001000
00000100
00000010
00000001
00000100
,  // measure 71
00000020
00010000
00010030
00001000
00100000
00010000
10000000
00100000
,  // measure 72
01100000
00000000
01010000
00000000
00011000
00000000
00001100
00000020
,  // measure 73
00000001
00000030
00000101
00000020
00010030
00001000
00010000
00020100
,  // measure 74
00000000
00031000
01000000
00010000
10000000
01000000
00100000
00000000
,  // measure 75
00010000
00000000
10100000
02000000
03001000
00010000
00001000
00102000
,  // measure 76
00000000
00013000
00000010
00001000
00000001
00000010
00000100
00000000
,  // measure 77
00001000
00000000
00001001
00000001
00000100
00000010
00001000
00000001
,  // measure 78
00000010
00001100
00010000
00011000
,  // measure 79
00101000
00110000
00000000
10100000
00000000
11000000
00000000
01010000
,  // measure 80
00000000
00110000
00000000
01200000
00000000
01300000
10000000
00010000
,  // measure 81
00110000
00001000
00010000
00000010
00001010
00010000
00001000
00100000
,  // measure 82
00020000
01000000
01030000
00001000
00020000
00000100
00030100
00001000
,  // measure 83
00000001
00000010
00001000
00000001
00000100
00001000
00010000
00100000
,  // measure 84
10000000
00010000
01000000
10000000
00020000
00000000
00100000
00000000
,  // measure 85
10030000
00100000
00010000
10000000
01000000
00010000
00001000
00000010
,  // measure 86
00000001
00001000
00000100
00000001
00002000
00000000
00003010
00000000
,  // measure 87
00000110
00000001
00001000
00001001
00000010
00010000
00001000
00100000
,  // measure 88
01100000
10000000
00010000
10010000
01000000
00001000
00010000
00000100
,  // measure 89
00000020
00000000
00000000
00000000
00000000
00000030
00000110
00002002
,  // measure 90
00000000
00000000
00000000
00000000
,  // measure 91
00000000
00000000
00000000
00003003
;
