#TITLE:恋愛サーキュレーション;
#SUBTITLE:;
#ARTIST:千石撫子 (CV: 花澤香菜);
#TITLETRANSLIT:Renai Circulation;
#SUBTITLETRANSLIT:;
#ARTISTTRANSLIT:Sengoku Nadeko (CV: Hanazawa Kana);
#GENRE:Anime/Game;
#CREDIT:;
#BANNER:Renai Circulation.png;
#BACKGROUND:Renai Circulation-bg.png;
#LYRICSPATH:;
#CDTITLE:../cdtitle.png;
#MUSIC:Renai Circulation.ogg;
#OFFSET:-0.003000;
#SAMPLESTART:41.998001;
#SAMPLELENGTH:15.000000;
#SELECTABLE:YES;
#BPMS:0.000000=120.000000
;
#STOPS:
;
#BGCHANGES:0.667=Renai Circulation.avi=1.000=0=0=0=StretchNoLoop==CrossFade_Fastest==,
99999=-nosongbg-=1.000=0=0=0 // don't automatically add -songbackground-
;
#KEYSOUNDS:;
#ATTACKS:;

//---------------dance-double - ----------------
#NOTES:
     dance-double:
     :
     Challenge:
     6:
     0.199372,0.268956,0.010989,0.109890,0.000000,127.000000,126.000000,1.000000,10.000000,280.000000,0.000000,0.199372,0.268956,0.010989,0.109890,0.000000,127.000000,126.000000,1.000000,10.000000,280.000000,0.000000:
// measure 0
00000000
00000000
00000000
00000000
,  // measure 1
00000000
00000000
00000000
00000000
,  // measure 2
00000000
00000000
00000000
00000000
,  // measure 3
00000000
00000000
00000000
00000000
,  // measure 4
00000000
00000000
00000000
00000000
,  // measure 5
00001000
00000100
00000100
00000100
,  // measure 6
00001000
00010000
01000000
01000000
,  // measure 7
00010000
00000000
00000100
00000100
00001000
00000000
01000000
00010000
,  // measure 8
00001000
00010000
00002000
00003000
,  // measure 9
00001000
00000100
00000100
00000100
,  // measure 10
00001000
00010000
01000000
01000000
,  // measure 11
00010000
00000000
00000100
00000100
00001000
00000000
01000000
00010000
,  // measure 12
00001000
00010000
00002000
00013000
,  // measure 13
00001000
00010000
00002000
00010000
,  // measure 14
00003010
00000001
00001000
MMMMMMMM
,  // measure 15
MMMMMMMM
00000001
MMMMMMMM
00001000
,  // measure 16
00000020
00000000
00000000
00000030
,  // measure 17
00000100
MMMMMMMM
00001000
MMMMMMMM
,  // measure 18
MMMMMMMM
MMMMMMMM
MMMMMMMM
MMMMMMMM
,  // measure 19
00001000
00000001
00000100
00001000
,  // measure 20
00010000
00200000
00000000
01300000
,  // measure 21
00100000
MMMMMMMM
00100000
MMMMMMMM
,  // measure 22
00010000
00001000
00000010
00000010
,  // measure 23
00001000
MMMMMMMM
00001000
MMMMMMMM
,  // measure 24
00001000
00010000
01000000
MMMMMMMM
,  // measure 25
00100000
MMMMMMMM
00100000
MMMMMMMM
,  // measure 26
00010000
00001000
00000010
00000010
,  // measure 27
00001000
MMMMMMMM
00001000
MMMMMMMM
,  // measure 28
00001000
00010000
01000000
MMMMMMMM
,  // measure 29
00100000
MMMMMMMM
00100000
MMMMMMMM
,  // measure 30
00200000
00000000
00000000
00300000
,  // measure 31
00100000
10000000
00001000
00010000
,  // measure 32
02000000
03000000
02000000
03000000
,  // measure 33
00001000
00010000
01000000
00010000
,  // measure 34
00000100
00001000
00010000
00001000
,  // measure 35
00000001
00001000
00000001
00001000
,  // measure 36
00000002
00001003
00001000
00000000
,  // measure 37
00010000
00000000
MMMMMMMM
00001000
00000001
00000000
MMMMMMMM
00001000
,  // measure 38
00010000
00000000
MMMMMMMM
00001000
00000001
00000000
MMMMMMMM
00001000
,  // measure 39
00010000
00000000
MMMMMMMM
00001000
00000001
00000000
MMMMMMMM
00000000
,  // measure 40
00020000
00000000
00031000
MMMMMMMM
,  // measure 41
10000000
00000000
MMMMMMMM
00010000
00001000
00000000
MMMMMMMM
00010000
,  // measure 42
10000000
00000000
MMMMMMMM
00010000
00001000
00000000
MMMMMMMM
00010000
,  // measure 43
10000000
00000000
MMMMMMMM
00010000
00001000
00000000
MMMMMMMM
00000000
,  // measure 44
00011000
MMMMMMMM
00010000
00000000
;

//---------------dance-single - ----------------
#NOTES:
     dance-single:
     :
     Hard:
     11:
     0.497645,0.464560,0.164835,0.164835,0.065934,317.000000,302.000000,15.000000,15.000000,0.000000,0.000000,0.497645,0.464560,0.164835,0.164835,0.065934,317.000000,302.000000,15.000000,15.000000,0.000000,0.000000:
0000
0000
0000
0000
,
0000
0000
0000
0000
,
0000
0000
0000
0000
,
0000
0000
0000
0000
,
0000
0000
0000
0000
,
0001
0100
1000
0100
0001
0010
1000
0010
,
0001
0100
1000
0100
0001
0010
0110
0000
,
1000
0010
0001
0010
1000
0100
0001
0100
,
1000
0010
0100
0001
0020
0100
0130
0000
,
1000
0010
0001
0010
1000
0100
0001
0100
,
1000
0010
0001
0010
1000
0100
0110
0000
,
0001
0100
1000
0100
0001
0010
1000
0010
,
0001
0100
0010
1000
0100
0010
0110
0000
,
1000
0010
0001
1000
0010
0001
0010
1000
,
0001
0010
1000
0010
0001
0100
0110
0000
,
1000
0100
1100
0000
0001
0100
0101
0000
,
1000
0100
0001
1000
0001
0100
1000
0010
,
0001
0010
1000
0001
0010
1000
0010
0001
,
1000
0010
0001
0010
1000
0100
0110
0000
,
0001
0100
0101
0001
1000
0100
1100
1000
,
0001
0100
1000
0001
1000
0100
0001
0000
,
1000
0100
0001
0100
1000
0000
0001
0100
,
1000
0100
0001
0000
1000
0100
0001
0100
,
1000
0010
0001
0100
1000
0100
0001
0010
,
1000
0010
0001
0100
1000
0001
1001
0000
,
0001
0100
1000
0100
0001
0000
1000
0100
,
0001
0100
1000
0000
0001
0100
1000
0100
,
0001
0010
1000
0100
0001
0100
1000
0010
,
0001
0010
1000
0100
0001
1000
1001
0000
,
2000
0001
3002
0010
0023
0100
0130
1000
,
0001
0100
0010
1000
0200
0010
0310
0001
,
2000
0010
3020
0001
0032
1000
1003
0100
,
0001
1000
0100
0010
0001
1000
1001
0000
,
0002
1000
2003
0010
3020
0100
0130
0001
,
1000
0100
0010
0001
0200
0010
0310
1000
,
0002
0010
0023
1000
2030
0001
3001
0100
,
1000
0001
0100
0010
1000
0001
1001
0000
,
1000
0000
0010
0000
0001
0000
0100
0000
1000
0000
0001
1000
0000
0000
0001
0000
,
1000
0000
0100
0000
0001
0000
0010
0000
1000
0000
0001
1000
0000
0000
0001
0000
,
0100
0000
1000
0000
0100
0000
0010
0000
1000
0000
0100
0010
0000
0010
0001
0000
,
0100
0000
0010
1000
0000
1000
0100
0000
0010
0000
0001
0000
1001
0000
0000
0000
,
1000
0000
0010
0000
0001
0000
0100
0000
1000
0000
0001
1000
0000
0000
0001
0000
,
1000
0000
0100
0000
0001
0000
0010
0000
1000
0000
0001
1000
0000
0000
0001
0000
,
0100
0000
1000
0000
0100
0000
0010
0000
1000
0000
0100
0010
0000
0010
0001
0000
,
1001
0000
0000
0100
0000
0010
0100
0000
0010
0000
0000
0000
0000
0000
0000
0000
;

//---------------dance-single - ----------------
#NOTES:
     dance-single:
     :
     Challenge:
     6:
     0.194662,0.268956,0.010989,0.120879,0.000000,124.000000,123.000000,1.000000,11.000000,144.000000,0.000000,0.194662,0.268956,0.010989,0.120879,0.000000,124.000000,123.000000,1.000000,11.000000,144.000000,0.000000:
0000
0000
0000
0000
,
0000
0000
0000
0000
,
0000
0000
0000
0000
,
0000
0000
0000
0000
,
0000
0000
0000
0000
,
0010
0001
0001
0001
,
0001
0100
1000
1000
,
1000
0000
0001
0010
0010
0000
1000
1000
,
0001
1000
0002
0003
,
0010
0001
0001
0001
,
0001
0100
1000
1000
,
1000
0000
0001
0010
0010
0000
1000
1000
,
0001
1000
0200
0310
,
0001
1000
0001
1000
,
0010
0010
0100
MMMM
,
MMMM
0001
MMMM
1000
,
0020
0000
0000
0030
,
0100
MMMM
1000
MMMM
,
MMMM
MMMM
MMMM
MMMM
,
1000
0001
0100
MMMM
,
0100
0020
0000
0130
,
0010
MMMM
0010
MMMM
,
0010
0001
0001
0001
,
1000
MMMM
0001
MMMM
,
0020
0000
0130
MMMM
,
0010
MMMM
0010
MMMM
,
0010
0001
0001
0001
,
1000
MMMM
0001
MMMM
,
0020
0000
0130
MMMM
,
0010
MMMM
0010
MMMM
,
0020
0000
0000
0030
,
0010
1000
0001
0001
,
0200
0300
0200
0300
,
0001
0100
1000
0100
,
0001
0100
1000
0100
,
0001
1000
0001
1000
,
0002
1003
1000
0000
,
1000
0000
MMMM
0010
0001
0000
MMMM
0010
,
1000
0000
MMMM
0010
0001
0000
MMMM
0010
,
1000
0000
MMMM
0010
0001
0000
MMMM
0000
,
2000
0000
3001
MMMM
,
1000
0000
MMMM
0010
0001
0000
MMMM
0010
,
1000
0000
MMMM
0010
0001
0000
MMMM
0010
,
1000
0000
MMMM
0010
0001
0000
MMMM
0000
,
1001
MMMM
0010
0000
;

//---------------dance-single - ----------------
#NOTES:
     dance-single:
     :
     Easy:
     4:
     0.211931,0.220055,0.010989,0.219780,0.000000,135.000000,134.000000,1.000000,20.000000,0.000000,0.000000,0.211931,0.220055,0.010989,0.219780,0.000000,135.000000,134.000000,1.000000,20.000000,0.000000,0.000000:
0000
0000
0000
0000
,
0000
0000
0000
0000
,
0000
0000
0000
0000
,
0000
0000
0000
0000
,
0000
0000
0000
0000
,
0001
0100
1000
0100
,
0001
0100
1000
0000
,
0001
0010
1000
0010
,
0001
0010
1000
0000
,
1000
0100
0001
0100
,
1000
0100
0001
0000
,
1000
0010
0001
0010
,
1000
0010
0001
0000
,
1000
0000
0001
0000
,
1000
0100
0001
0000
,
1000
0000
0001
0000
,
1000
0010
0001
0000
,
0001
0100
1000
0000
,
0001
0010
1000
0000
,
1000
0100
0001
0000
,
1000
0010
0001
0000
,
1000
0100
0001
1000
,
0010
0001
1000
0100
,
0001
0100
1000
0010
,
0001
0010
1000
0000
,
0001
0100
1000
0001
,
0010
1000
0001
0100
,
1000
0100
0001
0010
,
1000
0010
0001
0000
,
2000
3100
0002
0013
,
2000
3020
0230
0300
,
0002
0103
2000
3010
,
0002
2003
3002
0003
,
2000
3010
0002
0103
,
2000
3200
0320
0030
,
0002
0013
2000
3100
,
0002
2003
3002
0003
,
1000
0100
0001
0000
,
1000
0010
0001
0000
,
1000
0100
0001
0100
,
1000
0001
1000
0000
,
0001
0100
1000
0000
,
0001
0010
1000
0000
,
0001
0100
1000
0100
,
1001
0100
0010
0000
;

//---------------dance-single - ----------------
#NOTES:
     dance-single:
     :
     Beginner:
     1:
     0.061224,0.096703,0.010989,0.043956,0.000000,39.000000,38.000000,1.000000,4.000000,0.000000,0.000000,0.061224,0.096703,0.010989,0.043956,0.000000,39.000000,38.000000,1.000000,4.000000,0.000000,0.000000:
0000
0000
0000
0000
,
0000
0000
0000
0000
,
0000
0000
0000
0000
,
0000
0000
0000
0000
,
0000
0000
0000
0000
,
1000
0000
0000
0000
,
1000
0000
0000
0000
,
0001
0000
0000
0000
,
0001
0000
0000
0000
,
1000
0000
0000
0000
,
1000
0000
0000
0000
,
0001
0000
0000
0000
,
0001
0000
0000
0000
,
0100
0000
0000
0000
,
0010
0000
0000
0000
,
1000
0000
0000
0000
,
0001
0000
0000
0000
,
0010
0000
0000
0000
,
0100
0000
0000
0000
,
1000
0000
0000
0000
,
0001
0000
0000
0000
,
1000
0000
0000
0001
,
0000
0000
1000
0000
,
0100
0000
0000
0000
,
0010
0000
0000
0000
,
0001
0000
0000
1000
,
0000
0000
0001
0000
,
0100
0000
0000
0000
,
0010
0000
0000
0000
,
2000
0000
0000
0000
,
3000
0000
0000
0000
,
0002
0000
0000
0000
,
0003
0000
0000
0000
,
0020
0000
0000
0000
,
0030
0000
0000
0000
,
0200
0000
0000
0000
,
0300
0000
0000
0000
,
1000
0000
0000
0000
,
1000
0000
0000
0000
,
0001
0000
0000
0000
,
0001
0000
0000
0000
,
1000
0000
0000
0000
,
1000
0000
0000
0000
,
0001
0000
0000
0000
,
1001
0000
0000
0000
;

//---------------dance-single - ----------------
#NOTES:
     dance-single:
     :
     Medium:
     7:
     0.321821,0.317857,0.021978,0.241758,0.000000,205.000000,203.000000,2.000000,22.000000,0.000000,0.000000,0.321821,0.317857,0.021978,0.241758,0.000000,205.000000,203.000000,2.000000,22.000000,0.000000,0.000000:
0000
0000
0000
0000
,
0000
0000
0000
0000
,
0000
0000
0000
0000
,
0000
0000
0000
0000
,
0000
0000
0000
0000
,
1000
0100
1000
0000
0100
0001
0100
0000
,
0001
0010
0001
0000
0010
1000
0010
0000
,
1000
0100
1000
0000
0001
0100
0001
0000
,
0010
0000
0100
0000
2000
0001
3001
0000
,
0100
0001
0100
0000
1000
0100
1000
0000
,
0010
1000
0010
0000
0001
0010
0001
0000
,
0100
0001
0100
0000
0010
1000
0010
0000
,
0100
0010
2000
3001
,
1000
0000
0100
0000
0010
0001
0010
0000
,
0001
0000
0100
0000
0010
1000
0010
0000
,
1000
0100
1000
0000
0001
0010
0001
0000
,
1000
0000
0010
0000
0100
0010
1000
0000
,
0001
0000
0010
0000
0100
1000
0100
0000
,
1000
0000
0010
0000
0100
0001
0100
0000
,
0001
0010
0001
0000
1000
0100
1000
0000
,
0001
0000
0100
0000
0010
0100
0001
0000
,
1000
0100
0001
0000
0100
0000
1000
0010
,
0001
0010
1000
0001
,
1000
0100
1000
0000
0001
0010
0001
0000
,
1000
0010
1000
0000
0001
0000
0000
0000
,
0001
0100
1000
0000
0100
0000
0001
0010
,
1000
0010
0001
1000
,
0001
0100
0001
0000
1000
0010
1000
0000
,
0001
0010
0001
0000
1000
0000
0000
0000
,
0002
0203
2300
3020
,
0031
1000
0001
1000
0020
0000
0130
0000
,
2000
3200
0302
2003
,
3100
0010
0100
0010
0002
0000
1003
0000
,
2000
3020
0032
0203
,
1300
0001
1000
0001
0200
0000
0310
0000
,
0002
0023
2030
3002
,
0013
0100
0010
0100
2000
0000
3001
0000
,
1000
0000
0001
0000
1000
0100
0001
0000
,
0001
0000
1000
0000
0001
0100
1000
0000
,
0001
0001
1000
1000
,
0010
0100
0001
1001
,
0001
0000
1000
0000
0001
0100
1000
0000
,
1000
0000
0001
0000
1000
0100
0001
0000
,
1000
1000
0001
0001
,
0110
0000
1000
0010
0001
0000
0000
0000
;

//---------------dance-double - ----------------
#NOTES:
     dance-double:
     :
     Easy:
     4:
     0.205651,0.220055,0.010989,0.164835,0.000000,131.000000,130.000000,1.000000,15.000000,0.000000,0.000000,0.205651,0.220055,0.010989,0.164835,0.000000,131.000000,130.000000,1.000000,15.000000,0.000000,0.000000:
00000000
00000000
00000000
00000000
,
00000000
00000000
00000000
00000000
,
00000000
00000000
00000000
00000000
,
00000000
00000000
00000000
00000000
,
00000000
00000000
00000000
00000000
,
10000000
01000000
00010000
01000000
,
10000000
01000000
00010000
00000000
,
00001000
00000100
00000001
00000100
,
00001000
00000100
00000001
00000000
,
00000001
00000010
00001000
00000010
,
00000001
00000010
00001000
00000000
,
00010000
00100000
10000000
00100000
,
00010000
00100000
10000000
00000000
,
10000000
00000000
01000000
00000000
,
00010000
00001000
00000010
00000000
,
00000001
00000000
00000100
00000000
,
00001000
00010000
00100000
00000000
,
10000000
01000000
00010000
00000000
,
00001000
00000100
00000001
00000000
,
00001000
00000010
00010000
00000000
,
00001000
00100000
00010000
00000000
,
10000000
01000000
00010000
10000000
,
00100000
00010000
00001000
00000100
,
00000001
00000100
00001000
00000010
,
00000001
00000010
00001000
00000000
,
00000001
00000100
00001000
00000001
,
00000010
00001000
00010000
01000000
,
10000000
01000000
00010000
00100000
,
10000000
00100000
00010000
00000000
,
20000000
30100000
00200000
00310000
,
00020000
00031000
00002000
00003000
,
00020000
00031000
00002000
00003010
,
00000020
00000031
00000002
00000003
,
00000002
00000103
00000200
00001300
,
00002000
00013000
00020000
00030000
,
00002000
00013000
00020000
01030000
,
02000000
00000000
00000000
03000000
,
10000000
00010000
00001000
00000000
,
00010000
00001000
00000001
00000000
,
00000001
00000100
00001000
00000000
,
00010000
00001000
00010000
00000000
,
00000001
00001000
00010000
00000000
,
00001000
00010000
10000000
00000000
,
10000000
01000000
00010000
00000000
,
00011000
00010000
00001000
00000000
;

//---------------dance-double - ----------------
#NOTES:
     dance-double:
     :
     Hard:
     11:
     0.481947,0.464560,0.230769,0.340659,0.065934,307.000000,286.000000,21.000000,31.000000,0.000000,0.000000,0.481947,0.464560,0.230769,0.340659,0.065934,307.000000,286.000000,21.000000,31.000000,0.000000,0.000000:
00000000
00000000
00000000
00000000
,
00000000
00000000
00000000
00000000
,
00000000
00000000
00000000
00000000
,
00000000
00000000
00000000
00000000
,
00000000
00000000
00000000
00000000
,
00001000
00010000
01000000
00100000
00001000
00010000
00100000
01000000
,
00001000
00010000
01000000
00100000
00001000
00010000
00100000
00000000
,
00010000
00001000
00000100
00000010
00010000
00001000
00000010
00000100
,
00010000
00001000
00000100
00000010
00020000
00001000
00031000
00000000
,
00010000
00001000
00000010
00000100
00010000
00001000
00000100
00000010
,
00010000
00001000
00000010
00000100
00010000
00001000
00000100
00000000
,
00001000
00010000
00100000
01000000
00001000
00010000
01000000
00100000
,
00001000
00010000
00100000
01000000
00001000
00010000
00011000
00000000
,
00010000
00001000
00000010
00000100
00001000
00000001
00001000
00000010
,
00000100
00000001
00000010
00001000
00010000
00001000
00000100
00000010
,
00010000
00001000
00100000
00000000
00001000
00010000
00000010
00000000
,
00001000
00000001
00000010
00000100
00010000
00000010
00000100
00000000
,
00001000
00010000
01000000
00100000
00010000
10000000
00010000
01000000
,
00100000
10000000
01000000
00010000
00001000
00010000
00100000
00000000
,
01000000
00001000
00010000
00000100
00010000
00001000
01000000
00010000
,
10000000
01000000
00100000
00001000
01000000
00100000
00010000
00000000
,
00010000
00001000
00000010
00001000
00010000
00000000
00001000
00010000
,
00100000
00010000
00001000
00000000
00010000
00001000
00000010
00001000
,
00010000
00100000
10000000
01000000
00010000
00001000
00000100
00000001
,
00000010
00001000
00010000
00100000
00010000
00001000
00011000
00000000
,
00001000
00010000
01000000
00010000
00001000
00000000
00010000
00001000
,
00000100
00001000
00010000
00000000
00001000
00010000
01000000
00010000
,
00001000
00000100
00000001
00000010
00001000
00010000
00100000
10000000
,
01000000
00010000
00001000
00000100
00001000
00010000
00011000
00000000
,
00220000
00330000
22000000
33000000
20020000
30030000
02002000
03003000
,
01000000
00100000
00010000
00001000
00000020
00000000
00000031
00001000
,
00002020
00003030
00000202
00000303
00002200
00003300
00001000
00000001
,
00000100
00000010
00010000
00001000
00000010
00000001
00001001
00000000
,
00002020
00003030
00000202
00000303
00002002
00003003
00020200
00030300
,
00000100
00000010
00001000
00010000
00200000
00000000
10300000
00010000
,
00220000
00330000
22000000
33000000
02020000
03030000
00010000
10000000
,
01000000
00100000
00001000
00010000
00100000
10000000
10010000
00000000
,
10000000
00000000
01000000
00000000
00010000
00000000
00001000
00000000
00000100
00000000
00000001
00001000
00000000
00000000
00000001
00000000
,
00000010
00000000
00001000
00000000
00010000
00000000
00100000
00000000
10000000
00000000
01000000
00100000
00000000
00000000
00010000
00000000
,
10000000
00000000
00100000
00000000
00010000
00000000
00001000
00000000
00000100
00000000
00000010
00001000
00000000
00001000
00000001
00000000
,
00000010
00000000
00000100
00010000
00000000
00010000
00001000
00000000
00000100
00000000
00000010
00000000
00000110
00000000
00000000
00000000
,
00000001
00000000
00000100
00000000
00001000
00000000
00010000
00000000
01000000
00000000
10000000
00010000
00000000
00000000
10000000
00000000
,
00100000
00000000
00010000
00000000
00001000
00000000
00000010
00000000
00000001
00000000
00000100
00000010
00000000
00000000
00001000
00000000
,
00000001
00000000
00000010
00000000
00001000
00000000
00010000
00000000
01000000
00000000
00100000
00010000
00000000
00010000
10000000
00000000
,
10010000
00000000
00000000
00100000
00000000
01000000
00100000
00000000
01000000
00000000
00000000
00000000
00000000
00000000
00000000
00000000
;

//---------------dance-double - ----------------
#NOTES:
     dance-double:
     :
     Medium:
     7:
     0.317111,0.317857,0.021978,0.153846,0.000000,202.000000,200.000000,2.000000,14.000000,0.000000,0.000000,0.317111,0.317857,0.021978,0.153846,0.000000,202.000000,200.000000,2.000000,14.000000,0.000000,0.000000:
00000000
00000000
00000000
00000000
,
00000000
00000000
00000000
00000000
,
00000000
00000000
00000000
00000000
,
00000000
00000000
00000000
00000000
,
00000000
00000000
00000000
00000000
,
10000000
00000000
01000000
00000000
00010000
00001000
00000100
00000000
,
00000001
00000000
00000010
00000000
00001000
00010000
00100000
00000000
,
01000000
00001000
00010000
00000000
00000100
00010000
00001000
00000000
,
00010000
00000010
00001000
00000000
00000002
00000000
00001003
00000000
,
00000001
00000000
00000010
00000000
00001000
00010000
00100000
00000000
,
10000000
00000000
01000000
00000000
00010000
00001000
00000100
00000000
,
00000010
00010000
00001000
00000000
00100000
00001000
00010000
00000000
,
00001000
01000000
00010000
00000000
20000000
00000000
30010000
00000000
,
00100000
00000000
01000000
00000000
10000000
00010000
10000000
00000000
,
00100000
00000000
00010000
00000000
00001000
00010000
00001000
00000000
,
00010000
00000100
00010000
00000000
00000010
00001000
00000010
00000000
,
00000100
00000000
00000001
00000000
00000010
00000001
00001000
00000000
,
00000010
00000000
00000100
00000000
00000001
00001000
00000001
00000000
,
00000010
00000000
00001000
00000000
00010000
00001000
00010000
00000000
,
00001000
01000000
00001000
00000000
00100000
00010000
00100000
00000000
,
01000000
00000000
10000000
00000000
00100000
10000000
00010000
00000000
,
10000000
01000000
00010000
00000000
00010000
00000000
00001000
00000100
,
00000001
00000001
00000010
00001000
,
00100000
00010000
00100000
00000000
01000000
10000000
01000000
00000000
,
00010000
00001000
00010000
00000000
00001000
00000000
00000100
00000000
,
00000001
00000100
00001000
00000000
00001000
00000000
00010000
01000000
,
10000000
10000000
00100000
00010000
,
00000010
00001000
00000010
00000000
00000100
00000001
00000100
00000000
,
00001000
00010000
00001000
00000000
00010000
00000000
01000000
00000000
,
00020000
01000000
00032000
00000100
,
00013000
00001000
00010000
00001000
00020000
00000000
00031000
00000000
,
00200000
00010000
00302000
00010000
,
01003000
00010000
00100000
00000000
00002000
00000000
00013000
00000000
,
00002000
00000100
00023000
01000000
,
00031000
00010000
00001000
00010000
00002000
00000000
00013000
00000000
,
00000020
00001000
00020030
00001000
,
00030100
00001000
00000010
00000000
00020000
00000000
00031000
00000000
,
00010000
00000000
01000000
00000000
10000000
00100000
00010000
00000000
,
00001000
00000000
00000010
00000000
00000001
00000100
00001000
00000000
,
00100000
00100000
01000000
01000000
,
10000000
00100000
00010000
00011000
,
00001000
00000000
00000100
00000000
00000001
00000010
00001000
00000000
,
00010000
00000000
00100000
00000000
10000000
01000000
00010000
00000000
,
00000010
00000010
00000100
00000100
,
00001001
00000000
00000010
00001000
00010000
00000000
00000000
00000000
;
