#VERSION:0.83;
#TITLE:輪廻;
#SUBTITLE:;
#ARTIST:Millie Parfait;
#TITLETRANSLIT:Reincarnation;
#SUBTITLETRANSLIT:;
#ARTISTTRANSLIT:;
#GENRE:にじさんじ;
#ORIGIN:;
#CREDIT:;
#BANNER:Reincarnation.png;
#BACKGROUND:../bg.png;
#PREVIEWVID:;
#JACKET:Reincarnation-jacket.png;
#CDIMAGE:;
#DISCIMAGE:;
#LYRICSPATH:;
#CDTITLE:../cdtitle.png;
#MUSIC:Reincarnation.ogg;
#OFFSET:1.120000;
#SAMPLESTART:54.219002;
#SAMPLELENGTH:15.000000;
#SELECTABLE:YES;
#BPMS:0.000=103.000;
#STOPS:;
#DELAYS:;
#WARPS:;
#TIMESIGNATURES:0.000=4=4;
#TICKCOUNTS:0.000=4;
#COMBOS:0.000=1;
#SPEEDS:0.000=1.000=0.000=0;
#SCROLLS:0.000=1.000;
#FAKES:;
#LABELS:0.000=Song Start;
#BGCHANGES:3.000=Reincarnation.avi=1.000=0=0=0=StretchNoLoop====,
99999=-nosongbg-=1.000=0=0=0 // don't automatically add -songbackground-
;
#KEYSOUNDS:;
#ATTACKS:
;

//---------------dance-single - ----------------
#NOTEDATA:;
#CHARTNAME:;
#STEPSTYPE:dance-single;
#DESCRIPTION:;
#CHARTSTYLE:;
#DIFFICULTY:Beginner;
#METER:1;
#RADARVALUES:0.051282,0.059389,0.000000,0.031674,0.000000,34.000000,34.000000,0.000000,3.000000,0.000000,0.000000,0.000000,0.000000,0.000000,0.051282,0.059389,0.000000,0.031674,0.000000,34.000000,34.000000,0.000000,3.000000,0.000000,0.000000,0.000000,0.000000,0.000000;
#CREDIT:led_light;
#NOTES:
// measure 0
0000
0000
0000
0000
,  // measure 1
0000
0000
0000
0000
,  // measure 2
0000
0000
0000
0000
,  // measure 3
0000
0000
0000
0000
,  // measure 4
1000
0000
0000
0000
,  // measure 5
0000
0000
1000
0000
,  // measure 6
0000
0000
0000
0000
,  // measure 7
0001
0000
0000
0000
,  // measure 8
0000
0000
0000
0001
0000
0000
0000
0000
,  // measure 9
0000
0000
0000
0100
,  // measure 10
0000
0000
0000
0000
,  // measure 11
0000
0100
0000
0000
0000
0000
0000
0000
,  // measure 12
0000
0000
0010
0000
,  // measure 13
0000
0000
0000
0000
0000
0000
0000
0010
,  // measure 14
0000
0000
0000
0000
,  // measure 15
0000
1000
0000
0000
,  // measure 16
0000
0000
0000
0000
0000
1000
0000
0000
,  // measure 17
0000
0000
0000
0000
,  // measure 18
0000
0002
0000
0000
0000
0000
0000
0003
,  // measure 19
0000
0000
0000
0000
0000
0001
0000
0000
,  // measure 20
0000
0000
0000
0000
,  // measure 21
0000
1000
0000
0000
0000
0000
0100
0000
,  // measure 22
0000
0000
0000
0000
0020
0000
0000
0030
,  // measure 23
0000
0010
0000
0000
,  // measure 24
0001
0000
0000
0001
,  // measure 25
0000
0000
0100
0000
,  // measure 26
0000
0010
0000
0000
,  // measure 27
1000
0000
0000
1000
,  // measure 28
0000
0000
0100
0000
,  // measure 29
0000
1000
0000
0000
,  // measure 30
1000
0000
0000
0010
,  // measure 31
0000
0000
0100
0000
,  // measure 32
0000
0001
0000
0000
,  // measure 33
0001
0000
0000
0010
,  // measure 34
0000
0000
0200
0000
,  // measure 35
0000
0300
0000
0000
,  // measure 36
0100
0000
0000
1000
,  // measure 37
0000
0000
0001
0000
;

//---------------dance-single - ----------------
#NOTEDATA:;
#CHARTNAME:;
#STEPSTYPE:dance-single;
#DESCRIPTION:;
#CHARTSTYLE:;
#DIFFICULTY:Easy;
#METER:3;
#RADARVALUES:0.119156,0.146890,0.000000,0.369534,0.000000,79.000000,79.000000,0.000000,35.000000,0.000000,0.000000,0.000000,0.000000,0.000000,0.119156,0.146890,0.000000,0.369534,0.000000,79.000000,79.000000,0.000000,35.000000,0.000000,0.000000,0.000000,0.000000,0.000000;
#CREDIT:led_light;
#NOTES:
// measure 0
0000
0000
0000
0000
,  // measure 1
0000
0000
0000
0000
,  // measure 2
0000
0000
0000
0000
,  // measure 3
0000
0000
0000
0000
,  // measure 4
2000
0000
0000
3001
0000
0000
1000
0000
,  // measure 5
0000
0100
0000
0000
2000
0000
0000
3001
,  // measure 6
0000
0000
1000
0000
0000
0010
0000
0000
,  // measure 7
0200
0000
0000
0310
0000
0000
0010
0000
,  // measure 8
0000
0100
0000
0002
0000
0000
0003
0000
,  // measure 9
0000
0001
0000
0000
1000
0000
0200
0000
,  // measure 10
0000
0300
0000
0000
0100
0000
0000
1000
,  // measure 11
0000
0020
0000
0000
0030
0000
0000
0010
,  // measure 12
0000
0000
1000
0000
0002
0000
0000
1003
,  // measure 13
0000
0000
1000
0000
0000
0001
0000
0020
,  // measure 14
0000
0000
0030
0000
0000
0010
0000
0000
,  // measure 15
0100
0000
0002
0000
0000
0003
0000
0000
,  // measure 16
0001
0000
0000
0100
0000
2000
0000
0000
,  // measure 17
3000
0000
0000
1000
0000
0000
0100
0000
,  // measure 18
0000
0020
0000
0000
0030
0000
0000
0010
,  // measure 19
0000
0000
0000
0000
0000
0200
0000
0000
,  // measure 20
0300
0000
0000
0100
0000
0000
0000
0000
,  // measure 21
0000
2000
0000
0000
3001
0000
0200
0000
,  // measure 22
0000
0301
0000
0000
0020
0000
0000
0030
,  // measure 23
0000
0000
0200
0000
0000
0300
0000
0000
,  // measure 24
2000
0000
0000
3100
0000
0000
0002
0000
,  // measure 25
0000
0103
0000
0000
2000
0000
0000
3002
,  // measure 26
0000
0000
0203
0000
0000
0310
0000
0000
,  // measure 27
0002
0000
0000
0013
0000
0000
2000
0000
,  // measure 28
0000
3010
0000
0000
2000
0000
0000
3001
,  // measure 29
0000
0000
0002
0000
0000
0013
0000
0000
,  // measure 30
2000
0000
0000
3010
0000
0000
0002
0000
,  // measure 31
0000
2003
0000
0000
3020
0000
0000
0130
,  // measure 32
0000
0000
2000
0000
0000
3100
0000
0000
,  // measure 33
0002
0000
0000
0103
0000
0000
0002
0000
,  // measure 34
0000
1003
0000
0000
0200
0000
0000
0000
,  // measure 35
0000
0000
0000
0300
0000
0000
0000
0000
,  // measure 36
0010
0000
0000
0100
0000
0000
0010
0000
,  // measure 37
0000
0001
0000
0000
2000
0000
0000
0000
,  // measure 38
3000
0002
0000
0000
,  // measure 39
0000
0000
0000
0003
;

//---------------dance-single - ----------------
#NOTEDATA:;
#CHARTNAME:;
#STEPSTYPE:dance-single;
#DESCRIPTION:;
#CHARTSTYLE:;
#DIFFICULTY:Medium;
#METER:7;
#RADARVALUES:0.259428,0.377716,0.052791,0.190046,0.047511,172.000000,167.000000,5.000000,18.000000,0.000000,0.000000,0.000000,0.000000,0.000000,0.259428,0.377716,0.052791,0.190046,0.047511,172.000000,167.000000,5.000000,18.000000,0.000000,0.000000,0.000000,0.000000,0.000000;
#CREDIT:led_light;
#NOTES:
// measure 0
0000
0000
0000
0000
,  // measure 1
0000
0000
0000
0000
,  // measure 2
0000
0000
0000
0000
,  // measure 3
0000
0000
0000
0000
,  // measure 4
1000
0000
1000
0100
0000
0100
0010
0000
,  // measure 5
0010
0001
0000
0001
1000
0000
1000
0001
,  // measure 6
0000
0001
0100
0000
0100
0010
0000
0010
,  // measure 7
2000
0000
0000
0100
0000
0000
3100
0000
0000
0000
0000
0000
1000
0000
0000
0010
,  // measure 8
0000
0000
0010
0000
0001
0000
0020
0000
0000
1000
0000
0000
1030
0000
0000
0000
,  // measure 9
0000
0000
0001
0000
0000
0010
0000
0000
0010
0000
0100
0000
0020
0000
0000
0001
,  // measure 10
0000
0000
0031
0000
0000
0000
0000
0000
1000
0000
0000
0010
0000
0000
0010
0000
,  // measure 11
0100
0000
0002
0000
0000
1000
0000
0000
1003
0000
0000
0000
0000
0000
0100
0000
,  // measure 12
0000
1000
0000
0000
1000
0000
0001
0000
1001
0000
0001
0000
0100
0000
0010
0000
,  // measure 13
0000
0000
0010
0100
0100
0010
1000
1100
,  // measure 14
1000
0100
0010
0000
0000
0001
0010
0001
,  // measure 15
0010
0100
1100
1000
0001
1000
0000
0000
,  // measure 16
0001
0100
0100
0001
0010
0110
0001
1000
,  // measure 17
1100
0000
0000
0010
1000
0010
1000
0100
,  // measure 18
0010
0002
0000
0000
1003
0000
0000
0100
,  // measure 19
0000
1000
0100
0000
0000
0010
0000
0000
,  // measure 20
0100
0000
0000
0010
0000
0001
1000
0000
,  // measure 21
0000
0020
0000
0000
1030
0000
0002
0000
,  // measure 22
0000
2003
0000
0000
3200
0000
0000
0300
,  // measure 23
0000
0000
2000
0000
0000
3001
0000
0000
,  // measure 24
1000
0000
1000
0100
0000
0100
0001
0000
,  // measure 25
0001
1000
0000
1000
0010
0000
0010
1000
,  // measure 26
0000
1000
0001
0000
0001
0100
0000
0100
,  // measure 27
1000
0000
0010
0100
0000
0001
2000
0000
,  // measure 28
3100
1000
0000
0010
2000
0000
3100
0010
,  // measure 29
0000
0010
0001
0000
0001
0010
0000
0010
,  // measure 30
1000
0000
1000
0001
0000
0001
0100
0000
,  // measure 31
0100
0001
0000
0001
1000
0000
1000
0010
,  // measure 32
0000
0010
0001
0000
0100
0010
0000
1000
,  // measure 33
0002
0000
0000
0023
0000
0000
0031
0000
0000
0000
0100
0000
0002
0000
0000
0000
,  // measure 34
0013
0100
0000
1000
0002
0000
0000
0000
,  // measure 35
0000
0000
0000
0003
0000
1000
0000
0001
,  // measure 36
0010
0000
0100
0010
0000
0100
1000
0000
,  // measure 37
0010
0100
0000
0001
2000
0000
0000
0000
,  // measure 38
0000
3000
0200
0000
0000
0000
0000
0000
,  // measure 39
0000
0000
0000
0300
;

//---------------dance-single - ----------------
#NOTEDATA:;
#CHARTNAME:;
#STEPSTYPE:dance-single;
#DESCRIPTION:;
#CHARTSTYLE:;
#DIFFICULTY:Hard;
#METER:10;
#RADARVALUES:0.380092,0.482637,0.063349,0.369534,0.274511,252.000000,246.000000,6.000000,35.000000,0.000000,0.000000,0.000000,0.000000,0.000000,0.380092,0.482637,0.063349,0.369534,0.274511,252.000000,246.000000,6.000000,35.000000,0.000000,0.000000,0.000000,0.000000,0.000000;
#CREDIT:led_light;
#NOTES:
// measure 0
0000
0000
0000
0000
,  // measure 1
0000
0000
0000
0000
,  // measure 2
0000
0000
0000
0000
,  // measure 3
0000
0000
0000
0000
,  // measure 4
1000
0100
0001
1000
0010
0001
1000
0100
,  // measure 5
0001
1000
0010
0001
1000
0010
0001
1000
,  // measure 6
0100
0001
1000
0010
0001
1000
0100
0001
,  // measure 7
2000
0000
3100
1000
0000
1000
0100
0000
0000
0000
0000
0000
1000
0000
0010
0100
,  // measure 8
0000
0100
0020
0000
2030
0000
3001
0000
0100
0001
0000
0001
0100
0000
0000
0000
,  // measure 9
0000
0000
0001
0000
0010
0100
0000
0100
0010
0000
0001
0000
1000
0000
0100
1000
,  // measure 10
0000
0001
0010
0000
0000
0000
0000
0000
0100
0000
1000
0001
0000
0100
0010
0000
,  // measure 11
1000
0000
0001
0000
0010
0001
0000
1000
0100
0000
0000
0000
0000
0010
0001
0000
,  // measure 12
0000
1000
0000
1000
0010
0000
0110
0000
1000
0000
0100
0010
0000
0010
0001
0000
,  // measure 13
1000
0100
1000
0000
0001
0000
1000
0010
0000
0100
0001
0000
1001
0000
0001
0000
,  // measure 14
0100
0010
0000
0010
1000
0000
0001
0000
1000
0000
0100
0000
1000
0001
0000
0001
,  // measure 15
0010
0000
0110
0000
0001
0000
0100
0010
0000
0010
1000
0000
0001
0100
0001
0000
,  // measure 16
1000
0000
0001
0010
0000
0100
1000
0000
1001
0000
1000
0000
0100
0010
0000
0010
,  // measure 17
0001
0000
1000
0000
0001
0000
1000
0100
0000
0100
0000
0000
1000
0000
0001
0000
,  // measure 18
0100
0020
0030
1000
0100
0000
0100
0002
,  // measure 19
0003
0001
0100
0000
0100
1000
0000
0010
,  // measure 20
0010
0000
0100
0200
0300
0001
0001
0000
,  // measure 21
0001
2000
0000
3001
0001
0010
0200
0300
,  // measure 22
0010
0002
0003
0100
0020
0000
0000
0130
,  // measure 23
0000
0100
0002
0003
0001
1000
0100
0010
,  // measure 24
0012
0000
0003
0000
1000
0100
2000
0000
3000
0000
0001
0100
0002
0000
0003
0000
,  // measure 25
1000
0100
0000
1000
0002
0000
0010
2003
,  // measure 26
0000
0100
3002
0000
0100
1003
0000
0100
,  // measure 27
2000
0000
3000
0000
0001
0010
0002
0000
0003
0000
0100
0010
0200
0000
0300
0000
,  // measure 28
0001
0000
1000
0000
0000
0000
0100
0000
0020
0000
0030
0000
0100
1000
0100
0000
,  // measure 29
1000
0000
0001
0000
0012
0000
0003
0000
1000
0100
2000
0000
3000
0000
0001
0100
,  // measure 30
0002
0000
0003
1000
0010
0000
0100
0000
0000
0000
0001
0000
2000
0000
0000
0000
,  // measure 31
0100
3002
0000
0010
2003
0000
0010
3001
,  // measure 32
0000
0000
0010
0000
0002
0000
0003
0000
1000
0010
2000
0000
3000
0000
0100
0010
,  // measure 33
0200
0000
0000
2300
0000
0000
3001
0000
0000
0000
0100
0000
0020
0000
0030
0000
,  // measure 34
0100
0000
0001
0000
0010
0100
1000
0000
0002
0000
0000
0000
0000
0000
0000
0000
,  // measure 35
0000
0000
0000
0003
0000
1000
0000
0100
,  // measure 36
0010
0000
0001
0010
0001
0000
0100
0000
0010
1000
0010
0000
1000
0100
0010
0000
,  // measure 37
0001
0000
1000
0010
0100
0000
0001
0000
2000
0000
0000
0000
0000
0000
0000
0100
,  // measure 38
0000
3001
0200
0000
0000
0000
0000
0000
,  // measure 39
0000
0000
0000
0300
;

//---------------dance-single - ----------------
#NOTEDATA:;
#CHARTNAME:;
#STEPSTYPE:dance-single;
#DESCRIPTION:;
#CHARTSTYLE:;
#DIFFICULTY:Challenge;
#METER:13;
#RADARVALUES:0.499247,0.566574,0.031674,0.443440,0.543742,331.000000,328.000000,3.000000,42.000000,0.000000,0.000000,0.000000,0.000000,0.000000,0.499247,0.566574,0.031674,0.443440,0.543742,331.000000,328.000000,3.000000,42.000000,0.000000,0.000000,0.000000,0.000000,0.000000;
#CREDIT:led_light;
#NOTES:
// measure 0
0000
0000
0000
0000
,  // measure 1
0000
0000
0000
0000
,  // measure 2
0000
0000
0000
0000
,  // measure 3
0000
0000
0000
0000
,  // measure 4
1000
0000
1000
0100
1000
0000
0001
0000
0001
0010
0001
0000
1000
0000
1000
0010
,  // measure 5
1000
0000
0001
0000
0001
0100
0001
0000
1000
0100
0001
0100
1000
0000
0001
0010
,  // measure 6
1000
0010
0001
0000
1000
0010
0001
0010
1000
0000
0001
0100
1000
0100
0001
0000
,  // measure 7
0020
0000
0130
1000
0000
1000
0001
1000
0000
0000
0000
0100
1000
0000
1000
0001
,  // measure 8
0000
0010
0200
0000
2300
0000
3010
0000
1000
0001
0000
0001
0100
0001
0000
0000
,  // measure 9
0000
1000
0100
0000
0010
0100
0000
0100
1000
0001
1000
0001
0200
0000
0310
1000
,  // measure 10
0000
1000
0001
1000
0000
0000
0000
0010
1000
0000
1000
0001
0000
0100
0020
0000
,  // measure 11
2030
0000
3100
0000
1000
0001
0000
0001
0010
0001
0000
0000
0000
1000
0010
0100
,  // measure 12
0000
0010
0000
0010
1000
0001
1000
0001
0020
0000
0130
0010
0000
0010
0001
0000
,  // measure 13
0100
0010
1000
0001
1000
0000
0001
0100
0000
0100
0001
0000
0101
0000
1000
0000
,  // measure 14
0100
0010
0000
0010
0100
0000
1000
0000
0001
0100
0002
0000
1003
0010
0000
0010
,  // measure 15
0100
0001
1000
0001
0100
0000
0010
0100
0000
0100
0001
0000
0010
0100
1000
0001
,  // measure 16
1000
0000
0001
0010
0000
0010
0001
0000
0011
0000
1000
0000
0010
0100
0000
0100
,  // measure 17
0010
0000
1000
0000
0001
0010
0001
1000
0000
0100
0000
0010
0002
0000
1003
0000
,  // measure 18
0001
0200
0300
0100
0010
1000
0010
2000
,  // measure 19
3000
1000
0100
0010
0100
0010
0000
1000
,  // measure 20
0001
0000
0001
0200
0300
0100
1000
0000
,  // measure 21
0001
2000
0000
3010
0100
0100
0002
0003
,  // measure 22
0100
0000
0020
0000
0030
0000
1000
0001
2000
0000
0000
0000
0000
0000
3100
0000
,  // measure 23
0000
0000
1000
0100
0020
0000
0030
0000
0001
0100
0010
0000
1000
0001
1000
0001
,  // measure 24
0020
0000
0130
0000
1000
0100
2000
0000
3001
0000
0100
0010
0200
0000
0301
0010
,  // measure 25
0100
1000
0001
0000
1000
0000
0100
0000
0020
0000
0100
0000
0031
0000
2000
0000
,  // measure 26
0100
0000
3001
0000
0200
0000
0010
0000
1300
0100
0001
0000
1000
0000
0100
0000
,  // measure 27
2000
0000
0100
0000
3001
0100
0020
0000
0100
0000
1030
0001
0020
0000
1000
0000
,  // measure 28
0031
1000
0001
0000
0100
0000
0010
0000
2000
0000
3100
0000
1000
0001
0100
0000
,  // measure 29
0010
0000
1000
0000
2001
0000
3100
0000
0010
0001
0020
0000
0130
0000
1000
0100
,  // measure 30
2000
0000
3010
0100
0001
0100
0010
0000
1000
0000
0001
0000
0020
0000
0100
0000
,  // measure 31
0031
0000
2000
0000
0100
0000
3001
0000
0020
0000
0130
1000
0010
1000
0010
0000
,  // measure 32
0100
0000
0010
0000
2000
0000
0100
0000
3100
1000
0020
0000
0100
0000
0130
0001
,  // measure 33
0020
0000
0000
0230
0000
1300
0100
0000
0010
0000
0001
0000
2000
0000
0100
0000
,  // measure 34
3001
0000
2000
0000
3010
0100
0001
1000
0002
0000
0000
0000
0000
0000
0100
0000
,  // measure 35
0000
0000
0010
0003
0000
0001
1000
0100
,  // measure 36
0010
0001
0100
0010
0001
0000
0010
0100
0001
0010
0100
0000
0010
0100
1000
0010
,  // measure 37
0100
0000
1000
0100
0010
1000
0100
0000
0020
0000
0000
0000
0000
0000
0030
0001
,  // measure 38
0100
0010
1000
0001
2000
0000
0000
0000
0000
0000
0000
0000
0000
0000
0000
0000
,  // measure 39
0000
0000
0000
3000
;

//---------------dance-double - ----------------
#NOTEDATA:;
#CHARTNAME:;
#STEPSTYPE:dance-double;
#DESCRIPTION:;
#CHARTSTYLE:;
#DIFFICULTY:Easy;
#METER:3;
#RADARVALUES:0.117647,0.146890,0.000000,0.274511,0.000000,78.000000,78.000000,0.000000,26.000000,0.000000,0.000000,0.000000,0.000000,0.000000,0.117647,0.146890,0.000000,0.274511,0.000000,78.000000,78.000000,0.000000,26.000000,0.000000,0.000000,0.000000,0.000000,0.000000;
#CREDIT:led_light;
#NOTES:
00000000
00000000
00000000
00000000
,
00000000
00000000
00000000
00000000
,
00000000
00000000
00000000
00000000
,
00000000
00000000
00000000
00000000
,
10000000
00000000
00000000
01000000
00000000
00000000
00010000
00000000
,
00000000
00001000
00000000
00000000
00010000
00000000
00000000
00001000
,
00000000
00000000
00000010
00000000
00000000
00000001
00000000
00000000
,
00002000
00000000
00000000
00003001
00000000
00000000
00001000
00000000
,
00000000
00000010
00000000
00020000
00000000
00000000
00030000
00000000
,
00000000
00010000
00000000
00000000
00000100
00000000
00020000
00000000
,
00000000
00030000
00000000
00000000
00001000
00000000
00000000
00100000
,
00000000
00002000
00000000
00000000
00003000
00000000
00000000
01000000
,
00000000
00000000
00010000
00000000
20000000
00000000
00000000
30010000
,
00000000
00000000
00100000
00000000
00000000
00001000
00000000
00020000
,
00000000
00000000
00030000
00000000
00000000
00001000
00000000
00000000
,
01000000
00000000
00002000
00000000
00000000
00003000
00000000
00000000
,
00001000
00000000
00000000
00010000
00000000
00000020
00000000
00000000
,
00000030
00000000
00000000
00001000
00000000
00000000
00000100
00000000
,
00000000
00000002
00000000
00000000
00000003
00000000
00000000
00000001
,
00000000
00000000
00000000
00000000
00000000
00002000
00000000
00000000
,
00003000
00000000
00000000
00001000
00000000
00000000
00000000
00000000
,
00000000
00020000
00000000
00000000
00030000
00000000
00200000
00000000
,
00000000
00300000
00000000
00000000
20000000
00000000
00000000
30000000
,
00000000
00000000
02000000
00000000
00000000
03100000
00000000
00000000
,
00010000
00000000
00000000
00010000
00000000
00000000
00100000
00000000
,
00000000
00010000
00000000
00000000
20000000
00000000
00000000
30200000
,
00000000
00000000
00320000
00000000
00000000
00031000
00000000
00000000
,
00010000
00000000
00000000
00010000
00000000
00000000
00000010
00000000
,
00000000
00000010
00000000
00000000
00000200
00000000
00000000
00000301
,
00000000
00000000
00001000
00000000
00000000
00001000
00000000
00000000
,
00000100
00000000
00000000
00001000
00000000
00000000
00000002
00000000
,
00000000
00000203
00000000
00000000
00002300
00000000
00000000
00013000
,
00000000
00000000
00001000
00000000
00000000
00001000
00000000
00000000
,
02000000
00000000
00000000
03010000
00000000
00000000
00200000
00000000
,
00000000
01300000
00000000
00000000
20000000
00000000
00000000
00000000
,
00000000
00000000
00000000
30000000
00000000
00000000
00000000
00000000
,
10000000
00000000
00000000
01000000
00000000
00000000
00010000
00000000
,
00000000
00001000
00000000
00000000
00020000
00000000
00000000
00000000
,
00030000
00000020
00000000
00000000
,
00000000
00000000
00000000
00000030
;

//---------------dance-double - ----------------
#NOTEDATA:;
#CHARTNAME:;
#STEPSTYPE:dance-double;
#DESCRIPTION:;
#CHARTSTYLE:;
#DIFFICULTY:Medium;
#METER:7;
#RADARVALUES:0.257919,0.356732,0.042232,0.295627,0.047511,171.000000,167.000000,4.000000,28.000000,0.000000,0.000000,0.000000,0.000000,0.000000,0.257919,0.356732,0.042232,0.295627,0.047511,171.000000,167.000000,4.000000,28.000000,0.000000,0.000000,0.000000,0.000000,0.000000;
#CREDIT:led_light;
#NOTES:
00000000
00000000
00000000
00000000
,
00000000
00000000
00000000
00000000
,
00000000
00000000
00000000
00000000
,
00000000
00000000
00000000
00000000
,
00000001
00000000
00000001
00000010
00000000
00000010
00001000
00000000
,
00001000
00010000
00000000
00010000
00100000
00000000
00100000
10000000
,
00000000
10000000
01000000
00000000
01000000
00100000
00000000
00100000
,
00020000
00000000
00000000
10000000
00000000
00000000
10030000
00000000
00000000
00000000
00000000
00000000
00010000
00000000
00000000
00010000
,
00000000
00000000
00100000
00000000
01000000
00000000
20000000
00000000
00000000
00010000
00000000
00000000
30010000
00000000
00000000
00000000
,
00000000
00000000
00100000
00000000
00000000
00001000
00000000
00000000
00001000
00000000
00010000
00000000
00002000
00000000
00000000
00010000
,
00000000
00000000
00013000
00000000
00000000
00000000
00000000
00000000
00000010
00000000
00000000
00001000
00000000
00000000
00001000
00000000
,
00000001
00000000
00002000
00000000
00000000
00000100
00000000
00000000
00003100
00000000
00000000
00000000
00000000
00000000
00000010
00000000
,
00000000
00000001
00000000
00000000
00001000
00000000
00000001
00000000
00001001
00000000
00000200
00000000
00000010
00000000
00000310
00000000
,
00000000
00000000
00000001
00000100
00000100
00001000
00010000
00011000
,
00020000
00001000
00031000
00000000
00000000
00010000
01000000
01000000
,
10000000
00010000
10010000
00200000
01000000
01300000
00000000
00000000
,
10000000
00100000
00100000
00010000
00001000
00011000
00002000
00010000
,
00013000
00000000
00000000
00001000
00000010
00001000
00000010
00000001
,
00001000
00000002
00000000
00000000
00000013
00000000
00000000
00000100
,
00000000
00001000
00000100
00000000
00000000
00010000
00000000
00000000
,
00001000
00000000
00000000
01000000
00000000
00010000
10000000
00000000
,
00000000
02000000
00000000
00000000
13000000
00000000
00200000
00000000
,
00000000
02300000
00000000
00000000
03020000
00000000
00000000
00030000
,
00000000
00000000
00200000
00000000
00000000
00301000
00000000
00000000
,
00010000
00000000
00010000
00001000
00000000
00001000
00000100
00000000
,
00000100
00000001
00000000
00000001
00002000
00000000
00003010
00000020
,
00000000
00000130
00000200
00000000
00000301
00001000
00000000
00000100
,
00010000
00000000
00010000
00001000
00000000
00001000
00200000
00000000
,
00310000
01000000
00000000
00001000
00020000
00000000
00031000
00100000
,
00000000
00100000
00001000
00000000
00001000
00010000
00000000
00010000
,
00100000
00000000
00100000
10000000
00000000
10000000
00020000
00000000
,
01030000
02000000
00000000
03100000
00200000
00000000
10300000
00010000
,
00000000
00100000
00001000
00000000
00001000
00010000
00000000
00010000
,
00000200
00000000
00000000
00002300
00000000
00000000
00003010
00000000
00000000
00000000
00000100
00000000
00000002
00000000
00000000
00000000
,
00000013
00000100
00000000
00001000
00000002
00000000
00000000
00000000
,
00000000
00000000
00000000
00000003
00000000
00001000
00000000
00000001
,
00000100
00000000
00000100
00001000
00000000
00001000
00010000
00000000
,
00010000
01000000
00000000
01000000
20000000
00000000
00000000
00000000
,
00000000
30000000
00200000
00000000
00000000
00000000
00000000
00000000
,
00000000
00000000
00000000
00300000
;

//---------------dance-double - ----------------
#NOTEDATA:;
#CHARTNAME:;
#STEPSTYPE:dance-double;
#DESCRIPTION:;
#CHARTSTYLE:;
#DIFFICULTY:Hard;
#METER:10;
#RADARVALUES:0.374058,0.482637,0.063349,0.369534,0.253394,248.000000,242.000000,6.000000,35.000000,0.000000,0.000000,0.000000,0.000000,0.000000,0.374058,0.482637,0.063349,0.369534,0.253394,248.000000,242.000000,6.000000,35.000000,0.000000,0.000000,0.000000,0.000000,0.000000;
#CREDIT:led_light;
#NOTES:
00000000
00000000
00000000
00000000
,
00000000
00000000
00000000
00000000
,
00000000
00000000
00000000
00000000
,
00000000
00000000
00000000
00000000
,
10000000
01000000
00010000
10000000
00100000
00010000
10000000
01000000
,
00010000
00001000
00000010
00000001
00001000
00000010
00000001
00001000
,
00000100
00000001
00001000
00000010
00010000
00001000
00100000
00010000
,
20000000
00000000
31000000
00100000
00000000
00000000
01000000
00000000
00000000
00000000
00000000
00000000
10000000
00000000
00010000
01000000
,
00000000
01000000
00200000
00000000
20300000
00000000
30010000
00000000
00100000
01000000
00000000
00000000
00100000
00000000
00000000
00000000
,
00000000
00000000
00001000
00000000
00010000
00001000
00000000
00000010
00000100
00000000
00001000
00000000
00000001
00000000
00000100
00000010
,
00000000
00000000
00000100
00000000
00000000
00000000
00000000
00000000
00000001
00000000
00001000
00000100
00000000
00000100
00000010
00000000
,
00000001
00000000
00001000
00000000
00000010
00000100
00000000
00000000
00000010
00000000
00000000
00000000
00000000
00010000
00001000
00000000
,
00000000
00010000
00000000
00010000
00001000
00000000
00011000
00000000
00100000
00000000
00010000
10000000
00000000
10000000
01000000
00000000
,
10000000
00010000
10000000
00000000
00010000
00000000
01000000
00100000
00000000
00010000
00001000
00000000
00011000
00000000
00010000
00000000
,
00000100
00010000
00000000
00010000
00001000
00000000
00010000
00000000
00000010
00000000
00000100
00000000
00000001
00001000
00000000
00001000
,
00000100
00000000
00000110
00000000
00000100
00000000
00001000
00000001
00000000
00000001
00000010
00000000
00000001
00001000
00000001
00000000
,
00001000
00000000
00000010
00000100
00000000
00001000
00010000
00000000
00011000
00000000
00001000
00000000
00100000
00010000
00000000
00010000
,
10000000
00000000
01000000
00000000
00010000
00000000
00001000
00100000
00000000
00100000
00000000
00000000
00010000
00000000
01000000
00000000
,
00100000
20000000
30000000
10000000
01000000
00000000
01000000
00020000
,
00030000
00010000
00001000
00000000
00001000
00000100
00000000
00000100
,
00000010
00000000
00000010
00002000
00003000
00001000
00000001
00000000
,
00000001
00002000
00000000
00003100
00000100
00010000
00002000
00003000
,
01000000
00002000
00003000
00100000
00020000
00000000
00000000
10030000
,
00000000
01000000
20000000
30000000
00010000
01000000
00100000
10000000
,
20010000
00000000
30000000
00000000
00010000
01000000
00020000
00000000
00030000
00000000
00100000
00010000
00200000
00000000
00300000
00000000
,
00001000
00010000
00000000
00000100
00020000
00000000
00001000
00030020
,
00000000
00000100
00002030
00000000
00000100
00003001
00000000
00000010
,
00000200
00000000
00000300
00000000
00001000
00000001
00000200
00000000
00000300
00000000
00000010
00001000
00000020
00000000
00000030
00000000
,
00000100
00000000
00000001
00000000
00000000
00000000
00001000
00000000
00000200
00000000
00000300
00000000
00001000
00000010
00000100
00000000
,
00000001
00000000
00001000
00000000
00002001
00000000
00003000
00000000
00000001
00000010
00000002
00000000
00000003
00000000
00001000
00000010
,
00002000
00000000
00003000
00000100
00010000
00000000
00001000
00000000
00000000
00000000
01000000
00000000
00002000
00000000
00000000
00000000
,
00010000
00203000
00000000
00010000
00302000
00000000
00010000
01003000
,
00000000
00000000
00010000
00000000
20000000
00000000
30000000
00000000
01000000
00100000
00020000
00000000
00030000
00000000
00100000
00010000
,
20000000
00000000
00000000
30200000
00000000
00000000
10300000
00000000
00000000
00000000
01000000
00000000
00200000
00000000
00300000
00000000
,
00100000
00000000
00001000
00000000
00010000
00001000
00010000
00000000
00002000
00000000
00000000
00000000
00000000
00000000
00000000
00000000
,
00000000
00000000
00000000
00003000
00000000
00010000
00000000
00010000
,
00001000
00000000
00000010
00000001
00000010
00000000
00000001
00000000
00000100
00000010
00000100
00000000
00001000
00000000
00010000
00100000
,
01000000
00000000
00010000
00000000
00100000
01000000
10000000
00000000
00020000
00000000
00000000
00000000
00000000
00000000
00000000
00100000
,
00000000
01030000
00002000
00000000
00000000
00000000
00000000
00000000
,
00000000
00000000
00000000
00003000
;

//---------------dance-double - ----------------
#NOTEDATA:;
#CHARTNAME:;
#STEPSTYPE:dance-double;
#DESCRIPTION:;
#CHARTSTYLE:;
#DIFFICULTY:Challenge;
#METER:13;
#RADARVALUES:0.499247,0.566574,0.031674,0.432882,0.543742,331.000000,328.000000,3.000000,41.000000,0.000000,0.000000,0.000000,0.000000,0.000000,0.499247,0.566574,0.031674,0.432882,0.543742,331.000000,328.000000,3.000000,41.000000,0.000000,0.000000,0.000000,0.000000,0.000000;
#CREDIT:led_light;
#NOTES:
00000000
00000000
00000000
00000000
,
00000000
00000000
00000000
00000000
,
00000000
00000000
00000000
00000000
,
00000000
00000000
00000000
00000000
,
10000000
00000000
01000000
00100000
00010000
00000000
01000000
00000000
00100000
00010000
00001000
00000000
00010000
00000000
00001000
00000100
,
00000010
00000000
00001000
00000000
00000100
00000010
00000001
00000000
00001000
00000100
00001000
00000100
00000010
00000000
00000001
00000100
,
00000001
00000100
00000010
00000000
00010000
00001000
00010000
00001000
00100000
00000000
00010000
01000000
00010000
01000000
00100000
00000000
,
20000000
00000000
31000000
10000000
00000000
10000000
00010000
10000000
00000000
00000000
00000000
01000000
00100000
00000000
00100000
00010000
,
00000000
00010000
00002000
00000000
00003200
00000000
00000310
00000000
00000001
00001000
00000000
00001000
00000010
00001000
00000000
00000000
,
00000000
00000010
00010000
00000000
00010000
00001000
00000000
00001000
00100000
00010000
00100000
00010000
20000000
00000000
30100000
10000000
,
00000000
10000000
00010000
10000000
00000000
00000000
00000000
00100000
01000000
00000000
01000000
00010000
00000000
00010000
00002000
00000000
,
00003020
00000000
00000130
00000000
00000001
00001000
00000000
00001000
00000100
00001000
00000000
00000000
00000000
00001000
00000100
00010000
,
00000000
00001000
00000000
00001000
01000000
00010000
01000000
00010000
00200000
00000000
01300000
00100000
00000000
00100000
00010000
00000000
,
10000000
01000000
00010000
00001000
00010000
00000000
00001000
00000100
00000000
00000100
00000001
00000000
00001001
00000000
00001000
00000000
,
00000010
00000100
00000000
00000100
00000010
00000000
00001000
00000000
00000100
00000010
00000200
00000000
00010300
00001000
00000000
00010000
,
00000100
00001000
00000100
00001000
00000010
00000000
00000100
00000010
00000000
00000010
00001000
00000000
00000001
00000100
00001000
00010000
,
00001000
00000000
00010000
01000000
00000000
01000000
10000000
00000000
10010000
00000000
00010000
00000000
00100000
01000000
00000000
01000000
,
00100000
00000000
00010000
00000000
10000000
01000000
10000000
00010000
00000000
01000000
00000000
00100000
01000000
00000000
00100000
00000000
,
00010000
00002000
00003000
00010000
00000100
00000010
00000100
00000020
,
00000030
00000010
00000001
00000100
00000001
00000100
00000000
00000100
,
00000010
00000000
00000010
00020000
00030000
00010000
00001000
00000000
,
00001000
00020000
00000000
01030000
01000000
10000000
00200000
00300000
,
01000000
00000000
00020000
00000000
00030000
00000000
10000000
01000000
20000000
00000000
00000000
00000000
00000000
00000000
30010000
00000000
,
00000000
00000000
00100000
00010000
00200000
00000000
00300000
00000000
00001000
00010000
00001000
00000000
01000000
00001000
00010000
00001000
,
00000020
00000000
00000031
00000000
00000100
00000001
00000200
00000000
00000310
00000000
00010000
00001000
00020000
00000000
00031000
00100000
,
00010000
00100000
00001000
00000000
00010000
00000000
00001000
00000000
02000000
00000000
00100000
00000000
03100000
00000000
20000000
00000000
,
01000000
00000000
31000000
00000000
00200000
00000000
00010000
00000000
00310000
10000000
00010000
00000000
10000000
00000000
01000000
00000000
,
20000000
00000000
00010000
00000000
30100000
01000000
00200000
00000000
01000000
00000000
00310000
00001000
00020000
00000000
00001000
00000000
,
00030100
00001000
00000010
00000000
00010000
00000000
00001000
00000000
00000020
00000000
00000130
00000000
00000010
00001000
00010000
00000000
,
00100000
00000000
10000000
00000000
01200000
00000000
10300000
00000000
01000000
10000000
02000000
00000000
03100000
00000000
00001000
00010000
,
00002000
00000000
00013000
00000010
00001000
00000010
00010000
00000000
00001000
00000000
00010000
00000000
00000200
00000000
00000010
00000000
,
00000310
00000000
00000002
00000000
00000100
00000000
00000103
00000000
00000020
00000000
00001030
00000100
00001000
00000001
00001000
00000000
,
00000010
00000000
00000100
00000000
00000002
00000000
00001000
00000000
00000013
00000100
00000020
00000000
00000100
00000000
00001030
00010000
,
00002000
00000000
00000000
00203000
00000000
00310000
01000000
00000000
00001000
00000000
00010000
00000000
00002000
00000000
00010000
00000000
,
00103000
00000000
00020000
00000000
10030000
01000000
00010000
01000000
20000000
00000000
00000000
00000000
00000000
00000000
01000000
00000000
,
00000000
00000000
00010000
30000000
00000000
01000000
00001000
00010000
,
00100000
01000000
00100000
00010000
00001000
00000000
00000100
00000010
00000100
00001000
00010000
00000000
00001000
00000100
00000001
00000010
,
00001000
00000000
00010000
01000000
10000000
00100000
00010000
00000000
00002000
00000000
00000000
00000000
00000000
00000000
00003000
00010000
,
01000000
00010000
00001000
00000100
00000020
00000000
00000000
00000000
00000000
00000000
00000000
00000000
00000000
00000000
00000000
00000000
,
00000000
00000000
00000000
00000030
;
