#TITLE:Read My Code;
#SUBTITLE:;
#ARTIST:ETIA.;
#TITLETRANSLIT:;
#SUBTITLETRANSLIT:;
#ARTISTTRANSLIT:;
#GENRE:Anime/Game;
#CREDIT:;
#BANNER:Read My Code.png;
#BACKGROUND:Read My Code-bg.png;
#LYRICSPATH:;
#CDTITLE:../cdtitle.png;
#MUSIC:Read My Code.ogg;
#OFFSET:1.409000;
#SAMPLESTART:65.829002;
#SAMPLELENGTH:15.000000;
#LASTBEATHINT:1.192917;
#SELECTABLE:YES;
#BPMS:0.000000=175.000000
;
#STOPS:
;
#BGCHANGES:-99.000=../bg.avi=1.000=0=0=1=====,
99999=-nosongbg-=1.000=0=0=0 // don't automatically add -songbackground-
;
#KEYSOUNDS:;
#ATTACKS:;

//---------------dance-single - ----------------
#NOTES:
     dance-single:
     :
     Beginner:
     4:
     0.197142,0.280957,0.024790,0.033054,0.000000,167.000000,164.000000,3.000000,4.000000,0.000000,0.000000,0.197142,0.280957,0.024790,0.033054,0.000000,167.000000,164.000000,3.000000,4.000000,0.000000,0.000000:
0000
0000
0000
0000
,
0000
0000
0000
0000
,
0000
0000
0000
0000
,
0000
0000
0000
0000
,
0000
0000
0000
0000
,
0000
0000
0000
0000
,
0000
0000
0000
0000
,
0000
0000
0000
0000
,
0000
0000
0000
0000
,
1000
0000
1000
0000
,
0001
0000
0001
0000
,
1000
0000
1000
0000
,
0001
0000
0001
0000
,
0100
0000
0100
0000
,
0100
0000
0100
0000
,
0010
0010
0010
0010
,
0010
0000
0000
0000
,
1000
0000
0001
0000
,
1000
1000
1000
0000
,
0100
0000
0010
0000
,
0001
0001
0001
0000
,
0010
0000
0010
0000
,
0001
0000
0001
0000
,
1000
0000
0001
0000
,
1001
0000
0000
0000
,
0001
0000
1000
0000
,
0001
0001
0001
0000
,
0100
0000
0010
0000
,
1000
1000
1000
0000
,
0010
0000
0010
0000
,
1000
0000
1000
0000
,
0001
0000
1000
0000
,
0001
0000
0000
0000
,
0020
0000
0000
0000
,
0030
0000
0000
0000
,
0002
0000
0000
0000
,
0003
0000
0000
0000
,
0200
0000
0000
0000
,
0300
0000
0000
0000
,
2000
0000
0000
0000
,
3000
0000
0000
0000
,
0001
0000
0001
0000
,
1000
0000
1000
0000
,
0001
0000
0001
0000
,
1000
0000
1000
0000
,
0100
0000
0100
0000
,
0100
0000
0100
0000
,
0010
0010
0010
0010
,
0010
0000
0000
0000
,
1000
1000
1000
0000
,
0001
0001
0001
0000
,
0100
0100
0100
0100
,
0100
0000
0010
0000
,
1000
1000
1000
0000
,
0001
0001
0001
0000
,
0010
0000
0100
0000
,
0010
0000
0000
0000
,
0001
0001
0001
0000
,
1000
1000
1000
0000
,
0100
0100
0100
0100
,
0100
0000
0010
0000
,
0001
0001
0001
0000
,
1000
1000
1000
0000
,
0010
0000
0100
0000
,
0010
0000
0100
0000
,
0001
0000
1000
0000
,
0010
0010
0010
0000
,
1000
0000
0001
0000
,
0010
0010
0010
0000
,
0001
0000
1000
0000
,
0100
0100
0100
0000
,
0010
0000
0001
0000
,
1000
0000
0100
0000
,
1000
0000
0001
0000
,
0010
0010
0010
0000
,
0001
0000
1000
0000
,
0010
0010
0010
0000
,
1000
0000
0001
0000
,
0100
0100
0100
0000
,
0010
0000
1000
0000
,
0001
0000
0100
0000
,
1000
1000
1000
0000
,
0010
0010
0010
0000
,
0001
0001
0001
0000
,
1001
0000
0000
0000
,
0110
0000
0000
0000
;

//---------------dance-single - ----------------
#NOTES:
     dance-single:
     :
     Hard:
     12:
     0.505250,0.632153,0.206586,0.570177,0.016527,428.000000,403.000000,25.000000,69.000000,0.000000,0.000000,0.505250,0.632153,0.206586,0.570177,0.016527,428.000000,403.000000,25.000000,69.000000,0.000000,0.000000:
0000
0000
0000
0000
,
0000
0000
0000
0000
,
0000
0000
0000
0000
,
0000
0000
0000
0000
,
0000
0000
0000
0000
,
0000
0000
0000
0000
,
0000
0000
0000
0000
,
0000
0000
0000
0000
,
0000
0000
0000
0000
,
1000
1000
0001
0001
,
0100
0000
0100
0000
0010
0000
0010
1000
,
0100
0001
0010
1000
,
0100
0000
0010
0000
0001
1000
0001
0001
,
0100
1000
0100
1000
0100
0001
0100
0001
,
0010
1000
0010
1000
0010
0001
0010
0001
,
0100
0010
1000
0100
0001
0100
1000
0001
,
0200
0000
0000
0300
,
0120
0000
0031
0010
0100
0001
0010
0100
,
0001
0100
1000
0020
0001
0000
1000
0030
,
0002
0000
0103
0001
0010
0001
1000
0001
,
0100
0010
1000
0100
0001
0000
0010
0000
,
1001
0000
1000
0100
0001
0000
1000
0010
,
0001
0000
1000
0010
0001
0000
1000
0100
,
0002
0000
1003
0100
0010
0001
0100
2000
,
0000
3001
0010
2000
0000
0000
3100
0000
,
0120
0000
1030
0010
0100
1000
0010
0100
,
1000
0100
0001
0020
1000
0000
0001
0030
,
2000
0000
3100
1000
0010
1000
0001
1000
,
0100
0010
0001
0100
1000
0000
0010
0000
,
1001
0000
0001
0100
1000
0000
0001
0010
,
1000
0000
0001
0010
1000
0000
0001
0100
,
2000
0000
3001
0100
0010
1000
0100
0001
,
0200
1000
0000
1000
0000
1300
0001
0100
,
0220
0000
0030
0000
,
0002
0000
0300
0000
,
2000
0000
0003
0000
,
0200
0000
3000
0000
,
0002
0000
0300
0000
,
0020
0000
0003
0000
,
2000
0000
0030
0000
,
3001
0000
0000
0000
,
1010
1000
1000
1000
,
0001
0001
0001
0001
,
0011
0010
0010
0010
,
0100
0000
0100
0000
0100
0000
0100
0010
,
1010
0000
0100
0100
0110
0000
0010
0001
,
1001
0000
0100
0100
0110
0000
0010
1000
,
1100
0101
0011
1010
,
0001
0000
0000
1000
0000
0000
0110
0000
0000
0000
0000
0000
0000
0000
0000
0000
,
1000
0100
0010
0001
2000
0000
3100
0010
,
0001
0100
0010
1000
0002
0000
0103
0000
,
0010
1000
0100
0010
0100
1000
0010
0100
,
2000
0000
3100
0001
0010
1000
0010
0000
,
0001
0100
0010
1000
0002
0000
0103
0010
,
1000
0100
0010
0001
1000
0100
0002
0000
,
0013
0000
0010
0001
0100
1000
0010
0100
,
0020
0000
0130
0020
0000
0130
0010
1000
,
0001
0010
0100
1000
0002
0000
0013
0100
,
1000
0010
0100
0001
2000
0000
3010
0000
,
0100
0001
0010
0100
0010
0001
0100
0010
,
0002
0000
0013
1000
0100
0001
0100
0000
,
1000
0010
0100
0001
2000
0000
3010
0100
,
0001
0010
0100
1000
0001
0010
2000
0000
,
3100
0000
0100
1000
0010
0001
0100
0010
,
0200
0000
0310
0200
0000
0310
0100
0001
,
0020
0000
0230
0000
1300
0010
0001
0020
,
0000
2030
0000
3200
0000
0302
0000
0103
,
0020
0000
0031
0000
0001
0100
0010
0002
,
0000
0023
0000
2030
0000
3100
0010
0001
,
2000
0000
3002
0000
0103
0010
1000
0002
,
0000
0000
0023
0000
0000
0000
0230
0000
0000
0000
2300
0000
0000
0000
3100
1000
,
0001
0101
1100
1010
,
0110
0000
0000
0000
1000
0000
0001
0010
0002
0000
0000
0000
0103
0000
0000
0000
,
0020
0000
0230
0000
0301
0010
1000
0020
,
0000
0032
0000
0203
0000
2300
0000
3100
,
0020
0000
1030
0000
1000
0100
0010
2000
,
0000
3020
0000
0032
0000
0103
0010
1000
,
0002
0000
2003
0000
3100
0010
0001
2000
,
0000
0000
3020
0000
0000
0000
0230
0000
0000
0000
0302
0000
0000
0000
0103
0001
,
1000
1100
0101
0011
,
0110
0000
0001
2000
0000
3010
1000
0100
,
0010
0010
0001
0001
,
1000
1000
0010
0010
,
0100
0010
1000
0001
0010
0100
1000
0001
,
0200
0010
0000
0010
0000
0310
1000
0001
,
1001
0000
0000
0000
;

//---------------dance-single - ----------------
#NOTES:
     dance-single:
     :
     Medium:
     9:
     0.362411,0.421435,0.099161,0.388382,0.004132,307.000000,295.000000,12.000000,47.000000,0.000000,0.000000,0.362411,0.421435,0.099161,0.388382,0.004132,307.000000,295.000000,12.000000,47.000000,0.000000,0.000000:
0000
0000
0000
0000
,
0000
0000
0000
0000
,
0000
0000
0000
0000
,
0000
0000
0000
0000
,
0000
0000
0000
0000
,
0000
0000
0000
0000
,
0000
0000
0000
0000
,
0000
0000
0000
0000
,
0000
0000
0000
0000
,
1000
0100
1000
0100
,
0010
0001
0010
0001
,
1000
0100
0001
0010
,
1000
0100
0001
0010
,
1000
0100
0001
0100
,
1000
0100
0001
0100
,
1000
0010
0001
0100
,
2000
0000
0000
3000
,
0001
0000
1000
0100
0000
0001
0100
0000
,
1000
0010
0002
0003
,
1000
0000
0001
0010
0000
1000
0010
0000
,
0001
0100
1000
0010
,
0001
0000
0100
0010
0100
0000
0000
0000
,
1000
0000
0100
0010
0100
0000
0000
0000
,
0001
0000
1000
0000
0010
0000
0001
2000
,
0000
0000
3100
0002
0000
0000
1003
0000
,
0001
0000
1000
0010
0000
0001
0010
0000
,
1000
0100
0002
0003
,
1000
0000
0001
0100
0000
1000
0100
0000
,
0001
0010
1000
0100
,
0001
0000
0010
0100
0010
0000
0000
0000
,
1000
0000
0010
0100
0010
0000
0000
0000
,
0001
1000
1000
0100
,
0002
0000
0010
0013
,
2000
0000
0100
0000
,
3002
0000
0000
0000
,
0023
0000
1000
0000
,
0230
0000
0000
0000
,
2300
0000
0010
0000
,
3002
0000
0100
0000
,
2003
0000
0010
0000
,
3001
0000
0000
0000
,
0010
0010
0010
0010
,
1000
1000
1000
1000
,
0100
0100
0100
0100
,
0001
0001
0001
0001
,
0110
0000
1001
0000
,
0101
0000
1010
0000
,
1000
0100
0001
0010
,
0100
0000
0000
0100
0000
0000
0110
0000
0000
0000
0000
0000
0000
0000
0000
0000
,
1001
0000
1000
0100
0001
0000
0100
0000
,
0010
0000
0001
0100
1000
0000
0100
0000
,
0001
0010
0100
1000
,
0010
0000
0001
0100
0000
1000
0010
0000
,
0100
0000
0001
0010
1000
0000
0010
0000
,
0100
0000
1000
0010
0001
0000
0010
0000
,
0100
0000
0001
0010
0000
1000
0100
0000
,
0020
0000
0100
0130
,
1001
0000
0001
0100
1000
0000
0100
0000
,
0010
0000
1000
0100
0001
0000
0100
0000
,
1000
0010
0100
0001
,
0010
0000
1000
0100
0000
0001
0010
0000
,
0100
0000
1000
0010
0001
0000
0010
0000
,
0100
0000
0001
0010
1000
0000
0010
0000
,
0100
0000
1000
0010
0000
0001
0100
0000
,
0020
0000
0130
0010
0000
1000
0010
1000
,
0020
0000
0130
0000
0001
0000
0010
0002
,
0000
2003
0000
3020
0000
0230
0000
0301
,
2000
0000
3001
0000
1000
0000
0100
2000
,
0000
3200
0000
0320
0000
0031
0100
0000
,
2000
0000
3100
0000
0010
0000
0100
0020
,
0000
2030
0000
3200
0000
0320
0000
0031
,
0100
1100
0100
0101
,
2000
0000
0000
0100
0200
0000
3300
0000
,
0020
0000
0130
0000
1000
0000
0010
2000
,
0000
3002
0000
0023
0000
0230
0000
1300
,
0002
0000
1003
0000
0001
0000
0100
0002
,
0000
0203
0000
0320
0000
1030
0100
0000
,
0002
0000
0103
0000
0010
0000
0100
0020
,
0000
0032
0000
0203
0000
0320
0000
1030
,
0100
0101
0100
1100
,
0002
0000
0100
0103
,
0010
0010
0010
0010
,
0100
0100
0100
0100
,
1000
0010
0001
0100
,
2000
0000
0001
3001
,
0110
0000
0000
0000
;

//---------------dance-double - ----------------
#NOTES:
     dance-double:
     :
     Hard:
     12:
     0.506431,0.632153,0.206586,0.520597,0.016527,429.000000,404.000000,25.000000,63.000000,0.000000,0.000000,0.506431,0.632153,0.206586,0.520597,0.016527,429.000000,404.000000,25.000000,63.000000,0.000000,0.000000:
// measure 0
00000000
00000000
00000000
00000000
,  // measure 1
00000000
00000000
00000000
00000000
,  // measure 2
00000000
00000000
00000000
00000000
,  // measure 3
00000000
00000000
00000000
00000000
,  // measure 4
00000000
00000000
00000000
00000000
,  // measure 5
00000000
00000000
00000000
00000000
,  // measure 6
00000000
00000000
00000000
00000000
,  // measure 7
00000000
00000000
00000000
00000000
,  // measure 8
00000000
00000000
00000000
00000000
,  // measure 9
01000000
01000000
00010000
00010000
,  // measure 10
00100000
00000000
00100000
00000000
01000000
00000000
01000000
10000000
,  // measure 11
00100000
00010000
00001000
00000010
,  // measure 12
00000001
00000000
00000100
00000000
00001000
00010000
00100000
00100000
,  // measure 13
10000000
01000000
10000000
01000000
00100000
00010000
00100000
00010000
,  // measure 14
00001000
00000010
00001000
00000010
00000100
00000001
00000100
00000001
,  // measure 15
00000010
00000100
00010000
00001000
01000000
00010000
01000000
00100000
,  // measure 16
20000000
00000000
00000000
30000000
,  // measure 17
01200000
00000000
00310000
00100000
10000000
01000000
00100000
00001000
,  // measure 18
00010000
00000010
00001000
00000001
00000020
00000000
00000100
00000030
,  // measure 19
00000002
00000000
00000103
00000010
00001000
00000100
00010000
00001000
,  // measure 20
00100000
01000000
10000000
00100000
00010000
00000000
00100000
00000000
,  // measure 21
01100000
00000000
10000000
00100000
00010000
00000000
00001000
00000010
,  // measure 22
00000001
00000000
00000001
00000100
00001000
00000000
00010000
01000000
,  // measure 23
10000000
00000000
00100000
01000000
00010000
00001000
00000010
00000200
,  // measure 24
00000000
00000301
00000010
00002000
00000000
00000000
00003010
00000000
,  // measure 25
00000120
00000000
00001030
00000010
00000001
00000100
00000010
00010000
,  // measure 26
00001000
00100000
00010000
10000000
00200000
00000000
01000000
00300000
,  // measure 27
20000000
00000000
31000000
00100000
00010000
01000000
00001000
00010000
,  // measure 28
00000010
00000100
00000001
00000010
00001000
00000000
00000010
00000000
,  // measure 29
00000110
00000000
00000001
00000010
00001000
00000000
00010000
00100000
,  // measure 30
10000000
00000000
10000000
01000000
00010000
00000000
00001000
00000100
,  // measure 31
00000001
00000000
00000010
00000100
00001000
00010000
00100000
01000000
,  // measure 32
20000000
00010000
00000000
00010000
00000000
30010000
01000000
00100000
,  // measure 33
02200000
00000000
03000000
00000000
,  // measure 34
20000000
00000000
00300000
00000000
,  // measure 35
02000000
00000000
30000000
00000000
,  // measure 36
00020000
00000000
03000000
00000000
,  // measure 37
00002000
00000000
00030000
00000000
,  // measure 38
00000200
00000000
00003000
00000000
,  // measure 39
00000002
00000000
00000300
00000000
,  // measure 40
00001003
00000000
00000000
00000000
,  // measure 41
00000011
00000010
00000010
00000010
,  // measure 42
00001000
00001000
00001000
00001000
,  // measure 43
00011000
00010000
00010000
00010000
,  // measure 44
00100000
00000000
00100000
00000000
00100000
00000000
01000000
00100000
,  // measure 45
10100000
00000000
10000000
01000000
01100000
00000000
00010000
00001000
,  // measure 46
00011000
00000000
00000100
00000001
00000101
00000000
00000010
00001000
,  // measure 47
00001010
00011000
01010000
00011000
,  // measure 48
00000100
00000000
00000000
00000010
00000000
00000000
00001001
00000000
00000000
00000000
00000000
00000000
00000000
00000000
00000000
00000000
,  // measure 49
00000100
00000010
00001000
00000001
00000020
00000000
00000130
00010000
,  // measure 50
00001000
00100000
00010000
01000000
00200000
00000000
01300000
00000000
,  // measure 51
00100000
10000000
01000000
00100000
00010000
01000000
00100000
00010000
,  // measure 52
00002000
00000000
00003100
00000010
00001000
00000100
00000010
00000000
,  // measure 53
00000100
00000010
00000001
00001000
00000020
00000000
00000130
00000001
,  // measure 54
00000010
00001000
00010000
01000000
00100000
00010000
02000000
00000000
,  // measure 55
03100000
00000000
00100000
10000000
01000000
10000000
01000000
00100000
,  // measure 56
00020000
00000000
01030000
00200000
00000000
01300000
00100000
10000000
,  // measure 57
01000000
00100000
00010000
10000000
00200000
00000000
01300000
00001000
,  // measure 58
00010000
00000010
00001000
00000100
00000020
00000000
00000130
00000000
,  // measure 59
00000010
00000001
00000100
00000010
00001000
00000100
00000010
00001000
,  // measure 60
00020000
00000000
01030000
00100000
00010000
01000000
00100000
00000000
,  // measure 61
01000000
00100000
10000000
00010000
00200000
00000000
01300000
10000000
,  // measure 62
00100000
00010000
00001000
00000100
00000010
00001000
00000200
00000000
,  // measure 63
00000310
00000000
00000010
00000001
00000100
00000001
00000100
00000010
,  // measure 64
00002000
00000000
00003100
00000020
00000000
00000130
00000010
00000001
,  // measure 65
00000200
00000000
00000310
00000000
00000010
00000100
00000001
00000020
,  // measure 66
00000000
00002030
00000000
00023000
00000000
00230000
00000000
01300000
,  // measure 67
20000000
00000000
31000000
00000000
01000000
00100000
10000000
02000000
,  // measure 68
00000000
03020000
00000000
00032000
00000000
00003100
00000001
00001000
,  // measure 69
00000020
00000000
00000130
00000000
00000100
00000010
00001000
00000002
,  // measure 70
00000000
00000000
00000023
00000000
00000000
00000000
00002030
00000000
00000000
00000000
00023000
00000000
00000000
00000000
01030000
10000000
,  // measure 71
00010000
00110000
11000000
10100000
,  // measure 72
01010000
00000000
00000000
00000000
00100000
00000000
10000000
00010000
20000000
00000000
00000000
00000000
31000000
00000000
00000000
00000000
,  // measure 73
02000000
00000000
03100000
00000000
00100000
01000000
10000000
00200000
,  // measure 74
00000000
00320000
00000000
00032000
00000000
00003020
00000000
00000130
,  // measure 75
00000002
00000000
00000103
00000000
00000100
00000010
00000001
00000200
,  // measure 76
00000000
00002300
00000000
00023000
00000000
01030000
10000000
00010000
,  // measure 77
00200000
00000000
01300000
00000000
01000000
00100000
00010000
20000000
,  // measure 78
00000000
00000000
30200000
00000000
00000000
00000000
00320000
00000000
00000000
00000000
00032000
00000000
00000000
00000000
00003100
00000001
,  // measure 79
00001000
00001010
00000101
00000011
,  // measure 80
00001100
00000000
00000010
00000002
00000000
00001003
00000001
00000100
,  // measure 81
00000010
00000010
00001000
00001000
,  // measure 82
00000100
00000000
00000100
00000000
00000010
00000000
00000010
00000001
,  // measure 83
00000100
00000010
00001000
00000100
00010000
00001000
00100000
00010000
,  // measure 84
02000000
00100000
00000000
00100000
00000000
03100000
10000000
00010000
,  // measure 85
10010000
00000000
00000000
00000000
;

//---------------dance-single - ----------------
#NOTES:
     dance-single:
     :
     Easy:
     7:
     0.303386,0.351196,0.074371,0.239640,0.000000,257.000000,248.000000,9.000000,29.000000,0.000000,0.000000,0.303386,0.351196,0.074371,0.239640,0.000000,257.000000,248.000000,9.000000,29.000000,0.000000,0.000000:
0000
0000
0000
0000
,
0000
0000
0000
0000
,
0000
0000
0000
0000
,
0000
0000
0000
0000
,
0000
0000
0000
0000
,
0000
0000
0000
0000
,
0000
0000
0000
0000
,
0000
0000
0000
0000
,
0000
0000
0000
0000
,
0100
0100
0010
0010
,
0100
0100
0010
0010
,
0001
0100
1000
0100
,
0001
0100
0010
1000
,
0001
0001
1000
1000
,
0001
0001
1000
1000
,
0100
0010
0100
1000
,
0002
0000
0000
0003
,
1000
0100
0001
0100
,
1000
0100
0002
0003
,
1000
0010
0001
0010
,
1000
0100
0010
0001
,
1000
0010
0001
0000
,
1000
0010
0001
0000
,
0001
0000
0010
0000
0100
0000
1000
0002
,
0000
0000
0003
2000
0000
0000
3000
0000
,
0001
0010
1000
0010
,
0001
0010
2000
3000
,
0001
0100
1000
0100
,
0001
0010
0100
1000
,
0001
0100
1000
0000
,
0001
0100
1000
0000
,
1000
0100
0010
0001
,
0022
0000
0000
0033
,
2000
0000
0000
0000
,
3002
0000
0000
0000
,
0203
0000
0000
0000
,
0320
0000
0000
0000
,
2030
0000
0000
0000
,
3002
0000
0000
0000
,
0023
0000
0000
0000
,
0130
0000
0000
0000
,
0100
0100
0100
0000
,
1000
1000
1000
0000
,
0010
0010
0010
0000
,
0001
0001
0001
0001
,
1100
0000
0101
0000
,
0011
0000
1010
0000
,
0100
0010
0100
0010
,
1001
0000
0000
0000
,
1000
0100
0010
0100
,
1000
0100
0001
0000
,
1000
0100
0010
0001
,
0100
0000
0010
0100
0000
0010
0100
0000
,
0001
0100
0010
0100
,
0001
0100
1000
0100
,
0001
0100
0010
1000
,
0002
0000
2003
0000
,
3001
0100
0010
0100
,
0001
0100
1000
0000
,
0001
0100
0010
1000
,
0100
0000
0010
0100
0000
0010
0100
0000
,
1000
0100
0010
0100
,
1000
0100
0001
0100
,
1000
0100
0010
0001
,
2000
0000
0001
3001
,
0110
0100
0010
0010
,
2000
3100
0002
0013
,
0100
0100
1000
1000
,
0001
0100
0010
1000
,
0010
0010
0100
0100
,
0002
0013
2000
3100
,
0001
0010
1000
0010
,
0002
0000
2000
3003
,
0110
0100
0010
0010
,
0002
0103
2000
3010
,
0100
0100
0001
0001
,
1000
0100
0010
0001
,
0010
0010
0100
0100
,
2000
3010
0002
0103
,
1000
0010
0001
0010
,
2000
0000
0001
3001
,
0100
0100
0010
0010
,
0100
0100
0010
0010
,
1000
0100
0001
0100
,
2000
0000
0000
3000
,
1001
0000
0000
0000
;

//---------------dance-double - ----------------
#NOTES:
     dance-double:
     :
     Easy:
     6:
     0.288040,0.351196,0.074371,0.140478,0.000000,244.000000,235.000000,9.000000,17.000000,0.000000,0.000000,0.288040,0.351196,0.074371,0.140478,0.000000,244.000000,235.000000,9.000000,17.000000,0.000000,0.000000:
00000000
00000000
00000000
00000000
,
00000000
00000000
00000000
00000000
,
00000000
00000000
00000000
00000000
,
00000000
00000000
00000000
00000000
,
00000000
00000000
00000000
00000000
,
00000000
00000000
00000000
00000000
,
00000000
00000000
00000000
00000000
,
00000000
00000000
00000000
00000000
,
00000000
00000000
00000000
00000000
,
00001000
00000010
00000010
00000000
,
00000100
00001000
00001000
00000000
,
00010000
01000000
01000000
00000000
,
00100000
00010000
00010000
00000000
,
01000000
00100000
01000000
00100000
,
00010000
00001000
00010000
00001000
,
00000010
00000100
00000010
00000100
,
00000020
00000000
00000000
00000030
,
00000001
00000010
00001000
00000010
,
00000001
00000100
00002000
00003000
,
00010000
01000000
10000000
01000000
,
00100000
00010000
10000000
00000000
,
00100000
00010000
00001000
00000000
,
00000010
00001000
00010000
00000000
,
01000000
00010000
00001000
00000000
,
00000110
00000000
00001001
00000000
,
00000001
00000010
00001000
00000010
,
00000001
00000100
00002000
00003000
,
00010000
01000000
10000000
01000000
,
00100000
00010000
10000000
00000000
,
00100000
00010000
00001000
00000000
,
00000010
00001000
00010000
00000000
,
01000000
00010000
00001000
00000100
,
00000020
00000000
00000000
00000030
,
00001002
00000000
00000000
00000000
,
00000023
00000000
00000000
00000000
,
00002030
00000000
00000000
00000000
,
00023000
00000000
00000000
00000000
,
00230000
00000000
00000000
00000000
,
20300000
00000000
00000000
00000000
,
32000000
00000000
00000000
00000000
,
03000000
00000000
00000000
00000000
,
00100000
00100000
00100000
00000000
,
00001000
00001000
00001000
00000000
,
00010000
00010000
00010000
00000000
,
00000010
00000010
00000010
00000010
,
00000110
00000000
00001001
00000000
,
00011000
00000000
00011000
00000000
,
00010000
00100000
01000000
10000000
,
10010000
00000000
00000000
00000000
,
00010000
00100000
10000000
01000000
,
00010000
00001000
00010000
00000000
,
00001000
00000010
00000001
00000100
,
00001000
00010000
00001000
00001000
,
00010000
01000000
10000000
00100000
,
00010000
00001000
00010000
00001000
,
00000100
00000001
00000010
00001000
,
00020000
00000000
00000000
00030000
,
00001000
00000100
00000001
00000010
,
00001000
00010000
00001000
00000000
,
00010000
01000000
10000000
00100000
,
00010000
00001000
00010000
00010000
,
00001000
00000010
00000001
00000100
,
00001000
00010000
00001000
00010000
,
00100000
10000000
01000000
00010000
,
00002000
00000000
00003000
00001000
,
00100000
00100000
00010000
10000000
,
00100000
00010000
00001000
00010000
,
00001000
00001000
00100000
00001000
,
00010000
00000010
00000100
00000100
,
00000001
00000001
00000010
00000010
,
00000100
00000010
00000001
00000100
,
00001000
00010000
00001000
00010000
,
00002000
00000000
00023000
00000000
,
00030100
00000100
00001000
00001000
,
00000010
00000100
00000001
00000010
,
00001000
00001000
00010000
00010000
,
00001000
01000000
00100000
00100000
,
10000000
10000000
01000000
01000000
,
00100000
01000000
10000000
00100000
,
00010000
00001000
00010000
00001000
,
00020000
00000000
00030000
00010000
,
00000100
00001000
00000100
00001000
,
00000010
00010000
00000010
00010000
,
00001000
00010000
00100000
10000000
,
02000000
00000000
00000000
03000000
,
10010000
00000000
00000000
00000000
;

//---------------dance-double - ----------------
#NOTES:
     dance-double:
     :
     Medium:
     9:
     0.367133,0.421435,0.107425,0.380118,0.004132,311.000000,298.000000,13.000000,46.000000,0.000000,0.000000,0.367133,0.421435,0.107425,0.380118,0.004132,311.000000,298.000000,13.000000,46.000000,0.000000,0.000000:
00000000
00000000
00000000
00000000
,
00000000
00000000
00000000
00000000
,
00000000
00000000
00000000
00000000
,
00000000
00000000
00000000
00000000
,
00000000
00000000
00000000
00000000
,
00000000
00000000
00000000
00000000
,
00000000
00000000
00000000
00000000
,
00000000
00000000
00000000
00000000
,
00000000
00000000
00000000
00000000
,
00010000
00010000
00001000
00001000
,
00010000
00010000
00001000
00001000
,
00010000
00100000
10000000
01000000
,
00100000
00001000
00100000
00100000
,
00001000
00001000
00010000
00010000
,
00001000
00001000
00010000
00010000
,
00001000
00000100
00000001
00000010
,
00000200
00000000
00000000
00000300
,
00001000
00000000
00000001
00000100
00000000
00001000
00000100
00000000
,
00000001
00000010
00002000
00013000
,
00000010
00000000
00010000
00001000
00000000
00100000
00010000
00000000
,
10000000
00100000
00010000
01000000
,
10000000
00000000
00010000
00100000
00010000
00000000
00000000
00000000
,
10000000
00000000
00100000
00010000
00100000
00000000
00000000
00000000
,
00010000
00000000
00001000
00000000
00000010
00000000
00001000
00020000
,
00000000
00000000
01030000
00200000
00000000
00000000
00310000
00000000
,
00010000
00000000
10000000
00100000
00000000
00010000
00100000
00000000
,
10000000
01000000
00020000
00031000
,
01000000
00000000
00001000
00010000
00000000
00000100
00001000
00000000
,
00000001
00000100
00001000
00000010
,
00000001
00000000
00001000
00000100
00001000
00000000
00000000
00000000
,
00000001
00000000
00000100
00001000
00000100
00000000
00000000
00000000
,
00001000
00010000
00100000
01000000
,
00020000
00000000
10000000
10030000
,
02100000
00000000
10000000
00000000
,
03020000
00000000
00000000
00000000
,
00032000
00000000
00010000
00000000
,
00003200
00000000
00000000
00000000
,
00000302
00000000
00000010
00000000
,
00002003
00000000
00000100
00000000
,
00003020
00000000
00000001
00000000
,
00001030
00000000
00000000
00000000
,
00010000
00010000
00010000
00010000
,
00100000
00100000
00100000
00100000
,
00001000
00001000
00001000
00001000
,
00000100
00000100
00000100
00000100
,
00000011
00000000
00001100
00000000
,
00110000
00000000
11000000
00000000
,
10000000
00010000
00001000
00000001
,
00000010
00000000
00000000
00000100
00000000
00000000
00000110
00000000
00000000
00000000
00000000
00000000
00000000
00000000
00000000
00000000
,
00001001
00000000
00000001
00000100
00001000
00000000
00000100
00000000
,
00000001
00000000
00000010
00001000
00010000
00000000
00001000
00000000
,
00100000
00010000
01000000
00100000
,
10000000
00000000
01000000
00100000
00000000
01000000
10000000
00000000
,
01000000
00000000
00100000
00001000
00010000
00000000
00000100
00000000
,
00010000
00000000
00000010
00010000
00001000
00000000
00000100
00000000
,
00000001
00000000
00001000
00000010
00000000
00010000
00001000
00010000
,
00002000
00000000
01000000
01003000
,
10010000
00000000
10000000
00100000
00010000
00000000
00100000
00000000
,
10000000
00000000
01000000
00010000
00001000
00000000
00010000
00000000
,
00000100
00001000
00000010
00000100
,
00000001
00000000
00000010
00000100
00000000
00000010
00000001
00000000
,
00000010
00000000
00000100
00010000
00001000
00000000
00100000
00000000
,
00001000
00000000
01000000
00001000
00010000
00000000
00100000
00000000
,
10000000
00000000
00010000
01000000
00000000
00001000
00010000
00001000
,
00020000
00000000
00000010
00030010
,
00001000
00000000
00000100
00000000
00000010
00000000
00000010
00000002
,
00000000
00000203
00000000
00002300
00000000
00023000
00000000
00031000
,
02000000
00000000
03100000
00000000
10000000
00000000
10000000
02000000
,
00000000
03200000
00000000
00302000
00000000
00013000
00001000
00000000
,
00020000
00000000
00030010
00000000
00001000
00000000
00001000
00000200
,
00000000
00000320
00000000
00000032
00000000
00000203
00000000
00000310
,
00001000
00011000
00010000
00011000
,
00200000
00000000
00000000
00010000
00020000
00000000
00330000
00000000
,
00010000
00000000
01000000
00000000
00100000
00000000
00100000
20000000
,
00000000
32000000
00000000
03020000
00000000
00032000
00000000
00013000
,
00000200
00000000
00000310
00000000
00000001
00000000
00000001
00000200
,
00000000
00000320
00000000
00020030
00000000
00031000
00010000
00000000
,
00002000
00000000
00103000
00000000
00010000
00000000
00010000
02000000
,
00000000
03200000
00000000
20300000
00000000
32000000
00000000
03100000
,
00010000
00011000
00001000
00011000
,
00000200
00000000
00000000
00000320
00000000
00000130
00000010
00000100
,
00000010
00000010
00000001
00000001
,
00000100
00001000
00010000
01000000
,
00100000
00010000
00001000
00000010
,
00000200
00000000
00000010
00000310
,
00001001
00000000
00000000
00000000
;
