#TITLE:Reach Out To The Truth;
#SUBTITLE:(Moonbug REMIX);
#ARTIST:Moonbug;
#TITLETRANSLIT:;
#SUBTITLETRANSLIT:;
#ARTISTTRANSLIT:;
#GENRE:Anime/Game;
#CREDIT:;
#BANNER:Reach Out To The Truth (Moonbug REMIX).png;
#BACKGROUND:Reach Out To The Truth (Moonbug REMIX)-bg.png;
#LYRICSPATH:;
#CDTITLE:../cdtitle.png;
#MUSIC:Reach Out To The Truth (Moonbug REMIX).ogg;
#OFFSET:-0.030000;
#SAMPLESTART:87.582001;
#SAMPLELENGTH:15.000000;
#SELECTABLE:YES;
#BPMS:0.000000=87.000000
,16.000000=174.000000
,144.000000=87.000000
,192.000000=174.000000
,256.000000=87.000000
;
#STOPS:
;
#BGCHANGES:-99.000=../bg.avi=1.000=0=0=1=====,
99999=-nosongbg-=1.000=0=0=0 // don't automatically add -songbackground-
;
#KEYSOUNDS:;
#ATTACKS:;

//---------------dance-single - ----------------
#NOTES:
     dance-single:
     :
     Beginner:
     2:
     0.079760,0.133681,0.000000,0.039318,0.000000,71.000000,71.000000,0.000000,5.000000,0.000000,0.000000,0.079760,0.133681,0.000000,0.039318,0.000000,71.000000,71.000000,0.000000,5.000000,0.000000,0.000000:
// measure 0
0000
0000
0000
0000
,  // measure 1
0000
0000
0000
0000
,  // measure 2
0000
0000
0000
0000
,  // measure 3
0000
0000
0000
0000
,  // measure 4
1000
0000
0000
0000
,  // measure 5
1000
0000
0000
0000
,  // measure 6
0001
0000
0000
0000
,  // measure 7
0001
0000
0000
0000
,  // measure 8
0010
0000
0000
0000
,  // measure 9
0100
0000
0000
0000
,  // measure 10
0010
0000
0000
0000
,  // measure 11
0100
0000
0000
0000
,  // measure 12
1000
0000
0000
0000
,  // measure 13
0001
0000
0000
0000
,  // measure 14
1000
0000
0000
0000
,  // measure 15
0001
0000
0000
0000
,  // measure 16
0010
0000
0000
0000
,  // measure 17
0001
0000
0000
0000
,  // measure 18
1000
0000
0000
0000
,  // measure 19
0100
0000
0000
0000
,  // measure 20
0001
0000
0000
0000
,  // measure 21
0100
0000
0000
0000
,  // measure 22
0010
0000
0000
0000
,  // measure 23
1000
0000
0000
0000
,  // measure 24
1000
0000
0000
0000
,  // measure 25
0100
0000
0000
0000
,  // measure 26
0010
0000
0000
0000
,  // measure 27
0001
0000
0000
0000
,  // measure 28
0100
0000
0000
0000
,  // measure 29
0000
0000
0000
0000
,  // measure 30
0000
0000
0000
0000
,  // measure 31
0000
0000
0000
0000
,  // measure 32
0200
0000
0000
0000
,  // measure 33
0000
0000
0300
0000
,  // measure 34
0020
0000
0000
0000
,  // measure 35
0000
0000
0030
0000
,  // measure 36
0010
0000
0010
0000
,  // measure 37
0001
0000
1000
0000
,  // measure 38
1000
0000
0100
0000
,  // measure 39
0001
0000
0001
0000
,  // measure 40
1000
0000
0001
0000
,  // measure 41
1000
0000
0100
0000
,  // measure 42
0001
0000
0100
0000
,  // measure 43
0010
0000
0010
0000
,  // measure 44
0200
0000
0000
0300
,  // measure 45
2000
0000
0000
3000
,  // measure 46
0002
0000
0000
0003
,  // measure 47
0000
0000
0000
0000
,  // measure 48
0010
0000
0000
0000
,  // measure 49
0010
0000
0000
0000
,  // measure 50
1000
0000
0000
0000
,  // measure 51
0100
0000
0000
0000
,  // measure 52
0100
0000
0000
0000
,  // measure 53
0001
0000
0000
0000
,  // measure 54
1000
0000
0000
0000
,  // measure 55
0010
0000
0000
0000
,  // measure 56
0010
0000
0000
0000
,  // measure 57
0010
0000
0000
0000
,  // measure 58
0001
0000
0000
0000
,  // measure 59
0100
0000
0000
0000
,  // measure 60
0100
0000
0000
0000
,  // measure 61
1000
0000
0000
0000
,  // measure 62
0001
0000
0000
0000
,  // measure 63
0010
0000
0000
0000
,  // measure 64
0010
0000
0100
0000
,  // measure 65
0010
0000
0100
0000
,  // measure 66
1000
0000
0001
0000
,  // measure 67
1000
0000
0001
0000
,  // measure 68
0100
0000
0000
0000
;

//---------------dance-single - ----------------
#NOTES:
     dance-single:
     :
     Easy:
     5:
     0.222428,0.293559,0.023591,0.094363,0.000000,198.000000,195.000000,3.000000,12.000000,0.000000,0.000000,0.222428,0.293559,0.023591,0.094363,0.000000,198.000000,195.000000,3.000000,12.000000,0.000000,0.000000:
// measure 0
0000
0000
0000
0000
,  // measure 1
0000
0000
0000
0000
,  // measure 2
0000
0000
0000
0000
,  // measure 3
0000
0000
0000
0000
,  // measure 4
0001
0000
0100
0000
,  // measure 5
1000
0001
0001
0100
,  // measure 6
1000
0000
0100
0000
,  // measure 7
0001
0100
0100
1000
,  // measure 8
1000
0000
0010
0000
,  // measure 9
0001
1000
1000
0010
,  // measure 10
0001
0000
0010
0000
,  // measure 11
1000
0010
0010
0001
,  // measure 12
0001
0000
1000
0000
,  // measure 13
0010
0010
0010
0100
,  // measure 14
1000
0000
0001
0000
,  // measure 15
0100
0100
0100
0010
,  // measure 16
1000
0000
0010
0000
,  // measure 17
0001
0100
1000
1000
,  // measure 18
0001
0000
0100
0000
,  // measure 19
1000
0010
0001
0001
,  // measure 20
0001
0100
0001
0000
,  // measure 21
1000
0100
1000
0000
,  // measure 22
0001
0010
0001
0000
,  // measure 23
1000
0010
1000
0000
,  // measure 24
0001
0010
0100
0000
,  // measure 25
1000
0010
0100
0000
,  // measure 26
0001
0100
1000
0000
,  // measure 27
1000
0100
0001
1000
,  // measure 28
0001
0000
0000
0000
,  // measure 29
0000
0000
0000
0000
,  // measure 30
0000
0000
0000
0000
,  // measure 31
0000
0000
0000
0000
,  // measure 32
0020
0000
0000
0000
,  // measure 33
0000
0000
0000
0000
,  // measure 34
0100
0100
0100
0100
,  // measure 35
0130
0010
0010
0010
,  // measure 36
0010
0001
1000
1000
,  // measure 37
0001
0010
0100
1000
,  // measure 38
0002
1003
0002
1003
,  // measure 39
0020
0130
0200
0310
,  // measure 40
0001
0101
0100
1100
,  // measure 41
1000
2000
3010
0002
,  // measure 42
2003
0000
3100
0000
0001
0001
0001
0000
,  // measure 43
0010
0010
0001
0200
,  // measure 44
2300
0000
0100
0100
,  // measure 45
3002
0000
0010
0010
,  // measure 46
0203
0000
0000
0000
1000
0000
1000
0300
,  // measure 47
0000
0000
0000
0010
,  // measure 48
0110
1000
0001
0000
,  // measure 49
0010
0001
0100
0000
,  // measure 50
0010
1000
0100
0100
,  // measure 51
0001
1000
0010
0000
,  // measure 52
0001
0100
0100
0000
,  // measure 53
1000
0010
0010
0000
,  // measure 54
0010
0001
0100
0001
,  // measure 55
0010
0001
1000
0000
,  // measure 56
1000
0100
1000
0000
,  // measure 57
1000
0010
1000
0000
,  // measure 58
0001
0100
1000
0000
,  // measure 59
0001
0010
1000
0000
,  // measure 60
1000
0100
0001
0000
,  // measure 61
1000
0010
0001
0000
,  // measure 62
1000
0001
0100
1000
,  // measure 63
0001
0100
1000
0010
,  // measure 64
0001
1000
0001
0001
,  // measure 65
0100
0010
0100
0100
,  // measure 66
0010
0001
0100
1000
,  // measure 67
0001
0000
0010
0000
1000
0000
0100
0100
;

//---------------dance-single - ----------------
#NOTES:
     dance-single:
     :
     Medium:
     8:
     0.316791,0.480369,0.235908,0.165136,0.000000,282.000000,252.000000,30.000000,21.000000,0.000000,0.000000,0.316791,0.480369,0.235908,0.165136,0.000000,282.000000,252.000000,30.000000,21.000000,0.000000,0.000000:
// measure 0
0000
0000
0000
0000
,  // measure 1
0000
0000
0000
0000
,  // measure 2
0000
0000
0000
0000
,  // measure 3
0000
0000
0000
0000
,  // measure 4
1100
0010
0001
0100
,  // measure 5
1000
0000
0100
0000
0001
0010
0001
0000
,  // measure 6
1010
0100
1000
0100
,  // measure 7
0010
0000
0001
0000
1000
0100
0001
0000
,  // measure 8
0011
0010
1000
0100
,  // measure 9
0001
0000
0010
0000
0001
0100
1000
0000
,  // measure 10
0101
1000
0010
0001
,  // measure 11
1000
0000
0100
0000
1000
0010
0100
0000
,  // measure 12
1001
0000
0100
0000
0000
1000
0100
0000
,  // measure 13
2000
3020
0230
0302
,  // measure 14
0013
0000
0001
0000
0000
1000
0100
0000
,  // measure 15
0002
0203
2300
3020
,  // measure 16
0130
0000
0001
0000
0000
0010
0001
0000
,  // measure 17
0200
2300
3002
0203
,  // measure 18
1300
0000
0001
0000
0000
1000
0100
0000
,  // measure 19
0020
0000
0130
0010
0100
0000
0011
0000
,  // measure 20
1001
0001
1000
0001
,  // measure 21
0100
0001
0010
0100
,  // measure 22
1000
0100
1000
0001
,  // measure 23
0010
1000
0002
0103
,  // measure 24
1001
1000
0001
1000
,  // measure 25
0010
1000
0100
0010
,  // measure 26
0001
0010
0001
1000
,  // measure 27
0100
0001
2000
3010
,  // measure 28
0100
0000
0000
0000
,  // measure 29
0000
0000
0000
0000
,  // measure 30
0000
0000
0000
0000
,  // measure 31
0000
0000
0000
0000
,  // measure 32
0020
0000
0000
0000
,  // measure 33
0000
0000
0000
0000
,  // measure 34
1030
1000
1000
1000
,  // measure 35
0100
0000
0001
0000
0010
0010
0010
0000
,  // measure 36
0110
1001
1100
0101
,  // measure 37
1000
0000
0010
0010
0011
0000
1010
0000
,  // measure 38
0110
0000
1001
0000
0010
0010
0010
0100
,  // measure 39
1100
0101
2020
3030
,  // measure 40
0001
0010
0011
0000
1000
0100
1100
0000
,  // measure 41
0110
1001
0110
1001
,  // measure 42
0010
0000
0100
0000
1000
0001
0001
0000
,  // measure 43
1000
0000
0001
0100
1000
0000
1000
0000
,  // measure 44
0200
0000
0000
0000
0301
0001
0001
1000
,  // measure 45
0020
0000
0000
0000
1030
1000
1000
0100
,  // measure 46
0002
0000
0000
0000
0013
0010
0010
0100
,  // measure 47
0000
0100
0000
0100
0000
0100
0010
0100
,  // measure 48
0110
1000
0100
0001
,  // measure 49
0110
0001
0100
1000
,  // measure 50
0010
0001
0010
1000
,  // measure 51
0100
0001
0100
1000
,  // measure 52
0010
0001
0010
0001
,  // measure 53
0100
1000
0100
1000
,  // measure 54
0001
0100
0001
0100
,  // measure 55
1000
0010
1000
0010
,  // measure 56
0110
0001
0010
1000
,  // measure 57
0110
1000
0010
0001
,  // measure 58
0100
1000
0100
0001
,  // measure 59
0010
1000
0010
0001
,  // measure 60
0100
1000
0100
1000
,  // measure 61
0010
0001
0010
0001
,  // measure 62
1000
0010
1000
0010
,  // measure 63
0001
0100
0001
0100
,  // measure 64
1000
1000
0000
0100
0000
1000
0000
0001
,  // measure 65
0000
0100
0000
0010
0000
0001
0000
0100
,  // measure 66
0000
1000
0000
0001
0000
0100
0000
0001
,  // measure 67
0000
0010
0000
1000
0000
0001
1001
0001
;

//---------------dance-single - ----------------
#NOTES:
     dance-single:
     :
     Hard:
     11:
     0.449349,0.533743,0.440362,0.243772,0.058977,400.000000,344.000000,56.000000,31.000000,0.000000,0.000000,0.449349,0.533743,0.440362,0.243772,0.058977,400.000000,344.000000,56.000000,31.000000,0.000000,0.000000:
// measure 0
0000
0000
0000
0000
,  // measure 1
0000
0000
0000
0000
,  // measure 2
0000
0000
0000
0000
,  // measure 3
0000
0000
0000
0000
,  // measure 4
0110
0000
1001
0000
0001
0100
1000
0000
,  // measure 5
0001
0010
1000
0010
0001
0100
1000
0000
,  // measure 6
0110
0000
1001
0000
1000
0010
0001
0000
,  // measure 7
1000
0100
0001
0100
1000
0010
0001
0000
,  // measure 8
0011
0000
1100
0000
0010
1000
0100
0000
,  // measure 9
0010
0001
0100
0010
1000
0100
0010
0000
,  // measure 10
1010
0000
0101
0000
0010
0001
0100
0000
,  // measure 11
0001
0100
1000
0010
0001
0010
1000
0000
,  // measure 12
1100
0000
0001
0010
0001
0100
1000
0000
,  // measure 13
1100
0101
0011
1010
,  // measure 14
0110
0000
1000
0100
0001
0100
1000
0000
,  // measure 15
1010
0000
0010
0001
0011
0000
2010
0000
,  // measure 16
3001
0000
0001
0010
0100
1000
0100
0000
,  // measure 17
0201
0310
1200
0310
,  // measure 18
1001
0000
1000
0100
0010
0100
1000
0000
,  // measure 19
0010
0100
0010
0100
1010
0000
0011
0000
,  // measure 20
1001
0000
1000
0000
0000
0001
0110
0000
,  // measure 21
0001
0000
1000
0100
0001
0000
1000
0000
,  // measure 22
1001
0000
0001
0000
0000
1000
0110
0000
,  // measure 23
1000
0000
0001
0010
1000
0000
0001
0000
,  // measure 24
1010
0000
0100
0000
0001
0010
0100
0000
,  // measure 25
1000
0010
0100
0001
0010
0000
0100
0000
,  // measure 26
0011
0000
0100
0000
1000
0010
0100
0000
,  // measure 27
0001
0010
0100
1000
0010
0010
0001
0001
,  // measure 28
0200
0000
0000
0000
,  // measure 29
0000
0000
0000
0000
,  // measure 30
0300
0000
0000
0000
,  // measure 31
0000
0000
0000
0000
,  // measure 32
2002
0000
0000
0000
,  // measure 33
0000
0000
0000
0000
0000
0000
0000
3003
,  // measure 34
1000
0100
1000
0100
0010
0001
0010
0001
,  // measure 35
0100
0010
1000
0100
0010
0001
0100
0100
,  // measure 36
0110
0000
0000
0001
1000
0000
0000
0000
0110
0000
0000
1000
0001
0000
0100
0000
,  // measure 37
1000
1000
0001
0001
2000
0000
3020
0000
,  // measure 38
0230
0000
0302
0000
1003
1000
0002
2003
,  // measure 39
3020
0001
0230
1000
0310
0010
0010
0100
,  // measure 40
0110
0000
0000
1000
0001
0000
0000
0000
0110
0000
0000
0001
1000
0000
0010
0000
,  // measure 41
0001
0001
1000
1000
0002
0000
0203
0000
,  // measure 42
0320
0000
2030
0000
3001
0001
2000
3002
,  // measure 43
0203
1000
0320
0001
0130
0100
0100
0010
,  // measure 44
2000
0000
0000
0000
0000
0000
3010
0001
0010
0001
0010
0001
,  // measure 45
0200
0000
0000
0000
0000
0000
0000
0000
0000
0000
0000
0000
1300
0000
0010
0000
1000
0000
0020
0000
0000
0032
0000
0000
,  // measure 46
0203
0000
0000
0000
0000
0000
1300
0001
1000
0001
1000
0001
,  // measure 47
0000
0000
0100
0000
0000
0000
0010
0000
0000
0000
0100
0000
0010
0100
0010
0000
,  // measure 48
0110
0000
0100
0000
0010
0001
0100
0000
,  // measure 49
1010
0000
0001
0000
0010
1000
0100
0000
,  // measure 50
0101
0000
0010
0000
1000
0100
0010
0001
,  // measure 51
0200
0000
0301
0010
0001
0000
1000
0000
,  // measure 52
1100
0000
1000
0010
0100
0000
1000
0000
,  // measure 53
0100
0001
0010
0001
0100
1000
0100
0000
,  // measure 54
0011
0000
1010
0000
0100
0001
0100
1000
,  // measure 55
0200
0000
0010
0000
0010
0000
0310
0100
,  // measure 56
1010
0000
0010
0000
0100
1000
0010
0000
,  // measure 57
0101
0000
1000
0000
0100
0001
0010
0000
,  // measure 58
1010
0000
0100
0000
0001
0010
0100
1000
,  // measure 59
0020
0000
1030
0100
1000
0000
0001
0000
,  // measure 60
0011
0000
0001
0100
0010
0000
0001
0000
,  // measure 61
0010
1000
0100
1000
0010
0001
0010
0000
,  // measure 62
1100
0000
0101
0000
0010
1000
0010
0001
,  // measure 63
0020
0000
0130
0000
1000
0010
0100
0001
,  // measure 64
0010
0000
0110
1000
0100
0000
0110
0001
,  // measure 65
0100
0000
1001
0010
0100
0000
1001
0010
,  // measure 66
0100
0000
0011
0010
0010
0101
1100
0000
,  // measure 67
0110
0000
0110
1000
0001
0000
0110
1001
;

//---------------dance-single - ----------------
#NOTES:
     dance-single:
     :
     Challenge:
     14:
     0.603252,0.880676,0.345999,0.283090,0.306681,537.000000,493.000000,44.000000,36.000000,0.000000,0.000000,0.603252,0.880676,0.345999,0.283090,0.306681,537.000000,493.000000,44.000000,36.000000,0.000000,0.000000:
// measure 0
0000
0000
0000
0000
,  // measure 1
0000
0000
0000
0000
,  // measure 2
0000
0000
0000
0000
,  // measure 3
0000
0000
0000
0000
,  // measure 4
1010
0001
0100
1000
0100
0010
1000
0100
,  // measure 5
0010
0001
0100
1000
0001
0010
0100
0000
,  // measure 6
0001
0010
1000
0010
0001
1000
0100
0010
,  // measure 7
1000
0000
0001
0000
0100
0000
1000
0000
0001
0010
0001
0000
0100
0000
0000
0000
,  // measure 8
1000
0100
0001
1000
0100
0001
0100
0010
,  // measure 9
0001
0100
0010
1000
0100
0001
0100
0000
,  // measure 10
1000
0100
0001
0100
1000
0010
0001
0010
,  // measure 11
1000
0100
0001
1000
0010
0001
0100
0010
,  // measure 12
1100
0100
0010
1000
0001
0100
0010
1000
,  // measure 13
1020
0130
0021
0130
,  // measure 14
1000
0100
0001
0010
1000
0010
0001
0100
,  // measure 15
2100
0000
3100
0001
0102
0000
1003
0000
,  // measure 16
0010
0100
1000
0100
0010
0001
0010
0100
,  // measure 17
0201
1300
1020
0031
,  // measure 18
0001
0100
1000
0010
0010
0100
1000
0001
,  // measure 19
0010
0100
0010
0100
0101
0000
1010
0000
,  // measure 20
1001
0100
0001
0010
1000
0010
0001
0100
,  // measure 21
0010
0010
0001
1000
0010
0010
0001
0000
,  // measure 22
0100
0010
1000
0100
0001
0100
1000
0010
,  // measure 23
0100
0100
1000
0001
0100
0100
2000
0000
,  // measure 24
3010
1000
0100
1000
0010
0001
0010
1000
,  // measure 25
1000
0100
0001
1000
0020
0000
2030
0000
,  // measure 26
3100
0001
0010
0001
0100
1000
0100
0001
,  // measure 27
0001
0010
1000
0001
0100
0010
0100
1000
,  // measure 28
0020
0000
0000
0000
,  // measure 29
0000
0000
0000
0000
,  // measure 30
0100
0000
0000
0000
,  // measure 31
0100
0000
0000
0030
,  // measure 32
2002
0000
0000
0000
,  // measure 33
0000
0000
0000
0000
0000
0000
0000
3003
,  // measure 34
0001
1000
0001
1000
0010
0100
0010
0100
,  // measure 35
0001
0000
0100
0000
0010
0000
1000
0000
0001
0010
0001
0000
1000
0010
1000
0010
,  // measure 36
2000
0000
0000
0100
3001
0000
1000
0000
0002
0000
0000
0100
2003
0000
3002
0000
,  // measure 37
1003
0000
1000
0001
0001
0010
0100
0010
0020
0000
0031
1000
0200
0000
2300
0000
,  // measure 38
3020
0000
0000
0000
0000
0000
0000
0000
0000
0130
0000
0000
0001
0000
0010
0000
0001
0000
0100
0000
0000
0000
0000
0000
1010
0000
0000
0000
1001
0000
0000
0000
0101
0000
0000
0000
1000
0000
0100
0000
1000
0000
0100
0000
0010
0000
0100
0000
,  // measure 39
0020
0000
0100
0000
0031
0001
0000
0002
0100
0000
0013
1000
1000
0020
0100
0000
,  // measure 40
0032
0000
0000
0010
1003
0000
0001
0000
2000
0000
0000
0010
3002
0000
2003
0000
,  // measure 41
3001
0000
0001
1000
1000
0100
0010
0100
0200
0000
1300
0001
0020
0000
0032
0000
,  // measure 42
2003
0000
0000
0100
0000
0000
3000
0000
0000
2000
0000
0000
0001
0000
0000
0000
0000
0000
3010
0000
0000
0100
0000
0000
0110
0000
0000
0000
0000
0000
0110
0000
0000
0000
0000
0000
0001
0000
0010
0000
0001
0000
1000
0000
0010
0000
1000
0000
,  // measure 43
0101
0000
0011
0000
0010
1000
0100
0000
1010
0000
1100
0010
0001
0100
0011
0000
,  // measure 44
2000
0000
0000
0000
0000
0000
0000
0000
0000
0100
0000
0000
0000
0000
0000
0000
0000
0000
0010
0000
0000
0000
0000
0000
3001
0000
0000
0000
0001
0000
0000
0000
0001
0000
0000
0000
0100
0000
0000
0000
0100
0000
0000
0000
0100
0000
0000
0000
,  // measure 45
2000
0000
0000
0000
0000
0000
0000
0000
0000
0010
0000
0000
0000
0000
0000
0000
0000
0000
0100
0000
0000
0000
0000
0000
3001
0000
0000
0000
0001
0000
0000
0000
0001
0000
0000
0000
0010
0000
0001
0000
0100
0000
0010
0000
1000
0000
0100
0000
,  // measure 46
0020
0000
0000
0000
0000
0000
0000
0000
0000
1000
0000
0000
0000
0000
0000
0000
0000
0000
0100
0000
0000
0000
0000
0000
0031
0000
0000
0000
0100
0000
0000
0000
0100
0000
0000
0000
1000
0000
0000
0000
0100
0000
0000
0000
0100
0000
0000
0000
,  // measure 47
0000
0000
0000
0000
1010
0000
0000
0000
0000
0000
0000
0000
0011
0000
0000
0000
0000
0000
0000
0000
0101
0000
0000
0000
1100
0000
0010
0000
0100
0010
0100
0000
,  // measure 48
1001
0010
1000
0010
0001
0001
0100
0010
,  // measure 49
0100
1000
0100
0010
1000
0100
0010
1000
,  // measure 50
0010
0001
0100
0010
0001
0010
0100
0001
,  // measure 51
0010
1000
0100
1000
0010
0001
0100
0000
,  // measure 52
1000
0100
0010
1000
0100
0010
0001
0100
,  // measure 53
0010
0000
0000
1000
0000
0000
0010
0000
0000
1000
0000
0000
0010
0000
0100
0000
0001
0000
0010
0000
0100
0000
0001
0000
,  // measure 54
0100
1000
0001
0100
0010
0001
0010
0100
,  // measure 55
1000
0000
0100
0000
0001
0000
0100
0000
1000
0000
1000
0000
0100
0010
0100
0010
,  // measure 56
0100
0001
0010
0001
1000
0100
0010
0000
,  // measure 57
0100
1000
0010
1000
0001
0100
0010
0000
,  // measure 58
1000
0010
0100
1000
0010
0001
0100
1000
,  // measure 59
0002
0000
1003
0100
0001
0000
0110
0000
,  // measure 60
0001
0100
1000
0010
0001
0000
0010
1000
,  // measure 61
0100
0000
0000
1000
0000
0000
0100
0000
0000
1000
0000
0000
0001
0000
0010
0000
0100
0000
1000
0000
0100
0000
0010
0000
,  // measure 62
0001
0010
0001
0100
0010
1000
0100
1000
,  // measure 63
0001
0010
0010
1000
0001
0100
0100
1000
,  // measure 64
0001
0000
0101
0100
0100
0000
1100
0000
1000
0000
0011
0001
0001
0000
1010
0000
,  // measure 65
0100
0000
0011
0100
0100
0000
1010
0000
0100
0000
0011
0001
1000
0000
1001
0000
,  // measure 66
0010
0000
1100
0100
0010
0000
0101
0000
0010
0000
1100
0000
1000
0001
0010
0000
,  // measure 67
0110
0000
0000
0000
1001
0000
0100
0000
1000
0000
0000
0000
0101
0000
0000
0000
0001
0000
0000
0000
1100
0000
1000
0100
1000
0000
0000
0000
0011
0000
0000
0000
;

//---------------dance-double - ----------------
#NOTES:
     dance-double:
     :
     Easy:
     5:
     0.210071,0.266871,0.078636,0.133681,0.000000,187.000000,177.000000,10.000000,17.000000,0.000000,0.000000,0.210071,0.266871,0.078636,0.133681,0.000000,187.000000,177.000000,10.000000,17.000000,0.000000,0.000000:
00000000
00000000
00000000
00000000
,
00000000
00000000
00000000
00000000
,
00000000
00000000
00000000
00000000
,
00000000
00000000
00000000
00000000
,
00100000
00100000
00000000
00001000
,
00000000
00000010
00000000
00010000
,
00000000
00000100
00000000
00010000
,
00000000
01000000
01000000
01000000
,
10000000
00010000
00000000
00001000
,
00000000
00010000
00000000
00001000
,
00000000
00000001
00000000
00001000
,
00000000
00000010
00000100
00000100
,
00001001
00000100
00000000
00000100
,
00001000
00000010
00020000
00030000
,
10010000
00100000
00000000
00100000
,
00010000
01000000
00002000
00003000
,
00011000
00001000
00000000
00000001
,
00000000
00000100
00000000
00001000
,
00011000
00010000
00000000
10000000
,
00000000
01000000
00000000
00010000
,
01100000
10000000
00000000
00010000
,
00001000
00010000
00000000
00001000
,
00000110
00000001
00000000
00001000
,
00010000
00001000
00000000
00010000
,
01000000
10000000
00000000
00100000
,
00000000
01000000
00000000
00001000
,
00000100
00000001
00000000
00000010
,
00000000
00000100
00000000
00010000
,
00011000
00000000
00000000
00000000
,
00000000
00000000
00000000
00000000
,
00000000
00000000
00000000
00000000
,
00000000
00000000
00000000
00000000
,
00000200
00000000
00000000
00000000
,
00000000
00000000
00000000
00000000
,
00000310
00000010
00001000
00001000
,
00010000
00010000
01000000
00100000
,
10010000
10000000
00010000
00010000
,
00100000
01000000
02000000
13000000
,
00100000
00000000
01000000
00000000
00010000
00001000
00001000
00000000
,
00001000
00000010
00000002
00000003
,
00000200
00000300
00000020
00000030
,
00000100
00000001
00000020
00000030
,
00002000
00000000
00003000
00000000
00010000
00010000
00010000
00000000
,
00001000
10000000
00010000
01000000
,
00200000
00000000
10300000
10000000
,
02000000
00000000
03010000
00010000
,
00002000
00000000
00000000
00000000
00010000
00000000
00010000
00003000
,
00000000
00000000
00000000
00000000
,
00001001
00000100
00000100
00000000
,
00000110
00000001
00000001
00000000
,
00001000
00001000
00010000
00100000
,
20000000
30000000
01000000
00000000
,
10000000
01000000
00010000
00000000
,
10000000
00100000
00010000
01000000
,
00002000
00003000
00020000
00030000
,
00002000
00000000
00003000
00001000
,
00000010
00000100
00000010
00000000
,
00000001
00001000
00000001
00000000
,
00000100
00001000
00001000
00010000
,
00020000
00030000
00001000
00000000
,
01000000
00100000
00010000
00000000
,
10000000
00010000
10000000
00010000
,
00100000
00100000
01000000
00000000
,
10000000
10000000
00100000
00000000
,
01000000
00000100
00000100
01000000
,
00100000
00000010
00000010
00100000
,
10000000
00001000
00001000
00010000
,
00001000
00000000
00000001
00000000
00001000
00000000
00010000
00010000
;

//---------------dance-double - ----------------
#NOTES:
     dance-double:
     :
     Medium:
     8:
     0.288707,0.400307,0.117954,0.125818,0.000000,257.000000,242.000000,15.000000,16.000000,0.000000,0.000000,0.288707,0.400307,0.117954,0.125818,0.000000,257.000000,242.000000,15.000000,16.000000,0.000000,0.000000:
00000000
00000000
00000000
00000000
,
00000000
00000000
00000000
00000000
,
00000000
00000000
00000000
00000000
,
00000000
00000000
00000000
00000000
,
00010000
01000000
00001000
00000000
,
00001000
00000100
00010000
00000000
,
00000010
00000001
00001000
00000100
,
00010000
00000000
01000000
00000000
10000000
00010000
01000000
00000000
,
00100000
00010000
00001000
00000000
,
00010000
00001000
00000010
00000000
,
00001000
00000010
00000001
00001000
,
00000010
00000000
00010000
00000000
00001000
01000000
00010000
00000000
,
10010000
00010000
00001000
01000000
,
00010000
10000000
00010000
10000000
,
00100000
00010000
00001000
00010000
,
00100000
00000000
00001000
00010000
00010000
00000000
00000010
00000000
,
00000110
00000001
00000100
00001000
,
00010000
00001000
00010000
00001000
,
00100000
10000000
00100000
00010000
,
01000000
01000000
00100000
00100000
01000000
00000000
00100000
00000000
,
10010000
00010000
10000000
01000000
,
00001000
00010000
00000100
00000001
,
00001001
00001000
00000001
00000100
,
00010000
00001000
01000000
10000000
,
00110000
10000000
00100000
00010000
,
01000000
00001000
00001000
00010000
,
00001010
00000001
00000010
00001000
,
00000100
00010000
00010000
00001000
,
00011000
00000000
00000000
00000000
,
00000000
00000000
00000000
00000000
,
00000000
00000000
00000000
00000000
,
00000000
00000000
00000000
00000000
,
02000000
00000000
00000000
00000000
,
00000000
00000000
00000000
00000000
,
13000000
10000000
00010000
00010000
,
00001000
00000000
00001000
00000000
00000100
00000010
00000100
00000000
,
00001001
00000002
00001003
00000020
,
00010030
00001000
00001000
00000000
02000000
00000000
03020000
00000000
,
20030000
00000000
31000000
00000000
00100000
00100000
00001000
00001000
,
00000100
00000002
00000023
00000230
,
00001300
00000200
00010300
00000200
,
00000310
00000001
00001000
00010000
,
00200000
00000000
01300000
00000000
01100000
01100000
10000000
10000000
,
00010000
00101000
00001000
00010100
,
00000002
00000000
00001000
00001003
,
00002000
00000000
00010000
01003000
,
00200000
00000000
00000000
00000000
10000000
00000000
01000000
00300000
,
00000000
00010000
00000000
00010000
00000000
00010000
00001000
00010000
,
00011000
00000100
00001000
00000001
,
00000010
00000100
00010000
00001000
,
00000010
00001000
01000000
00100000
,
10000000
10000000
01000000
01000000
,
00010000
01000000
10000000
01000000
,
00100000
00100000
00001000
00010000
,
00001000
00001000
00000001
00000100
,
00000020
00000000
00000130
00001000
,
00000001
00000000
00000001
00000010
00000001
00000000
00000100
00000000
,
00001000
00000000
00001000
00010000
00001000
00000000
00010000
00000000
,
00100000
00010000
00001000
00010000
,
10000000
01000000
00100000
00010000
,
00001000
00000100
00000010
00000001
,
00000110
00001001
00000100
00001000
,
00010000
00010000
00001000
00001000
,
01000000
00010000
00100000
10000000
,
01000000
00010000
00000100
00001000
,
00100000
00010000
00000010
00001000
,
00000001
00000000
00001000
00000000
00000001
00001000
00010000
00000000
,
10000000
00000000
00010000
00000000
10000000
00000000
00010000
00001000
;

//---------------dance-double - ----------------
#NOTES:
     dance-double:
     :
     Hard:
     11:
     0.414525,0.507056,0.345999,0.259499,0.086500,369.000000,325.000000,44.000000,33.000000,0.000000,0.000000,0.414525,0.507056,0.345999,0.259499,0.086500,369.000000,325.000000,44.000000,33.000000,0.000000,0.000000:
00000000
00000000
00000000
00000000
,
00000000
00000000
00000000
00000000
,
00000000
00000000
00000000
00000000
,
00000000
00000000
00000000
00000000
,
10100000
01000000
00010000
01000000
,
10000000
00000000
00100000
00000000
00010000
00001000
00010000
00000000
,
00000100
00000001
00000100
00001000
,
00000010
00000000
00000100
00000000
00001000
00000100
00000001
00000000
,
00000101
00000010
00001000
00000010
,
00000001
00000000
00000100
00000000
00001000
00010000
00001000
00000000
,
00100000
10000000
00100000
00010000
,
01000000
00000000
00100000
00000000
00010000
00100000
10000000
00000000
,
01100000
00000000
10000000
00010000
01000000
00000000
10000000
00000000
,
02010000
03001000
00012000
01003000
,
00100000
00000000
01000000
00100000
10000000
00000000
01000000
00000000
,
00100000
00010000
00001000
00000100
00000010
00000000
00001001
00000000
,
00000110
00000000
00000001
00001000
00000100
00000000
00000001
00000000
,
00001200
00010300
00021000
00030100
,
00000010
00000000
00000100
00000010
00000001
00000000
00000100
00000000
,
00000010
00001000
00010000
01000000
00100000
00000000
10010000
00000000
,
11000000
00000000
00010000
00000000
10000000
01000000
00010000
00000000
,
00001000
00000100
00000001
00000020
00000100
00000000
00000130
00000000
,
00001000
00000000
01000000
00000000
00100000
00010000
01000000
00000000
,
00100000
00000000
10000000
01000000
00010000
00000000
00001000
00000000
,
00000011
00000000
00001000
00000000
00000001
00000010
00001000
00000000
,
00010000
00100000
10000000
02000000
00100000
00000000
03100000
00000000
,
00010000
00000000
00000010
00000000
00000100
00001000
00000010
00000000
,
00000100
00000000
00000001
00000010
00001000
00000000
00010000
00000000
,
00022000
00000000
00000000
00000000
,
00000000
00000000
00000000
00000000
,
00033000
00000000
00000000
00000000
,
00000000
00000000
00000000
00000000
,
02000000
00000000
00000000
00000000
,
00000000
00000000
00000000
00000000
,
13000000
00100000
10000000
00100000
01000000
00010000
01000000
00010000
,
00001000
00000100
00001000
00000100
00000010
00000001
00000010
00000001
,
00001020
00000000
00000030
00010000
00001000
00000000
00000000
00000000
00210000
00000000
00300000
00001000
00010000
00000000
00000000
00000000
,
10000000
01000000
00000000
00100000
00000000
00100000
00000000
00100000
02000000
00000000
00000000
00000000
03020000
00000000
00000000
00000000
,
00032000
00000000
00103000
00000000
01001000
00011000
00020000
00030200
,
00000310
00000101
00002002
00003003
,
00001200
00000000
00000300
00010000
00001000
00000000
00000000
00000000
02010000
00000000
03000000
00001000
00010000
00000000
00000000
00000000
,
10000000
00000000
00100000
01000000
00000000
01000000
00000000
01000000
00200000
00000000
00000000
00000000
00320000
00000000
00000000
00000000
,
00032000
00000000
01003000
00000000
00101000
00011000
00010010
00001000
,
00000100
00000100
00000100
00000000
00000002
00000000
00000023
00000000
,
00000230
00000000
00000000
00000000
00000000
00000000
00000310
00000100
00000001
00000100
00000010
00001000
,
00020000
00000000
00000000
00000000
00000000
00000000
00130000
01000000
10000000
02000000
00000000
00000000
,
03200000
00000000
00000000
00000000
00000000
00000000
10300000
01000000
00010000
00001000
00000100
00000001
,
00000000
00000000
00000100
00000000
00000000
00000000
00000001
00000000
00000000
00000000
00000010
00000000
00001000
00000001
00000010
00000000
,
00001001
00000000
00000100
00001000
00000010
00001000
00000100
00000000
,
00011000
00000000
00100000
00010000
01000000
00010000
00100000
00000000
,
10000000
01000000
10000000
01000000
00100000
00010000
00100000
00010000
,
00001000
00000100
00001010
00000101
,
00001000
00000001
00000010
00001000
00000001
00000000
00000100
00001000
,
00010000
00001000
00000100
00001000
00010000
01000000
00100000
00000000
,
00010000
00000000
10000000
00000000
01000000
00000000
00100000
00010000
,
02000000
00000000
23000000
00000000
30200000
00000000
00310000
00001000
,
00010000
00000000
00001000
00000100
00001000
00000000
00000001
00001000
,
00000001
00000000
00000010
00000001
00000010
00000000
00001000
00010000
,
00001000
00000000
01000000
00100000
01000000
00100000
10000000
00010000
,
01000000
00100000
10010000
01100000
,
00010000
00001000
00010000
00001000
00000100
00000000
00000100
00000010
,
00000001
00000000
00001000
00000001
00002000
00000000
00003010
00000000
,
00000101
00000000
00001100
00000000
00010000
00001000
00100000
00000000
,
00110000
00000000
10100000
01000000
00010000
00100000
01000000
00000000
,
10000000
00000000
01100000
01000000
01000000
00000000
10010000
00010000
,
00010000
00000000
00010100
00001000
00001000
00000000
00001010
00000100
,
00000100
00000000
00000011
00000100
00000100
00001000
00001001
00000000
,
00011000
00000000
01100000
10000000
01000000
00000000
01100000
10010000
;

//---------------dance-double - ----------------
#NOTES:
     dance-double:
     :
     Challenge:
     14:
     0.620102,0.853988,0.456090,0.204454,0.314545,552.000000,494.000000,58.000000,26.000000,0.000000,0.000000,0.620102,0.853988,0.456090,0.204454,0.314545,552.000000,494.000000,58.000000,26.000000,0.000000,0.000000:
00000000
00000000
00000000
00000000
,
00000000
00000000
00000000
00000000
,
00000000
00000000
00000000
00000000
,
00000000
00000000
00000000
00000000
,
00110000
01000000
10000000
00100000
00010000
00001000
00000100
00000010
,
00000001
00000010
00000100
00000001
00000010
00000100
00001000
00000001
,
00001100
00000010
00000001
00000100
00001000
00010000
00100000
01000000
,
10000000
00000000
01000000
00000000
00100000
00000000
10000000
00000000
01000000
00100000
01000000
00000000
00100000
00000000
00010000
00000000
,
11000000
10000000
00100000
01000000
00010000
00100000
01000000
00010000
,
00001000
00000100
00000001
00000010
00000100
00001000
00000010
00000100
,
00001100
00000001
00000010
00001000
00010000
00001000
00000100
00000001
,
00000010
00000100
00001000
00010000
01000000
10000000
01000000
10000000
,
00110000
01000000
00010000
00100000
01000000
10000000
00100000
01000000
,
02010000
03001000
00001200
00010300
,
00001000
00000010
00000001
00000010
00000100
00010000
00000010
00001000
,
00001010
00010000
00001000
00100000
00110000
00000000
10100000
00000000
,
01000000
10000000
00010000
00100000
00001000
00010000
00000010
00001000
,
00000012
00000103
00002010
00003100
,
00000010
00001000
00000100
00000010
00000001
00000100
00001000
00010000
,
01000000
10000000
00100000
01000000
01010000
00000000
00101000
00000000
,
00011000
00001000
00010000
00000100
00001000
00000010
00000100
00000001
,
00000010
00000100
00001000
00000010
00001010
00000000
00001010
00000000
,
00011000
00100000
00010000
01000000
00100000
10000000
01000000
00100000
,
00010000
01000000
00100000
10000000
11000000
00000000
00120000
00000000
,
01030000
10000000
01000000
00010000
00100000
00001000
00010000
00000100
,
00000010
00000001
00001000
00000100
00000011
00000000
00000021
00000000
,
00000130
00000001
00000100
00001000
00000010
00010000
00001000
01000000
,
00100000
10000000
00010000
01000000
10100000
00000000
10010000
00000000
,
00201000
00000000
00000000
00000000
,
00000000
00000000
00000000
00000000
,
01300000
00000000
00000000
00000000
,
01000000
00000000
00000000
00000000
,
20020000
00000000
00000000
00000000
,
00000000
00000000
00000000
30030000
,
10000000
01000000
00100000
00010000
10000000
01000000
00100000
00010000
,
00001000
00000000
00000010
00000000
00000100
00000000
00000001
00000000
00001000
00000100
00001000
00000000
00000001
00000100
00000001
00000100
,
00000120
00000000
00000000
00000000
00000000
00000000
00000030
00000000
00000000
00000100
00000000
00000000
00000001
00000000
00000010
00000000
00000001
00000000
00000100
00000000
00000001
00000000
00000100
00000000
00000010
00000000
00000000
00000000
00000000
00000000
00000000
00000000
00000000
00001000
00000000
00000000
00000100
00000000
00000000
00000000
00000000
00000000
00010000
00000000
00000000
00000000
00000000
00000000
,
00001000
00010000
01000000
10000000
01000000
00100000
01000000
00010000
00020000
00000000
01000000
00000000
20030000
00000000
01000000
00000000
,
30200000
00000000
00000000
10000000
00000000
00000000
00000000
00000000
00000000
10000000
00000000
00000000
01300000
00000000
00000000
00000000
00000000
00000000
01000000
00000000
00000000
00010000
00000000
00000000
00101000
00000000
00000000
00000000
10010000
00000000
00000000
00000000
01001000
00000000
00000000
00000000
00010000
00000000
00100000
00000000
10000000
00000000
00100000
00000000
00010000
00000000
00001000
00000000
,
00000020
00000000
00000001
00000000
00000230
00001000
00000000
00001000
00000320
00000000
00000001
00000000
00000130
00000000
00010000
00001000
,
00011000
00000000
00010000
00100000
10000000
00000000
10000000
01000000
01010000
00000000
00001000
00000010
00000001
00000000
00000001
00000100
,
00001100
00000000
00010000
00001000
00000000
00001000
00000000
00010000
02000000
00000000
10000000
00000000
03200000
00000000
00010000
00000000
,
00310000
00000000
00000000
00001000
00000000
00000000
00000000
00000000
00000000
00010000
00000000
00000000
10000000
00000000
00000000
00000000
00000000
00000000
00100000
00000000
00000000
01000000
00000000
00000000
01100000
00000000
00000000
00000000
00000000
00000000
01100000
00000000
00000000
00000000
00000000
00000000
10000000
00000000
00100000
00000000
01000000
00000000
00010000
00000000
00100000
00000000
01000000
00000000
,
00020000
00000000
00031000
00000000
00001000
00000100
00000000
00000100
00000002
00000000
00000010
00000000
00000023
00000000
00000100
00000000
,
00000230
00000000
00000000
00000000
00000000
00000000
00000000
00000000
00000000
00000001
00000000
00000000
00000000
00000000
00000000
00000000
00000000
00000000
00000010
00000000
00000000
00000000
00000000
00000000
00010300
00000000
00000000
00000000
00001000
00000000
00000000
00000000
00000010
00000000
00000000
00000000
00000100
00000000
00000000
00000000
00001000
00000000
00000000
00000000
00010000
00000000
00000000
00000000
,
00200000
00000000
00000000
00000000
00000000
00000000
00000000
00000000
00000000
10000000
00000000
00000000
00000000
00000000
00000000
00000000
00000000
00000000
01000000
00000000
00000000
00000000
00000000
00000000
00301000
00000000
00000000
00000000
00010000
00000000
00000000
00000000
01000000
00000000
00000000
00000000
10000000
00000000
00100000
00000000
00010000
00000000
00001000
00000000
00000010
00000000
00000001
00000000
,
00000200
00000000
00000000
00000000
00000000
00000000
00000000
00000000
00000000
00000001
00000000
00000000
00000000
00000000
00000000
00000000
00000000
00000000
00000010
00000000
00000000
00000000
00000000
00000000
00001300
00000000
00000000
00000000
00010000
00000000
00000000
00000000
00100000
00000000
00000000
00000000
00010000
00000000
00000000
00000000
00001000
00000000
00000000
00000000
00000010
00000000
00000000
00000000
,
00000000
00000000
00000000
00000000
00000101
00000000
00000000
00000000
00000000
00000000
00000000
00000000
00001100
00000000
00000000
00000000
00000000
00000000
00000000
00000000
00011000
00000000
00000000
00000000
00010000
00000000
00100000
00000000
01000000
00100000
01000000
00000000
,
01100000
00010000
00100000
01000000
10000000
00010000
01000000
00100000
,
00010000
00000100
00010000
00000010
00001000
00000100
00000010
00000001
,
00000100
00001000
00010000
00001000
00000100
00000010
00001000
00010000
,
01000000
00010000
00100000
01000000
10000000
00100000
00100000
10000000
,
01000000
00010000
00001000
00010000
00000010
00000100
00001000
00010000
,
00000010
00000000
00000000
00000010
00000000
00000000
00000100
00000000
00000000
00000001
00000000
00000000
00000100
00000000
00001000
00000000
00010000
00000000
00100000
00000000
00010000
00000000
00001000
00000000
,
00000010
00000001
00000100
00000000
00000010
00001000
00010000
01000000
,
20000000
00000000
00010000
00000000
30100000
00000000
00010000
00001000
,
00000110
00001000
00000100
00000010
00000001
00001000
00000010
00000100
,
00001000
00100000
00001000
01000000
00010000
00100000
01000000
10000000
,
00100000
00010000
00001000
00010000
00100000
01000000
00010000
00001000
,
00000010
00001000
00000100
00000010
00000001
00000100
00000100
00000001
,
00000010
00001000
00010000
00001000
01000000
00100000
00010000
00001000
,
01000000
00000000
00000000
01000000
00000000
00000000
00100000
00000000
00000000
10000000
00000000
00000000
00100000
00000000
00010000
00000000
00001000
00000000
00000100
00000000
00001000
00000000
00010000
00000000
,
01000000
10000000
00100000
00000000
01000000
00010000
00001000
00000010
,
00000002
00000000
00000000
00000000
00001000
00000000
00000000
00000000
00000103
00000000
00000100
00001000
00010000
00000000
00001000
00000000
,
00011000
00000000
01000000
00100000
01100000
00000000
10000000
00000000
11000000
00000000
00010000
00100000
00110000
00000000
00001000
00000000
,
00001100
00000000
00000001
00000010
00000011
00000000
00000100
00000000
00010010
00000000
00001000
00001000
00010100
00000000
00010000
00000000
,
01001000
00000000
00100000
10000000
00110000
00000000
01000000
00000000
01010000
00000000
01001000
00000000
00011000
00010000
00001000
00000000
,
00000101
00000000
00000000
00000000
00000100
00000000
00001000
00000000
00001010
00000000
00000000
00000000
00010000
00000000
00000000
00000000
00110000
00000000
00000000
00000000
01001000
00000000
00001000
00010000
00001000
00000000
00000000
00000000
00010100
00000000
00000000
00000000
;
