#TITLE:Rainbow Dream;
#SUBTITLE:;
#ARTIST:DJ Genki feat. Yukacco;
#TITLETRANSLIT:;
#SUBTITLETRANSLIT:;
#ARTISTTRANSLIT:;
#GENRE:Crossover;
#CREDIT:;
#BANNER:Rainbow Dream.png;
#BACKGROUND:Rainbow Dream-bg.png;
#LYRICSPATH:;
#CDTITLE:../cdtitle.png;
#MUSIC:Rainbow Dream.ogg;
#OFFSET:-1.993000;
#SAMPLESTART:48.658001;
#SAMPLELENGTH:15.000000;
#SELECTABLE:YES;
#BPMS:0.000000=180.000000
;
#STOPS:
;
#BGCHANGES:-99.000=../bg.avi=1.000=0=0=1=====,
99999=-nosongbg-=1.000=0=0=0 // don't automatically add -songbackground-
;
#KEYSOUNDS:;
#ATTACKS:;

//---------------dance-single - ----------------
#NOTES:
     dance-single:
     :
     Challenge:
     16:
     0.841411,1.013468,0.323900,0.357995,0.566826,691.000000,653.000000,38.000000,42.000000,0.000000,0.000000,0.841411,1.013468,0.323900,0.357995,0.566826,691.000000,653.000000,38.000000,42.000000,0.000000,0.000000:
0000
0000
0000
0000
,
0000
0000
0000
0000
,
0000
0000
0000
0000
,
0000
0000
0000
0000
,
0000
0000
0000
0000
,
1100
0000
0001
0000
0100
0000
0010
0000
0100
0000
0001
0000
0010
0000
0100
0001
,
0100
0000
0010
0000
0001
0000
1000
0100
1000
0000
0001
0100
0010
1000
0001
0000
,
0110
0000
0000
0000
0110
0000
0000
0000
0001
0100
0001
0100
0010
1000
0002
0000
,
0003
0000
1000
0100
1000
0000
0001
0010
0001
0000
1000
0100
0010
0001
0100
0010
,
0200
0000
0000
0000
1000
0000
0000
0000
0310
0000
0000
0000
1001
0000
0001
1000
,
0020
0000
0130
0001
0010
0001
1000
0001
,
0100
0000
0010
1000
0010
0000
0100
0000
0001
0000
0010
0000
0100
0000
0010
0000
,
0002
0100
0103
0010
1000
0100
0010
0001
,
0000
1000
0100
1000
0010
0100
0110
0000
,
0001
0010
0001
0001
1000
0100
1000
1000
,
0001
0010
1000
0010
0001
0001
0100
0001
,
0100
0000
0010
0000
1000
0000
1000
0000
0100
0000
0010
0000
0001
1000
0001
1000
,
0002
0000
0000
0000
0000
0000
0000
0000
0000
0000
0000
0000
1003
0100
0010
0001
,
2000
0000
3010
0100
0001
0001
0100
0010
,
1000
0000
0001
0010
0001
0000
0100
0000
0010
0000
0010
0000
1000
0000
0001
0000
,
2000
0010
3010
0100
0001
0010
0100
1000
,
0000
0001
0010
0001
0100
0010
0110
0000
,
1000
0000
0100
0000
1000
0000
0001
0000
0100
0010
0100
0010
1000
0000
0001
0100
,
0001
0000
0010
0100
0010
0000
0001
0000
1000
0100
1000
0100
0010
0000
0001
0000
,
1000
0000
1000
0000
0010
0000
0010
0000
0100
0001
0100
0001
0010
0100
1000
0001
,
0000
1100
1100
0101
1001
0000
0110
0000
,
1002
0000
0013
0000
0100
1000
0100
1000
,
0001
0020
0000
0031
0100
0020
0000
1030
,
0002
0000
1003
0100
1000
0002
0000
0023
,
0000
0000
2030
0000
0000
0000
3010
0000
0001
0000
0000
0000
1000
0100
1000
0100
,
1000
0000
0001
0000
1000
0000
0010
0000
0100
0001
0100
0001
0100
0000
0010
1000
,
0010
0000
1000
0000
0100
0000
1000
0000
0001
0000
1000
0100
1000
0100
0010
0001
,
1000
1000
0001
0001
0010
0010
0100
0100
,
1000
0001
0010
0001
1000
0001
0010
0001
1000
0001
0100
0001
1000
0010
0100
0010
,
2000
3200
0310
1001
,
1100
0000
0100
0000
0210
0000
0000
0000
1300
0100
1000
0000
0001
0000
0010
0001
,
0010
0000
0001
0100
0001
0000
1000
0010
1000
0000
0010
0000
0100
0000
0001
0000
,
1000
0100
0010
0100
2100
0000
3001
0010
,
0100
0000
0010
0001
0010
0000
0100
1000
0100
0000
1000
0000
0001
0000
0000
0000
,
0101
0000
0100
0000
0210
0000
0000
0000
0301
0100
0001
0000
1000
0000
0010
1000
,
0010
0000
1000
0100
1000
0000
0001
0010
0001
0000
0100
0000
0010
0000
1000
0000
,
0001
0010
0100
0010
0001
0100
0010
2000
,
0000
0000
3001
0000
0010
0000
0100
0000
1000
0000
0100
0000
0010
0001
0010
0001
,
1000
0000
0100
0000
0210
0000
0000
0000
1300
0100
1000
0000
0001
0000
0010
0100
,
0010
0000
0001
0100
0001
0000
1000
0010
1000
0000
0100
0000
0010
0000
0001
0000
,
1000
0010
0100
0010
1000
0001
0010
0100
,
2000
0000
0000
0000
3001
0000
0000
0000
1002
0000
0203
0000
0310
1000
0010
1000
,
0001
0000
0010
0000
0120
0000
0000
0000
0031
0010
0001
0000
1000
0000
0100
1000
,
0100
0000
1000
0010
1000
0000
0001
0100
0001
0000
0010
0000
0100
0000
1000
0000
,
0001
0010
0001
0000
0100
0000
0010
0000
1000
0010
1000
0010
0100
0001
0010
0100
,
2000
0000
3100
0000
1000
0000
1000
0000
0010
0000
0010
0000
0100
0001
0100
0001
,
0020
0100
0130
0010
0002
0100
0103
0010
,
1000
0100
0001
0100
1000
0001
0010
0000
,
0200
0010
0310
0100
2000
0010
3010
0100
,
0001
0000
0010
0000
1000
0000
0010
0000
0001
0000
0010
0000
0100
1000
0100
1000
,
0001
0000
0010
0000
0100
0000
0010
0000
0001
0100
0001
0100
0001
0000
0100
0010
,
1000
0000
0010
0000
0100
0000
0001
0000
0010
0000
0100
0010
0100
0000
1000
0000
,
0001
0001
1000
1000
0100
0100
0010
0010
,
0001
0100
0001
0100
0010
1000
0010
1000
0001
0010
0100
1000
0001
1000
0100
0010
,
0002
0000
1003
0001
0100
0010
0100
0002
,
0000
1003
0010
0100
0010
0000
1001
0000
,
1100
0000
0001
0000
0100
0000
0010
0000
0100
0000
0001
0000
0010
0000
0100
0001
,
0100
0000
1000
0100
1000
0000
0001
0010
0001
0000
1000
0000
0010
0000
0100
0000
,
0110
0000
0000
0000
0110
0000
0000
0000
0001
0100
0001
0100
0010
1000
0002
0000
,
0003
0000
1100
0000
0000
0000
0012
0000
0000
0000
1003
0000
0100
0010
0100
0010
,
0001
0000
1000
0000
0010
0000
0100
0000
0010
0000
1000
0000
0100
0000
0010
1000
,
0010
0000
0001
0010
0001
0000
1000
0100
1000
0000
0001
0000
0100
0000
0010
0000
,
0110
0000
0000
0000
0110
0000
0000
0000
1000
0010
1000
0010
0100
0001
2000
0000
,
3000
0000
0011
0000
0000
0000
2100
0000
0000
0000
3001
0000
0010
0100
0010
0100
,
1000
0000
0001
0000
0010
0100
0010
0000
0001
0000
1000
0000
0001
0000
1000
0001
,
0100
0000
0001
1000
0010
0000
0100
0010
1000
0000
0001
0000
0010
0000
0100
0000
,
1100
0000
0000
0000
1100
0000
0000
0000
0001
0100
0010
1000
0001
0100
0010
0000
,
0000
0000
1100
0000
0000
0000
0102
0000
0000
0000
0013
0000
0100
1000
0100
1000
,
0001
0000
0010
0000
0100
0000
1000
0000
0001
0100
0001
0100
0010
0000
0100
0001
,
1000
0000
0010
0000
1000
0000
0100
0000
0010
0001
0010
0001
1000
0100
0010
0001
,
0010
0100
0010
0100
1000
0001
1000
0001
0010
0001
0100
0010
1000
0100
0010
0000
,
0000
0000
0011
0000
0000
0000
2010
0000
0000
0000
3001
0000
1000
0100
1000
0000
,
0001
0010
0001
0010
0100
0000
0010
0001
0010
0001
0100
0000
0010
2000
0002
0000
,
0000
0000
0000
0000
,
3000
0000
0000
0000
,
0000
0000
0000
0000
0000
0000
0000
0003
,
0220
0000
0000
0000
,
0330
0000
0000
0000
;

//---------------dance-single - ----------------
#NOTES:
     dance-single:
     :
     Hard:
     13:
     0.662413,0.663996,0.298329,0.238663,0.000000,544.000000,509.000000,35.000000,28.000000,0.000000,0.000000,0.662413,0.663996,0.298329,0.238663,0.000000,544.000000,509.000000,35.000000,28.000000,0.000000,0.000000:
// measure 0
0000
0000
0000
0000
,  // measure 1
0000
0000
0000
0000
,  // measure 2
0000
0000
0000
0000
,  // measure 3
0000
0000
0000
0000
,  // measure 4
0000
0000
0000
0000
,  // measure 5
0001
0100
0010
0010
1000
0001
0010
0100
,  // measure 6
0010
0010
0001
0001
1000
0100
1000
1000
,  // measure 7
0010
0000
0110
0000
1000
1000
0100
0001
,  // measure 8
0000
1010
0000
0021
0000
0130
1000
0001
,  // measure 9
0010
0000
0010
0000
0100
0000
1001
1000
,  // measure 10
0020
0000
0130
0010
1000
0100
0010
0100
,  // measure 11
1000
0001
1000
0001
0010
0100
1000
0001
,  // measure 12
0010
0100
0010
0001
0100
0010
1000
0001
,  // measure 13
0000
1000
0100
0010
0001
0000
1001
0000
,  // measure 14
0001
0010
0001
0001
0100
0010
1000
0001
,  // measure 15
1000
0100
0001
0100
1000
0000
0001
0010
,  // measure 16
1000
0010
0001
0010
0100
1000
0001
1000
,  // measure 17
0002
0000
0000
0000
0003
0000
0100
0010
,  // measure 18
0120
0000
0130
0010
1000
0100
0010
0100
,  // measure 19
1000
0001
1000
0001
0010
0100
1000
0001
,  // measure 20
0010
0100
0010
0001
0100
0010
1000
0001
,  // measure 21
0000
1000
0100
0010
0001
0000
1001
0000
,  // measure 22
0001
0100
0001
0001
0010
0100
1000
0001
,  // measure 23
1000
1000
0010
0010
0001
0010
1000
0001
,  // measure 24
0010
0010
1000
1000
0001
0100
1000
0001
,  // measure 25
0000
0010
0100
0010
0100
0000
0110
0000
,  // measure 26
2001
0000
3010
0000
0100
0001
0100
0001
,  // measure 27
1000
0020
0000
0130
0001
1000
0000
0001
,  // measure 28
0020
0000
0130
1000
0100
0010
0000
0001
,  // measure 29
0000
1000
0000
0001
0100
0000
0100
0010
,  // measure 30
1000
0001
1000
0001
0100
0010
1000
0001
,  // measure 31
0010
0100
0010
0100
1000
0100
0010
0001
,  // measure 32
1000
1000
0100
0100
0001
0001
0010
0010
,  // measure 33
1000
0100
0010
0001
0100
0010
1000
0100
,  // measure 34
0010
0010
0100
1001
,  // measure 35
0110
0001
2000
0000
3010
0100
0001
1000
,  // measure 36
0100
0001
0100
0010
0100
1000
0100
0010
,  // measure 37
0001
0100
0010
1000
0002
0000
0103
0001
,  // measure 38
1000
1000
0010
0010
0100
0001
1000
0000
,  // measure 39
1100
0010
0002
0000
1003
0100
0010
0100
,  // measure 40
1000
0010
0001
0010
1000
0001
0100
0010
,  // measure 41
1000
0010
0100
0001
0010
0100
1000
0002
,  // measure 42
0000
0103
0010
1000
0001
1000
0010
0000
,  // measure 43
0110
0100
0002
0000
0013
0100
1000
0001
,  // measure 44
1000
0010
0100
0010
0001
0010
1000
0001
,  // measure 45
0010
0100
0010
0001
1000
0100
0010
0001
,  // measure 46
2000
0000
3010
0000
0002
0023
1030
1000
,  // measure 47
1010
0100
0002
0000
1003
0010
0100
0010
,  // measure 48
1000
0100
0001
0100
1000
0001
0010
0100
,  // measure 49
1000
0100
0010
0001
0100
0010
1000
0002
,  // measure 50
0000
0013
0100
0010
0001
0001
0100
0010
,  // measure 51
1000
0010
1000
0010
0100
0001
0100
0001
,  // measure 52
0010
0100
1000
0100
0010
0001
0010
0000
,  // measure 53
0001
0100
0001
0100
0010
1000
0010
1000
,  // measure 54
0100
0010
0001
0010
0100
1000
0100
0010
,  // measure 55
0110
1000
0002
0000
0103
0010
1000
0001
,  // measure 56
1000
0100
1000
0100
0010
0001
1000
0000
,  // measure 57
0001
0010
0001
0001
0100
0100
0010
0010
,  // measure 58
1000
0100
0001
0100
1000
0010
0001
0010
,  // measure 59
2000
0000
3010
0100
0001
0100
0010
2000
,  // measure 60
0000
3001
0010
0100
1000
0000
0110
0000
,  // measure 61
1001
0001
0010
0100
0010
0001
0010
0100
,  // measure 62
1000
0001
0010
0001
1000
0010
0100
0001
,  // measure 63
0100
0000
1010
0000
0001
0001
0010
1000
,  // measure 64
0000
0101
0000
1200
0000
0310
0001
1000
,  // measure 65
1010
0010
0100
0010
1000
0010
0100
0001
,  // measure 66
1000
0100
1000
0001
1000
0100
0010
0001
,  // measure 67
0010
0000
1100
0000
0001
0001
0100
1000
,  // measure 68
0000
0011
0000
1020
0000
0130
0001
1000
,  // measure 69
1001
1000
0100
0010
0100
1000
0100
0010
,  // measure 70
0001
1000
0100
1000
0001
0100
0010
1000
,  // measure 71
0010
0000
0101
0000
1000
1000
0100
0001
,  // measure 72
0000
1010
0000
0021
0000
0130
1000
0001
,  // measure 73
0010
0010
0100
0100
1000
0001
0100
0010
,  // measure 74
0100
0100
0001
0001
1000
0010
0100
0001
,  // measure 75
0010
0000
0110
0000
1000
1000
0010
0001
,  // measure 76
0000
1100
0000
0201
0000
0310
1000
0001
,  // measure 77
0010
0100
0110
0001
0100
0101
0010
2002
,  // measure 78
0000
0000
0000
0000
,  // measure 79
0003
0000
0000
0000
,  // measure 80
0000
0000
0000
0000
0000
0000
0000
3000
,  // measure 81
0220
0000
0000
0000
,  // measure 82
0330
0000
0000
0000
;

//---------------dance-single - ----------------
#NOTES:
     dance-single:
     :
     Medium:
     11:
     0.485851,0.594102,0.315377,0.392090,0.000000,399.000000,362.000000,37.000000,46.000000,0.000000,0.000000,0.485851,0.594102,0.315377,0.392090,0.000000,399.000000,362.000000,37.000000,46.000000,0.000000,0.000000:
0000
0000
0000
0000
,
0000
0000
0000
0000
,
0000
0000
0000
0000
,
0000
0000
0000
0000
,
0000
0000
0000
0000
,
0100
0001
0010
0001
0000
1000
0100
1000
,
0000
0001
0100
0002
0000
1003
0010
0100
,
0001
0000
1001
0000
0001
0010
1000
0010
,
0000
0011
0000
0210
0000
1300
0002
0000
,
0103
0100
0010
0110
,
1002
0013
0200
0310
,
0100
1000
0001
0000
0100
0000
0100
0000
,
0010
1000
0001
0000
0010
0100
0010
0001
,
0000
1000
0100
0000
1000
0000
1001
0000
,
0001
0100
0010
0000
0100
0010
1000
0000
,
0010
1000
0100
0000
0010
0000
0001
0000
,
1000
0100
0010
0000
0100
1000
0001
0000
,
0220
0000
0000
0330
,
2001
3100
0020
0130
,
0010
0001
1000
0000
0010
0000
0010
0000
,
0100
0001
1000
0000
0100
0010
0100
1000
,
0000
0001
0010
0000
0001
0000
1001
0000
,
1000
0010
0100
0000
0010
0100
0001
0000
,
0100
0001
0010
0000
0100
1000
0001
0000
,
0010
0100
0010
0000
0001
0100
0010
1000
,
0000
1000
0100
0010
0001
0000
1001
0000
,
0220
0000
0330
1000
0200
0000
0300
0000
,
2002
0000
3003
1000
0020
0000
0030
0000
,
0220
0000
0330
0001
0020
0000
0030
0000
,
2002
0000
3003
0001
0100
0000
0010
0010
,
1000
0001
0100
0000
0010
1000
0001
0000
,
0010
0100
1000
0000
0100
0010
0001
0000
,
1000
1000
0100
0000
0001
0001
0100
0000
,
1000
0010
0100
0001
1000
0010
0100
0001
,
0010
0010
0100
0110
,
1002
0000
0013
0000
0100
0010
0100
0000
,
1000
0010
0001
0010
,
1000
1000
0002
0013
,
0100
0000
0100
0000
1000
0001
0100
0000
,
0010
0000
1001
0000
0001
0010
0001
0000
,
1000
0100
0001
0100
,
1000
0000
0001
0010
0000
0100
0000
0020
,
0000
0100
1000
0031
,
2001
0000
3010
0000
0001
0010
1000
0000
,
0001
0010
0100
0010
,
0001
0000
1000
0000
0001
0100
0010
0000
,
2000
3000
0220
0330
,
0100
0000
1001
0000
1000
0100
1000
0000
,
0001
0010
1000
0010
,
0001
0000
1000
0100
0000
1000
0000
0020
,
0000
0000
0130
0000
0010
1000
0001
1000
,
0002
0013
2000
3010
,
0001
0000
0010
0000
0100
1000
0001
0000
,
2000
3100
0002
0103
,
1000
0000
0100
0000
0010
0001
1000
0000
,
0002
0103
2000
3100
,
0001
0000
0100
0000
0010
1000
0001
0000
,
0010
0100
0010
0000
0100
1000
0001
2000
,
0000
0100
3020
0100
,
1030
0000
0001
0010
0000
0100
0000
2000
,
0000
0000
0002
3003
,
0110
0000
0001
0100
0000
0010
1000
0010
,
0000
1000
0100
1000
0000
0001
0100
0000
,
0010
0000
0110
0000
0001
0010
1000
0010
,
0000
0110
0000
2001
0000
3010
0100
0000
,
0110
0000
1000
0100
0000
0010
0001
0010
,
0000
0001
0100
0001
0000
1000
0100
0000
,
0010
0000
0110
0000
1000
0010
0001
0010
,
0000
0110
0000
1002
0000
0013
0100
0010
,
0110
0100
1000
0001
0000
0010
0001
0100
,
0000
0010
1000
0001
0100
0000
0010
0000
,
1000
0000
1001
0000
0001
0010
1000
0010
,
0000
0110
0000
2001
0000
3010
0100
0001
,
1000
1000
0100
0000
0001
0001
0100
0000
,
1000
1000
0010
0000
0001
0001
0010
0000
,
1000
0000
1001
0000
1000
0100
0010
0001
,
0000
0011
0000
2100
0000
3001
0010
0001
,
0100
0010
1000
0000
0100
0010
0000
2002
,
0000
0000
0000
0000
,
3000
0000
0000
0000
,
0000
0000
0000
0000
0000
0000
0000
0003
,
0220
0000
0000
0000
,
0330
0000
0000
0000
;

//---------------dance-single - ----------------
#NOTES:
     dance-single:
     :
     Easy:
     7:
     0.371390,0.419366,0.332424,0.281282,0.000000,305.000000,266.000000,39.000000,33.000000,0.000000,0.000000,0.371390,0.419366,0.332424,0.281282,0.000000,305.000000,266.000000,39.000000,33.000000,0.000000,0.000000:
0000
0000
0000
0000
,
0000
0000
0000
0000
,
0000
0000
0000
0000
,
0000
0000
0000
0000
,
0000
0000
0000
0000
,
1000
0100
0010
0100
,
1000
0100
0001
0100
,
1000
0000
1001
0000
0001
0000
0100
0010
,
0000
0100
0000
0020
0000
0000
1030
0000
,
0002
0000
0003
0110
,
2000
0100
3002
0010
,
1003
0010
0001
0001
,
0010
1000
0001
0010
,
0000
0100
0010
1001
,
0001
0100
0010
0100
,
0001
0010
1000
0010
,
0001
0100
0010
1000
,
2002
0000
0000
3003
,
0012
0100
2003
0010
,
3001
0010
1000
1000
,
0010
0001
1000
0010
,
0000
0100
0010
1001
,
1000
1000
0100
0100
,
0001
0001
0010
0010
,
1000
0100
0010
0001
,
0000
0110
1001
0000
,
0220
0330
0110
0000
,
1001
0010
0100
0000
,
2002
3003
0110
0000
,
1001
0100
0010
0000
,
0001
0001
0010
0010
,
1000
1000
0100
0100
,
0001
0010
1000
0100
,
0002
0023
0230
2300
,
3002
0000
0003
0110
,
1001
0100
0010
0010
,
1000
0100
0001
0100
,
1000
1000
0001
0001
,
0010
0100
1000
1001
,
0001
0010
1000
0010
,
0001
0001
0100
0010
,
1000
0100
1000
0001
,
0200
0000
0300
0110
,
1001
0010
0100
0100
,
1000
0010
0001
0010
,
1000
1000
0001
0100
,
0020
0030
2002
3003
,
0001
0100
1000
0100
,
0001
0001
0010
0100
,
1000
0010
1000
0100
,
0020
0000
0200
0330
,
1001
0100
1001
0010
,
0100
1000
0001
0001
,
0110
1000
0110
0001
,
1000
0010
0100
0100
,
1001
0010
1001
0100
,
0010
0001
1000
1000
,
0010
0010
0100
0001
,
0020
0000
0200
0330
,
0110
0000
0000
0001
0000
1000
0000
0002
,
0000
0000
2000
3003
,
1001
0100
0010
0010
,
0100
1000
0001
0001
,
0100
0000
0110
0000
0001
0000
0001
0010
,
0000
0100
0000
2100
0000
0000
3001
0000
,
1001
0010
0100
0100
,
0010
1000
0001
0001
,
0010
0000
0110
0000
0001
0000
0001
0100
,
0000
0010
0000
2010
0000
0000
3001
0000
,
0110
1000
0001
0001
,
0010
1000
0010
0001
,
1000
0000
1100
0000
0010
0000
0010
0100
,
0000
0010
0000
1002
0000
0000
0103
0000
,
0010
0010
1000
1000
,
0100
0001
0100
1000
,
0010
0000
0110
0000
0001
0000
0001
0010
,
0000
0100
0000
2100
0000
0000
3001
0000
,
0100
0000
0110
0000
0010
1000
0000
0002
,
0000
0000
0000
0000
,
0000
0000
0000
0000
,
0000
0000
0000
0000
,
0023
0000
0000
0000
,
0030
0000
0000
0000
;

//---------------dance-single - ----------------
#NOTES:
     dance-single:
     :
     Beginner:
     4:
     0.185086,0.276168,0.068190,0.127855,0.000000,152.000000,144.000000,8.000000,15.000000,0.000000,0.000000,0.185086,0.276168,0.068190,0.127855,0.000000,152.000000,144.000000,8.000000,15.000000,0.000000,0.000000:
0000
0000
0000
0000
,
0000
0000
0000
0000
,
0000
0000
0000
0000
,
0000
0000
0000
0000
,
0000
0000
0000
0000
,
0001
0000
0001
0000
,
0010
0000
0010
0000
,
1000
0000
2000
0000
,
3000
0000
0020
0000
,
0030
0000
0000
0000
,
0001
0000
0010
0000
,
0001
0001
0001
0000
,
0100
0000
0010
0000
,
1000
0000
1000
0000
,
0001
0000
1000
0000
,
0100
0100
0100
0000
,
0010
0000
0100
0000
,
2002
0000
0000
3003
,
1001
0000
0110
0000
,
1000
1000
1000
0000
,
0100
0000
0010
0000
,
0001
0000
0001
0000
,
1000
0000
0001
0000
,
0100
0100
0100
0000
,
0010
0000
0200
0000
,
0300
0010
0010
0000
,
1001
0000
0100
0000
,
0010
0000
0010
0000
,
1000
0000
0001
0000
,
0010
0000
0100
0000
,
1000
1000
1000
0000
,
0001
0001
0001
0000
,
0100
0000
0010
0000
,
0100
0000
0020
0000
,
0030
0000
0000
0000
,
1001
0000
0100
0000
,
0010
0010
0010
0000
,
1000
0000
0100
0000
,
0001
0000
0100
0000
,
1000
0000
0010
0000
,
0001
0001
0001
0000
,
1000
0000
0100
0000
,
0002
0000
0003
0000
,
1001
0000
0010
0000
,
0100
0100
0100
0000
,
0001
0000
0010
0000
,
1000
0000
0110
0000
,
0001
0000
0100
0000
,
1000
1000
1000
0000
,
0001
0000
0010
0000
,
2000
0000
3000
0000
,
0001
0000
0010
0000
,
0100
0000
0010
0000
,
0001
0000
0100
0000
,
0010
0000
0100
0000
,
0001
0000
0010
0000
,
1000
0000
0001
0000
,
1000
1000
1000
0000
,
0200
0000
0300
0000
,
0002
0000
0000
0000
,
0000
0000
0000
0003
,
1000
0000
1000
0000
,
0100
0000
0100
0000
,
0001
0000
0002
0000
,
0003
0000
1000
0000
,
0001
0000
0001
0000
,
0010
0000
0010
0000
,
1000
0000
2000
0000
,
3000
0000
0001
0000
,
1000
0000
0010
0000
,
1000
0000
0100
0000
,
0010
0000
0002
0000
,
0003
0000
1000
0000
,
0001
0001
0001
0000
,
0010
0010
0010
0000
,
0001
0000
0200
0000
,
0300
0000
0010
0000
,
0110
0000
0000
0000
1000
0000
0000
0002
,
0000
0000
0000
0000
,
0000
0000
0000
0000
,
0000
0000
0000
0000
,
0003
0000
0000
0000
;
