#VERSION:0.83;
#TITLE:리듬 타;
#SUBTITLE:;
#ARTIST:iKON;
#TITLETRANSLIT:RHYTHM TA;
#SUBTITLETRANSLIT:;
#ARTISTTRANSLIT:;
#GENRE:K-Pop;
#ORIGIN:;
#CREDIT:;
#BANNER:RHYTHM TA.png;
#BACKGROUND:RHYTHM TA-bg.png;
#PREVIEWVID:;
#JACKET:RHYTHM TA-jacket.png;
#CDIMAGE:;
#DISCIMAGE:;
#LYRICSPATH:;
#CDTITLE:../cdtitle.png;
#MUSIC:RHYTHM TA.ogg;
#OFFSET:-0.008000;
#SAMPLESTART:8.785000;
#SAMPLELENGTH:15.000000;
#SELECTABLE:YES;
#DISPLAYBPM:20.000000:82.000000;
#BPMS:0.000=82.000,
0.250=41.000,
0.500=164.000,
1.000=82.000,
1.250=41.000,
1.500=164.000,
2.000=82.000,
2.250=41.000,
2.500=164.000,
3.000=41.000,
3.500=82.000,
10.500=41.000,
11.000=82.000,
27.000=41.000,
27.500=82.000,
38.500=41.000,
40.000=82.000,
94.000=164.000,
96.000=82.000,
98.000=164.000,
100.000=82.000,
110.000=164.000,
112.000=82.000,
114.000=164.000,
116.000=82.000,
118.000=20.500,
118.500=41.000,
119.000=82.000;
#STOPS:69.000=2.195,
94.000=0.091,
94.250=0.091,
94.500=0.091,
94.750=0.091,
95.000=0.091,
95.250=0.091,
95.500=0.091,
95.750=0.091,
98.000=0.091,
98.250=0.091,
98.500=0.091,
98.750=0.091,
99.000=0.091,
99.250=0.091,
99.500=0.091,
99.750=0.091,
110.000=0.091,
110.250=0.091,
110.500=0.091,
110.750=0.091,
111.000=0.091,
111.250=0.091,
111.500=0.091,
111.750=0.091,
114.000=0.091,
114.250=0.091,
114.500=0.091,
114.750=0.091,
115.000=0.091,
115.250=0.091,
115.500=0.091,
115.750=0.091,
118.500=0.183,
118.625=0.183,
118.750=0.183,
118.875=0.183;
#DELAYS:;
#WARPS:;
#TIMESIGNATURES:0.000=4=4;
#TICKCOUNTS:0.000=4;
#COMBOS:0.000=1;
#SPEEDS:0.000=1.000=0.000=0;
#SCROLLS:0.000=1.000;
#FAKES:;
#LABELS:0.000=Song Start;
#BGCHANGES:-1.000=RHYTHM TA.avi=1.000=0=0=0=StretchNoLoop====,
99999=-nosongbg-=1.000=0=0=0 // don't automatically add -songbackground-
;
#KEYSOUNDS:;
#ATTACKS:
;

//---------------dance-single - ----------------
#NOTEDATA:;
#CHARTNAME:;
#STEPSTYPE:dance-single;
#DESCRIPTION:;
#CHARTSTYLE:;
#DIFFICULTY:Beginner;
#METER:2;
#RADARVALUES:0.090115,0.111127,0.008411,0.033643,0.000000,75.000000,74.000000,1.000000,4.000000,0.000000,0.000000,0.000000,0.000000,0.000000,0.090115,0.111127,0.008411,0.033643,0.000000,75.000000,74.000000,1.000000,4.000000,0.000000,0.000000,0.000000,0.000000,0.000000;
#CREDIT:led_light;
#DISPLAYBPM:20.500000:82.000000;
#NOTES:
0000
0000
0000
0000
,
0000
0000
0000
0000
,
0000
0000
0000
0010
,
0000
0100
0000
0010
,
0000
0100
0000
0010
,
0000
0100
0000
1000
,
0000
0001
0000
0110
,
0000
0000
0000
0000
0000
0001
0000
0000
,
0000
0000
0000
0000
0000
0001
0000
0000
,
0000
1000
0000
0000
0000
0002
0003
0000
,
0000
1000
0000
1000
,
0000
0001
0000
0001
,
0000
1000
0000
0001
,
0000
0001
0000
1000
,
0000
0100
0000
0100
,
0000
0010
0000
0010
,
0000
0001
0000
0001
,
0000
1000
0010
0000
,
0100
0000
0010
0000
,
0100
0000
0001
0000
,
1000
0000
0001
0000
,
1000
0000
0002
0000
,
0003
0000
2000
0000
,
3000
0000
0010
0010
,
0010
0000
0001
0001
,
0001
0000
1000
1000
,
1000
0000
0001
0001
,
0001
0000
0010
0010
,
0010
0000
1000
1000
,
1000
0000
0000
0000
0002
0003
0010
0000
,
0000
0100
0000
0010
,
0000
0100
0000
0010
,
0000
0100
0000
1000
,
0000
0001
0000
1000
,
0000
1000
0000
0010
,
0000
0010
0000
0001
,
0000
0001
0000
0100
,
0000
1000
0000
0001
;

//---------------dance-single - ----------------
#NOTEDATA:;
#CHARTNAME:;
#STEPSTYPE:dance-single;
#DESCRIPTION:;
#CHARTSTYLE:;
#DIFFICULTY:Challenge;
#METER:14;
#RADARVALUES:0.633206,0.635009,0.571928,0.471000,0.735937,527.000000,459.000000,68.000000,56.000000,0.000000,0.000000,0.000000,0.000000,0.000000,0.633206,0.635009,0.571928,0.471000,0.735937,527.000000,459.000000,68.000000,56.000000,0.000000,0.000000,0.000000,0.000000,0.000000;
#CREDIT:led_light;
#DISPLAYBPM:20.500000:82.000000;
#NOTES:
// measure 0
0000
0000
0000
0000
0000
0000
0000
0000
0000
0000
0000
0000
0000
0000
0000
0000
0000
0000
0000
0000
0000
0000
0000
0000
0000
0000
0000
0000
0001
0000
0000
0001
,  // measure 1
0100
0000
0010
0000
1000
0000
0000
1000
0100
0000
0010
0001
0010
0000
0001
0100
0001
0000
1000
0010
1000
0000
0001
0010
0002
0000
0000
0000
1003
0000
0001
0000
,  // measure 2
0100
0000
0000
1000
0000
0000
1100
0000
0000
1000
0000
0000
0100
0000
0000
0001
0000
0000
1001
0000
0000
0001
0000
0000
0010
0000
0000
1000
0000
0000
1020
0000
0031
0000
0000
0000
2001
0000
0000
0000
0000
0000
3010
0000
0000
0100
0000
0000
,  // measure 3
0101
0000
1002
0000
0013
0100
0001
0100
1000
0000
2001
0000
3020
0000
0130
0001
,  // measure 4
0011
0000
2001
0000
3010
0001
0010
0100
0001
0000
2100
0000
3002
0000
0103
0010
,  // measure 5
1010
0000
1002
0000
0013
1000
0010
0001
1000
0000
2100
0000
3001
0010
1000
0001
,  // measure 6
0100
0000
1000
0000
0010
0000
0001
0000
1000
0000
0000
0000
0100
0000
0010
0000
1000
0000
0001
0010
0100
0000
1000
0000
0002
0000
0000
0000
1003
0000
0010
0000
,  // measure 7
0001
0001
1000
0010
0001
0001
1000
0000
1001
0000
0001
0010
1000
1000
0001
0010
,  // measure 8
1000
1000
0001
0010
0100
0010
0001
1000
0010
0000
2000
0100
3100
0000
0002
0100
,  // measure 9
0103
0000
1000
0010
0100
0001
0010
0000
1000
1000
0002
0000
0000
0000
0000
0000
,  // measure 10
0013
0000
0000
0000
0010
0000
0000
0000
1001
0000
0000
0000
0001
0000
0000
0001
0010
0000
0000
0010
0100
0000
0000
0100
2000
0000
0000
0000
3010
0000
0000
0000
,  // measure 11
0012
0000
0000
0000
0013
0000
1000
0000
0002
0000
0000
0000
0103
0000
0000
0100
0010
0000
0000
0010
1000
0000
0000
1000
0001
0000
0000
0000
0101
0000
0000
0000
,  // measure 12
2100
0000
0000
0000
3010
0000
0000
0000
0011
0000
0000
0000
1000
0000
0000
1000
0001
0000
0000
0001
0100
0000
0000
0100
2000
0000
0000
0000
3100
0000
0000
0000
,  // measure 13
0102
0000
0013
0000
0100
1000
0100
1000
0001
0100
0010
1000
0002
0010
0013
0000
,  // measure 14
2000
0000
0010
0000
3010
0000
0000
0000
1001
0000
0000
0001
1000
0000
0000
1000
0100
0000
0000
0100
0001
0000
0000
0001
0010
0000
0000
0010
1000
0000
0000
1000
,  // measure 15
0200
0000
0000
0000
0320
0000
0000
0000
0031
0000
0000
0001
1000
0000
0000
1000
0010
0000
0000
0010
0001
0000
0000
0001
0100
0000
0000
0100
1000
0000
0000
1000
,  // measure 16
0002
0000
0103
0010
1000
0100
1000
0100
0010
0001
0010
0001
1000
0100
0001
1000
,  // measure 17
0010
0000
0000
0000
0000
0000
0000
0000
0000
0000
0000
0000
0001
0000
0000
0000
0000
0000
0000
0000
0000
0000
0000
0000
1000
0000
0000
0000
0000
0000
0010
0000
0000
0000
0000
0000
1000
0000
0000
0000
0000
0000
0010
0000
0000
0000
0000
0000
0001
0110
0000
0000
0000
0000
0000
0000
0000
0000
0000
0000
0000
0000
0000
0000
0000
0000
0000
0000
0000
0000
0000
0000
0100
0000
0000
0000
0000
0000
0000
0000
0000
0000
0000
0000
0000
0000
0000
0000
0000
0000
0000
0000
0000
0000
0000
0000
2001
0000
0000
0000
0000
0000
0000
0000
0000
0000
0000
0000
0000
0000
0000
0000
0000
0000
0000
0000
0000
0000
0000
0000
3010
0000
0000
0000
0000
0000
0000
0000
0000
0000
0000
0000
0100
0000
0000
0000
0000
0000
0000
0000
0000
0000
0000
0000
0101
0000
0000
0000
0000
0000
0000
0000
0000
0000
0000
0000
0000
0000
0000
0000
0000
0000
0000
0000
0000
0000
0000
0000
1002
0000
0000
0000
0000
0000
0000
0000
0000
0000
0000
0000
0000
0000
0000
0000
0000
0000
0000
0000
0000
0000
0000
0000
,  // measure 18
0013
0100
0001
0100
1000
0000
2001
0000
3020
0000
0130
0001
0011
0000
2001
0000
,  // measure 19
3010
0001
0010
0100
0001
0000
2100
0000
3001
0100
0001
0100
1000
0100
1000
0100
,  // measure 20
0001
0010
1000
0001
0100
1000
0002
0000
1003
0100
1000
0100
0001
1000
0010
0001
,  // measure 21
0100
0010
1001
0010
2200
0000
0000
0000
,  // measure 22
0000
0000
3300
0010
1000
0000
1000
0000
0202
0000
0000
0000
0000
0000
0000
0000
,  // measure 23
0000
0000
0303
0010
0001
0000
0001
0000
1000
1000
1000
1000
1000
1000
1000
1000
,  // measure 24
2000
0000
3001
0010
1000
0000
0110
0000
0001
0001
0001
0001
0001
0001
0001
0001
,  // measure 25
0002
0000
1003
0010
0001
0000
0110
0000
1001
0000
1100
0000
0110
0000
0011
0000
,  // measure 26
1001
1010
0101
1001
1100
0101
0011
1010
,  // measure 27
1100
0000
0101
0000
0110
0000
1001
0000
0001
0001
0001
0001
0001
0001
0001
0001
,  // measure 28
0002
0000
1003
0100
0001
0000
0110
0000
1000
1000
0010
0010
0001
0001
0100
0100
,  // measure 29
2000
0000
0000
0000
0000
0000
0000
0000
0000
0000
0000
0000
0000
0000
0000
0000
0000
0000
0000
0000
0000
0000
0000
0000
3010
0000
0000
0000
0000
0000
0000
0000
0000
0000
0000
0000
0001
0000
0000
0000
0000
0000
0000
0000
0000
0000
0000
0000
0010
0000
0000
0000
0000
0000
0000
0000
0000
0000
0000
0000
1000
0000
0000
0000
0000
0000
0000
0000
0000
0000
0000
0000
0100
0000
0000
0000
0000
0000
0000
0000
0000
0000
0000
0000
0010
0000
0000
0000
0000
0000
0000
0000
0000
0000
0000
0000
0002
0000
0000
0000
0000
0000
0000
0000
0000
0000
0000
0000
0000
0000
0000
0000
0000
0000
0000
0000
0000
0003
0000
0000
1001
0000
0000
0000
0000
0000
1010
0000
0000
0000
0000
0000
0101
0000
0000
0000
0000
0000
1010
0000
0000
0000
0000
0000
1002
0000
0000
0000
0000
0000
0000
0000
0000
0000
0000
0000
0000
0000
0000
0000
0000
0000
0000
0000
0000
0000
0000
0000
0013
0000
0000
0000
0000
0000
0000
0000
0000
0000
0000
0000
0000
0000
0000
0000
0100
0000
0000
0000
0000
0000
0000
0000
,  // measure 30
1100
0000
0000
2001
0000
0000
3010
0000
0100
1000
0000
0000
0101
0000
0000
1002
0000
0000
0023
0000
0000
0130
0000
1000
,  // measure 31
1010
0000
0000
1002
0000
0000
0013
0000
1000
0010
0000
0100
1000
0000
0000
0102
0000
0000
2003
0000
0000
3100
0000
0010
,  // measure 32
0011
0000
0000
0000
0000
0000
2001
0000
0000
0000
0000
0000
3010
0000
0000
0000
0001
0000
0010
0000
0000
0000
1000
0000
0001
0000
0000
0000
0000
0000
0102
0000
0000
0000
0000
0000
1003
0000
0000
0010
0000
0000
0001
0000
0000
1000
0000
0000
,  // measure 33
0100
0001
0010
1000
0001
0000
0100
0000
0110
0000
2001
0000
3001
0100
0001
0100
,  // measure 34
1000
0100
1000
0100
0001
0010
1000
0001
0100
1000
0002
0000
1003
0100
1000
0100
,  // measure 35
0001
0100
0001
0100
1000
0010
0001
1000
0100
0001
2000
0000
3001
0010
0001
0010
,  // measure 36
1000
0010
1000
0010
0001
0100
1000
0001
0010
1000
0002
0000
1003
0010
1000
0010
,  // measure 37
0001
0000
0000
1000
0000
0000
0100
0000
0000
0001
0000
0000
0020
0000
0000
0000
0000
0000
0130
0000
0000
0000
1000
0000
0010
0000
0000
0000
0100
0000
0001
0000
0000
0000
0010
0000
1000
0000
0000
0000
0000
0000
0000
0000
0000
0000
0000
0000
;

//---------------dance-single - ----------------
#NOTEDATA:;
#CHARTNAME:;
#STEPSTYPE:dance-single;
#DESCRIPTION:;
#CHARTSTYLE:;
#DIFFICULTY:Easy;
#METER:4;
#RADARVALUES:0.193446,0.238128,0.042054,0.109339,0.000000,161.000000,156.000000,5.000000,13.000000,0.000000,0.000000,0.000000,0.000000,0.000000,0.193446,0.238128,0.042054,0.109339,0.000000,161.000000,156.000000,5.000000,13.000000,0.000000,0.000000,0.000000,0.000000,0.000000;
#CREDIT:led_light;
#DISPLAYBPM:20.500000:82.000000;
#NOTES:
0000
0000
0000
0000
,
0000
0000
0000
0000
,
0000
0000
0000
0010
,
0100
0010
0010
0001
,
1000
0001
0001
1000
,
0010
0100
0100
0001
,
0010
0000
0100
0000
0100
0000
2001
3001
,
0000
1000
0100
0001
0000
1000
0000
1000
,
0000
0001
0010
1000
0000
0002
0000
0013
,
0000
2000
0000
3100
0000
0002
0000
0000
,
1003
0000
2001
0000
3010
0000
0001
0010
,
0010
0000
1000
0000
0001
0000
1000
0100
,
0100
0000
0001
0000
1000
0000
0001
0010
,
0010
0000
1000
1000
0100
0000
0001
0001
,
0100
0000
1000
1000
0001
0001
0010
0010
,
0010
0000
0001
0001
1000
1000
0010
0010
,
0020
0030
1000
1000
1000
0000
0001
0001
,
0001
1001
0110
0100
,
0010
0010
0001
1000
,
0001
0001
1000
0010
,
0100
0100
0001
0010
,
0100
0100
2000
0000
,
0000
3100
0002
0000
,
0000
0103
1000
1000
,
2000
3000
0010
0000
0001
0000
0001
0000
,
0001
0000
0020
0030
1000
1000
1000
0000
,
0100
0100
0100
0000
0001
0001
0001
0000
,
0010
0010
0010
0000
1000
0000
1000
0000
,
2000
3000
0100
0000
0001
0000
0001
0000
,
0002
0003
0100
0000
2000
3000
0110
0000
,
0100
0010
0010
1000
,
0001
1000
1000
0001
,
0010
0100
0100
1000
,
0010
0100
0100
0001
,
0010
1000
1000
0100
,
0001
0010
0010
1000
,
0100
0001
0001
0010
,
1000
0100
0100
0001
;

//---------------dance-single - ----------------
#NOTEDATA:;
#CHARTNAME:;
#STEPSTYPE:dance-single;
#DESCRIPTION:;
#CHARTSTYLE:;
#DIFFICULTY:Medium;
#METER:7;
#RADARVALUES:0.300383,0.285754,0.176625,0.201857,0.000000,250.000000,229.000000,21.000000,24.000000,0.000000,0.000000,0.000000,0.000000,0.000000,0.300383,0.285754,0.176625,0.201857,0.000000,250.000000,229.000000,21.000000,24.000000,0.000000,0.000000,0.000000,0.000000,0.000000;
#CREDIT:led_light;
#DISPLAYBPM:20.500000:82.000000;
#NOTES:
0000
0000
0000
0000
,
0000
0000
0000
0000
0000
0000
0000
1000
,
1000
0001
0001
1000
0001
0001
2000
0000
,
3001
0000
0110
0001
0110
0000
0002
0000
,
1003
0000
0110
1000
0110
0000
0020
0000
,
0130
0000
1001
0100
1001
0000
0001
0100
,
1000
0010
0001
1000
0001
0000
0110
1000
,
0100
0001
0010
1000
0000
0001
1000
0010
,
1000
0100
1000
0001
0000
0002
0000
0013
,
0000
2000
0100
3100
0000
0002
0000
0000
,
0013
0100
1001
0000
0001
0010
1000
0100
,
0001
0000
1000
0100
0001
0001
1000
1000
,
0010
0000
0001
1000
0010
0010
0001
0010
,
2000
3000
0001
0001
1000
1000
0100
0010
,
0002
0003
1000
0100
0001
0100
1000
0100
,
0022
0033
0001
0100
1000
0100
0001
0100
,
2020
3030
1000
1000
0001
0001
0100
0010
,
1000
0100
0110
0001
2000
0000
3001
0000
,
0110
0001
0110
0000
0002
0000
1003
0000
,
0110
1000
0110
0000
0001
0010
1000
0100
,
0001
0010
1000
0000
0001
0100
1000
0010
,
0001
0100
1000
0001
2000
0000
0000
0000
,
0000
0000
3010
0010
0002
0000
0000
0000
,
0000
0000
0013
0010
1000
1000
1000
1000
,
2000
3000
0100
0100
0001
0001
0001
0001
,
0002
0003
0100
0100
0010
0010
1000
1000
,
0100
0100
0001
0001
0010
0010
0100
0100
,
1000
1000
0001
0001
1000
1000
1000
1000
,
2000
3000
0010
0010
0001
0100
1000
0010
,
0002
0003
0010
0010
2000
3000
0002
0000
,
1003
0000
0110
1000
0110
0000
2000
0000
,
3001
0000
0110
0001
0110
0000
0200
0000
,
0310
0000
1001
0010
1001
0000
1000
0010
,
0001
0100
1000
0001
1000
0000
0001
0010
,
1000
0100
0001
0010
1000
0000
0001
0100
,
1000
0010
0001
0100
1000
0000
0001
0100
,
1000
0010
0001
0100
1000
0000
0001
0010
,
1000
0100
0001
0010
1000
0100
0001
0000
;

//---------------dance-single - ----------------
#NOTEDATA:;
#CHARTNAME:;
#STEPSTYPE:dance-single;
#DESCRIPTION:;
#CHARTSTYLE:;
#DIFFICULTY:Hard;
#METER:13;
#RADARVALUES:0.582742,0.555633,0.496232,0.454178,0.605571,485.000000,426.000000,59.000000,54.000000,0.000000,0.000000,0.000000,0.000000,0.000000,0.582742,0.555633,0.496232,0.454178,0.605571,485.000000,426.000000,59.000000,54.000000,0.000000,0.000000,0.000000,0.000000,0.000000;
#CREDIT:led_light;
#DISPLAYBPM:20.500000:82.000000;
#NOTES:
0000
0000
0000
0000
,
0000
0000
0000
0000
0000
0000
0000
0000
0000
0000
0000
0000
0000
0000
1000
0100
,
1000
0000
0000
0100
0000
0000
0001
0000
0000
0100
0000
0000
0001
0000
0000
0100
0000
0000
1000
0000
0000
0100
0000
0000
0001
0000
0000
0100
0000
0000
2000
0000
3001
0000
0000
0000
1001
0000
0000
0000
0000
0000
0001
0000
0000
0100
0000
0000
,
0010
0000
0101
0000
1010
0000
1100
0000
0110
0000
0002
0000
1003
0000
0010
0001
,
0010
0000
1010
0000
1001
0000
0101
0000
1100
0000
0020
0000
0031
0000
0001
0100
,
0010
0000
1100
0000
0101
0000
1100
0000
0110
0000
0002
0000
1003
0100
1000
0100
,
0001
0100
1000
0010
0001
0000
0010
0000
0220
0000
0330
0001
2000
0000
3100
0010
,
0001
0001
0100
0010
1000
1000
0001
0000
0110
0000
0001
1000
0100
0100
0010
0001
,
1000
1000
0010
0100
0001
0010
0100
1000
0001
0000
1000
0010
1000
0000
0001
0100
,
0001
0000
0000
0000
1000
0000
0100
0000
1000
0000
0100
0000
0010
0000
0000
0000
0001
0000
1000
0000
0010
0100
0001
0100
0001
0010
0100
0010
0001
1000
0001
1000
,
0020
0000
0000
0000
0130
0000
0000
0000
2001
0000
0000
0000
3001
0000
0000
0001
0010
0000
0000
0010
0100
0000
0000
0100
2000
0000
0000
0000
3001
0000
0000
0000
,
0021
0000
0000
0000
0130
0000
1000
0000
0002
0000
0000
0000
1003
0000
0000
1000
0010
0000
0000
0010
0100
0000
0000
0100
0002
0000
0000
0000
1003
0000
0000
0000
,
2100
0000
0000
0000
3010
0000
0000
0000
0002
0000
0000
0000
0013
0000
0000
0010
1000
0000
0000
1000
0100
0000
0000
0100
0002
0000
0000
0000
0103
0000
0000
0000
,
2000
0000
3001
0000
1000
0100
2000
0000
3001
0010
0001
0001
2000
0000
3010
0000
,
0002
0000
0000
0000
0013
0000
0000
0000
1001
0000
0000
0001
1000
0000
0000
1000
0010
0000
0000
0010
0100
0000
0000
0100
0010
0000
0000
0010
1000
0000
0000
0000
,
1002
0000
0000
0000
0203
0000
0000
0000
0310
0000
0000
0010
1000
0000
0000
1000
0001
0000
0000
0001
0010
0000
0000
0010
0100
0000
0000
0100
0010
0000
0000
0010
,
0002
0000
1003
0100
0020
0000
0031
1000
0010
0001
0010
1000
0002
0000
0013
0000
,
2000
0000
0000
0000
0000
0000
0000
0000
0000
0000
0000
0000
0000
0000
0000
0000
0000
0000
0000
0000
0000
0000
0000
0000
3010
0000
0000
0000
0000
0000
0000
0000
0000
0000
0000
0000
0000
0000
0000
0000
0000
0000
0000
0000
0000
0000
0000
0000
1001
0110
0000
0000
0000
0000
0000
0000
0000
0000
0000
0000
0000
0000
0000
0000
0000
0000
0000
0000
0000
0000
0000
0000
0100
0000
0000
0000
0000
0000
0000
0000
0000
0000
0000
0000
0000
0000
0000
0000
0000
0000
0000
0000
0000
0000
0000
0000
1001
0000
0000
0000
0000
0000
0000
0000
0000
0000
0000
0000
0000
0000
0000
0000
0000
0000
0000
0000
0000
0000
0000
0000
1000
0000
0000
0000
0000
0000
0000
0000
0000
0000
0000
0000
0010
0000
0000
0000
0000
0000
0000
0000
0000
0000
0000
0000
0100
0000
0000
0000
0000
0000
0000
0000
0000
0000
0000
0000
0000
0000
0000
0000
0000
0000
0000
0000
0000
0000
0000
0000
1010
0000
0000
0000
0000
0000
0000
0000
0000
0000
0000
0000
0000
0000
0000
0000
0000
0000
0000
0000
0000
0000
0000
0000
,
0101
0000
0011
0000
0110
0000
2000
0000
3001
0000
0100
1000
0100
0000
0101
0000
,
1001
0000
1010
0000
0011
0000
0200
0000
1300
0100
1000
0100
0010
0001
0010
0001
,
1000
0100
0010
0001
1000
0100
0020
0000
0031
0100
0001
0100
1000
0100
0001
0010
,
1000
0000
0010
0000
0110
0000
0100
0000
1002
0000
0013
0100
2000
0000
3020
0000
,
0002
0000
0033
0010
1000
0000
1000
0000
1002
0000
0203
0000
0320
0000
2030
0000
,
0200
0000
3300
0010
0001
0000
0001
0000
1000
0100
1000
0100
0001
0100
0001
0100
,
2000
0000
3000
1000
0001
0000
0001
0000
1000
0010
1000
0010
0001
0010
0001
0010
,
2000
0000
3000
1000
0001
0000
0001
0000
1001
0000
1010
0000
0101
0000
0011
0000
,
1100
0000
0010
0001
2000
0000
3010
0000
0110
0000
1010
0000
0101
0000
1100
0000
,
0011
0000
1000
0100
0010
0000
0002
0000
1003
0010
1000
0010
0001
0010
0001
0010
,
2000
0000
3000
1000
0001
0000
0001
0000
1000
1000
0100
0100
0001
0001
0010
0010
,
2000
0000
0000
0000
0000
0000
0000
0000
0000
0000
0000
0000
0000
0000
0000
0000
0000
0000
0000
0000
0000
0000
0000
0000
3001
0000
0000
0000
0000
0000
0000
0000
0000
0000
0000
0000
0010
0000
0000
0000
0000
0000
0000
0000
0000
0000
0000
0000
0100
0000
0000
0000
0000
0000
0000
0000
0000
0000
0000
0000
1000
0000
0000
0000
0000
0000
0000
0000
0000
0000
0000
0000
0100
0000
0000
0000
0000
0000
0000
0000
0000
0000
0000
0000
0010
0000
0000
0000
0000
0000
0000
0000
0000
0000
0000
0000
0002
0000
0000
0000
0000
0000
0000
0000
0000
0000
0000
0000
0000
0000
0000
0000
0000
0000
0000
0000
0000
0000
0000
0000
0103
0000
0000
0000
0000
0000
0100
0000
0000
0000
0000
0000
0010
0000
0000
0000
0000
0000
0010
0000
0000
0000
0000
0000
1001
0000
0000
0000
0000
0000
0000
0000
0000
0000
0000
0000
0000
0000
0000
0000
0000
0000
0000
0000
0000
0000
0000
0000
0001
0000
0000
0000
0000
0000
0000
0000
0000
0000
0000
0000
0000
0000
0000
0000
0010
0000
0000
0000
0000
0000
0000
0000
,
0100
0000
0000
0011
0000
0000
1100
0000
0000
1010
0000
0000
0110
0000
0000
0002
0000
0000
1003
0000
0000
0100
0000
0001
,
0100
0000
0000
1100
0000
0000
1001
0000
0000
0011
0000
0000
1010
0000
0000
0200
0000
0000
0301
0000
0000
0001
0000
0010
,
0100
0000
1010
0000
0011
0000
1010
0000
0110
0000
0002
0000
1003
0010
1000
0010
,
0001
0010
1000
0100
0001
0000
0100
0000
0110
0000
0002
0000
1003
0100
1000
0100
,
0010
0001
0010
0001
1000
0100
0010
0001
1000
0100
0020
0000
0031
0100
0001
0100
,
0010
1000
0010
1000
0001
0100
0010
1000
0001
0100
0020
0000
1030
0100
1000
0100
,
0001
0100
0001
0100
1000
0100
0001
0100
1000
0001
0020
0000
0031
0100
0001
0100
,
1000
0100
0010
1000
0002
0000
0013
0000
2000
0000
3100
0000
1001
0000
0000
0000
;
