#TITLE:REVEAL;
#SUBTITLE:;
#ARTIST:THE BOYZ;
#TITLETRANSLIT:;
#SUBTITLETRANSLIT:;
#ARTISTTRANSLIT:;
#GENRE:K-Pop;
#CREDIT:;
#BANNER:REVEAL.png;
#BACKGROUND:REVEAL-bg.png;
#LYRICSPATH:;
#CDTITLE:../cdtitle.png;
#MUSIC:REVEAL.ogg;
#OFFSET:1.855000;
#SAMPLESTART:51.175999;
#SAMPLELENGTH:15.000000;
#LASTBEATHINT:1.353750;
#SELECTABLE:YES;
#BPMS:0.000000=95.000000
;
#STOPS:147.000000=2.526000
;
#BGCHANGES:3.000=REVEAL.avi=1.000=0=0=0=StretchNoLoop====,
99999=-nosongbg-=1.000=0=0=0 // don't automatically add -songbackground-
;
#KEYSOUNDS:;
#ATTACKS:;

//---------------dance-single - ----------------
#NOTES:
     dance-single:
     :
     Challenge:
     14:
     0.545113,0.563414,0.574497,0.553219,0.500025,538.000000,457.000000,81.000000,78.000000,0.000000,0.000000,0.545113,0.563414,0.574497,0.553219,0.500025,538.000000,457.000000,81.000000,78.000000,0.000000,0.000000:
0000
0000
0000
0000
,
0000
0000
0000
0000
,
0000
0000
0000
0000
,
0000
0000
0000
0000
,
0000
0000
0000
0000
0000
0000
0000
0000
0000
0000
0000
0000
0000
0000
0000
0000
0000
1000
0100
0000
0001
0100
0000
1000
,
0020
0000
0000
0030
0000
0000
0100
0000
0001
0010
0000
1000
0020
0000
0000
0030
0000
0000
0001
0000
0000
1001
0000
0000
,
0002
0000
0000
0103
0000
0010
0001
0000
0010
0100
0000
0010
2000
0000
0000
3000
0000
0000
1100
0000
0100
0010
0000
0010
,
0001
0000
0000
0101
0000
0000
0010
0000
0010
1000
0000
1000
0001
0000
0000
1001
0000
0000
0010
0000
0020
0000
0000
0000
,
0130
0000
0000
0000
0000
0000
0010
0000
0000
0000
0000
0000
1100
0000
0000
0000
0000
0000
0010
0000
0000
0000
0000
0000
0101
0000
0000
0000
0001
0000
1000
0000
0000
0000
0020
0000
0000
0000
0000
0000
0000
0000
0130
0000
0000
0010
0000
0000
,
1000
0100
1000
0100
1000
0010
1000
0010
0100
0000
0102
0000
0013
0000
0100
0010
,
0001
0000
0000
0100
0000
0000
0001
0000
0000
0100
0000
0000
0001
0000
0000
0010
0000
0000
0001
0000
0000
0010
0000
0000
0100
0000
0000
0000
0000
0000
2100
0000
0000
0000
0000
0000
3010
0000
0000
0000
0100
0000
0001
0000
0000
0000
1000
0000
,
0010
0000
0000
0101
0000
0000
0010
0000
0100
1000
0000
0001
0010
0000
0000
1100
0000
0000
0001
0000
0002
0000
0000
0000
,
1003
0000
0000
1010
0000
0000
0100
0000
0000
0011
0000
0000
0100
0000
1000
0001
0000
2000
0000
0000
0000
3000
0000
0000
,
2100
0000
0000
3000
0000
0001
0100
0000
0000
0001
0000
0000
0020
0000
0000
0030
0000
0100
1000
0000
0000
0002
0000
0000
,
1003
0000
0000
1100
0000
0000
0001
0000
0000
0110
0000
0000
1000
0000
0100
0010
0000
0200
0000
0000
0000
0300
0000
0000
,
2000
0000
0000
3000
0000
0001
0010
0000
0000
0001
0000
0000
0200
0000
0000
0300
0000
0010
1000
0000
0000
0002
0000
0000
,
1003
0000
0000
0000
0000
0000
0100
0000
0000
0000
0100
0000
0010
0000
0000
0000
0010
0000
0001
0000
0000
0000
0000
0000
0101
0000
0000
0000
0000
0000
1000
0000
0000
0000
0020
0000
0000
0000
0000
0000
0000
0000
0130
0000
0000
0010
0000
0000
,
1000
0000
0000
0100
0000
0000
0010
0000
0001
0000
0000
0100
0000
0000
0010
0000
2000
0000
0000
0000
3000
0000
0000
0000
1001
0000
0000
0000
0001
0000
0010
0000
,
0100
0000
0000
1000
0000
0000
0010
0000
0100
0000
0000
0001
0000
0000
0010
0000
0200
0000
0000
0000
0300
0000
0000
0000
0110
0000
0000
0000
0000
0000
0000
0000
,
2000
0000
0000
3000
0000
0010
1000
0000
0000
0001
0000
0000
0020
0000
0000
0030
0000
0001
0100
0000
0000
0010
0000
0000
,
2000
0000
3010
0100
0001
0010
0100
1000
0010
0100
0001
0010
0200
0000
0000
0000
0000
0000
0300
0000
0000
0000
0000
0000
,
0110
0000
0000
0001
0000
0001
0010
0000
0000
0110
0000
0000
1000
0000
1000
0010
0000
0000
0200
0000
0302
0000
2003
0000
,
3020
0000
0000
0130
0000
0000
1100
0000
0000
1100
0000
0000
0101
0000
0000
1000
0000
0001
0020
0000
0000
0130
0000
0000
,
0110
0000
0000
1000
0000
1000
0010
0000
0000
0110
0000
0000
0001
0000
0001
0010
0000
0000
0200
0000
2300
0000
3002
0000
,
0023
0000
0000
0130
0000
0000
0101
0000
0000
0101
0000
0000
1100
0000
0000
0001
0000
1000
0020
0000
0000
0030
0000
0000
,
0100
0000
0100
0010
0000
0000
1000
0000
0000
0100
0000
0000
1100
0000
0000
0110
0000
0000
0022
0000
0000
0033
0000
0000
,
0001
0000
0100
0010
0000
1000
0001
0000
0000
0100
0000
0000
0101
0000
0000
0110
0000
0000
2010
0000
0000
3001
0000
0000
,
0110
0000
0000
1000
0000
1000
0010
0000
0000
0110
0000
0000
0001
0000
0001
0010
0000
0000
1100
0000
0000
0022
0000
0000
,
0033
0000
0000
0220
0000
0000
0330
0000
0000
1000
0000
0001
0100
0000
0000
0010
0000
0000
1000
0000
0100
0010
0000
0001
,
2000
0100
0001
0100
,
3020
0100
0001
0100
,
2030
0010
0001
0010
,
3200
0000
0000
0000
0000
0000
0010
0000
0000
0000
0000
0000
0001
0000
0000
0000
0000
0000
0310
0000
0010
0100
0000
0100
,
2000
0000
0000
3000
0000
0000
1100
0000
0100
1000
0000
1000
0002
0000
0000
0003
0000
0000
0101
0000
0100
0001
0000
0001
,
1000
0000
1000
0010
0000
0010
0001
0000
0000
1010
0000
0000
0021
0000
0000
0000
0000
0000
0130
0000
0000
0000
0000
0000
,
1000
0000
0000
0100
0000
0000
0010
0000
0001
0000
0000
0000
1000
0000
0000
0000
0001
0000
0000
0100
0000
0000
0010
0000
1000
0000
0000
0000
0001
0000
0000
0000
,
0101
1001
1010
0011
2200
3300
0110
0000
,
0110
0000
0000
0001
0000
0001
0010
0000
0000
0110
0000
0000
1000
0000
1000
0010
0000
0000
0200
0000
0302
0000
2003
0000
,
3020
0000
0000
0130
0000
0000
1100
0000
0000
1100
0000
0000
0101
0000
0000
1000
0000
0001
0020
0000
0000
0130
0000
0000
,
0110
0000
0000
1000
0000
1000
0010
0000
0000
0110
0000
0000
0001
0000
0001
0010
0000
0000
0200
0000
2300
0000
3002
0000
,
0023
0000
0000
0130
0000
0000
0101
0000
0000
0101
0000
0000
1100
0000
0000
0001
0000
1000
0020
0000
0000
0030
0000
0000
,
0100
0000
0100
0010
0000
0000
1000
0000
0000
0100
0000
0000
1100
0000
0000
0110
0000
0000
0022
0000
0000
0033
0000
0000
,
0001
0000
0100
0010
0000
1000
0001
0000
0000
0100
0000
0000
0101
0000
0000
0110
0000
0000
2010
0000
0000
3001
0000
0000
,
0110
0000
0000
1000
0000
1000
0010
0000
0000
0110
0000
0000
0001
0000
0001
0010
0000
0000
1100
0000
0000
0022
0000
0000
,
0033
0000
0000
0220
0000
0000
0330
0000
0000
1000
0000
0001
0100
0000
0000
0010
0000
0000
1000
0000
0100
0010
0000
0200
,
0000
0000
0300
0101
0000
0000
1100
0000
0000
0010
0000
0000
0101
0000
0000
0001
0000
0010
0200
0000
0000
0300
0000
0000
,
1000
0000
1000
0010
0000
0010
0001
0000
0000
0010
0000
0000
2000
0000
0000
3000
0000
0100
0010
0000
0000
1001
0000
0000
,
0001
0000
0000
0110
0000
0000
1000
0000
0000
0010
0000
0000
0110
0000
0000
1000
0000
0100
0020
0000
0000
0030
0000
0000
,
0001
0100
0010
1000
0001
0100
0020
0000
0000
1030
0100
0010
0001
1000
0100
0010
0001
0100
0020
0000
0000
0030
0000
0000
,
0100
0000
0000
0101
0000
0000
1100
0000
0000
0010
0000
0000
0101
0000
0000
0001
0000
0010
0200
0000
0000
0300
0000
0000
,
1000
0000
0100
0001
0000
0100
1000
0000
0000
0001
0000
0100
0020
0000
0000
0030
0000
0100
0001
0000
0000
1001
0000
0000
,
0001
0000
0000
0110
0000
0000
1000
0000
0000
0100
0000
0001
0100
0000
0000
0010
0000
0001
2000
0000
0000
3000
0000
0000
,
0001
0010
0100
1000
0001
0010
0200
0000
0000
1300
0010
0100
0001
1000
0010
0100
0001
0010
0200
0000
0000
1300
0000
0001
;

//---------------dance-single - ----------------
#NOTES:
     dance-single:
     :
     Hard:
     13:
     0.478241,0.469512,0.524849,0.503571,0.319165,472.000000,398.000000,74.000000,71.000000,0.000000,0.000000,0.478241,0.469512,0.524849,0.503571,0.319165,472.000000,398.000000,74.000000,71.000000,0.000000,0.000000:
// measure 0
0000
0000
0000
0000
,  // measure 1
0000
0000
0000
0000
,  // measure 2
0000
0000
0000
0000
,  // measure 3
0000
0000
0000
0000
,  // measure 4
0000
0000
0000
0000
0000
0000
0000
0000
0000
0000
0000
0000
0000
0000
0000
0000
0000
0000
1000
0000
0100
1000
0000
0000
,  // measure 5
0002
0000
0000
0003
0000
0000
1000
0000
0100
1000
0000
0000
0020
0000
0000
0030
0000
0000
0100
0000
0000
0100
0000
0000
,  // measure 6
1000
0000
0000
0100
0000
0000
0010
0000
1000
0010
0000
0000
2000
0000
0000
3000
0000
0000
0100
0000
0010
0001
0000
0000
,  // measure 7
1000
0000
0000
1100
0000
0000
0001
0000
0100
0010
0000
0000
1000
0000
0000
1100
0000
0000
0010
0000
0020
0000
0000
0000
,  // measure 8
0130
0000
0000
0010
0000
0000
1100
0000
0000
0010
0000
0000
0101
0000
0001
1000
0000
0200
0000
0000
0000
0310
0000
0000
,  // measure 9
0001
1000
0100
0000
0001
0100
1000
0000
0001
0000
0022
0000
0033
0000
0110
0000
,  // measure 10
1000
0000
0000
0001
0000
0000
0010
0000
0000
0000
0000
0000
1000
0000
0000
0010
0000
0000
0001
0000
0000
0000
0000
0000
1000
0000
0000
0000
0000
0000
2100
0000
0000
0000
0000
0000
3001
0000
0000
0000
0001
0000
0100
0000
0000
0000
0000
0000
,  // measure 11
0010
0000
0000
0110
0000
0000
1000
0000
1000
0100
0000
0000
0010
0000
0000
0110
0000
0000
0001
0000
0002
0000
0000
0000
,  // measure 12
0103
0000
0000
0010
0000
0000
0101
0000
0000
0010
0000
0000
1100
0000
1000
0001
0000
0200
0000
0000
0000
0300
0000
0000
,  // measure 13
2001
0000
0000
0000
0000
0100
0000
0000
0000
0001
0000
0000
3020
0000
0000
0000
0000
0100
0000
0000
0000
0001
0000
0000
,  // measure 14
1030
0000
0000
1010
0000
0000
0001
0000
0000
0011
0000
0000
0100
0000
0010
0100
0000
0020
0000
0000
0000
0030
0000
0000
,  // measure 15
1002
0000
0000
0000
0000
0010
0000
0000
0000
1000
0000
0000
0203
0000
0000
0000
0000
0010
0000
0000
0000
1000
0000
0000
,  // measure 16
0301
0000
0000
0101
0000
0000
1000
0000
0100
1000
0000
0000
0010
0000
0000
0100
0000
0020
0000
0000
0000
0130
0000
0000
,  // measure 17
0001
0000
0000
1000
0000
0000
0100
0000
0001
0000
0000
0100
0000
0000
1000
0000
0002
0000
0000
0000
0003
0000
0000
0000
0101
0000
0000
0000
0010
0000
0000
0000
,  // measure 18
1000
0000
0000
0001
0000
0000
0010
0000
1000
0000
0000
0010
0000
0000
0001
0000
2000
0000
0000
0000
3000
0000
0000
0000
1010
0000
0000
0000
0000
0000
0000
0000
,  // measure 19
0200
0000
0000
0300
0000
0001
1000
0000
0000
0100
0000
0000
0020
0000
0000
0030
0000
0100
1000
0000
0000
0001
0000
0000
,  // measure 20
0020
0000
0000
0230
0000
0000
0310
0000
0001
0100
0000
0010
2000
0000
0000
0000
0000
0000
3000
0000
0000
0000
0000
0000
,  // measure 21
0110
0000
0000
0001
0000
0010
0001
0000
0000
0110
0000
0000
1000
0000
0010
1000
0000
0000
0100
0000
1000
0000
0001
0000
,  // measure 22
0020
0130
0110
0100
0101
0010
2002
3003
,  // measure 23
0110
0000
0000
1000
0000
0010
1000
0000
0000
0110
0000
0000
0001
0000
0010
0001
0000
0000
0100
0000
0001
0000
1000
0000
,  // measure 24
0020
0130
0110
0100
1100
0010
2002
3003
,  // measure 25
1000
0000
0100
0010
0000
0000
0001
0000
0000
0100
0000
0000
1010
0000
0000
0010
0000
0000
0022
0000
0000
0033
0000
0000
,  // measure 26
1000
0000
0010
0100
0000
0000
0001
0000
0000
0010
0000
0000
1100
0000
0000
0100
0000
0000
0201
0000
0000
0310
0000
0000
,  // measure 27
0110
0000
0000
0001
0000
0100
0001
0000
0000
0110
0000
0000
1000
0000
0100
1000
0000
0000
0001
0000
0000
0220
0000
0000
,  // measure 28
0330
0000
0000
2002
0000
0000
3003
0000
0000
0001
0000
0100
0010
0000
0000
1000
0000
0000
0100
0000
0010
0100
0000
0000
,  // measure 29
2000
0100
0001
0100
,  // measure 30
3010
0100
1010
0001
0010
0100
0020
0030
,  // measure 31
0200
0010
1000
0001
,  // measure 32
0320
0000
0000
0030
0000
0000
0100
0000
0000
1000
0000
0000
0002
0000
0000
0003
0000
0000
0100
0000
0001
0100
0000
0000
,  // measure 33
0020
0000
0000
0030
0000
0000
1000
0000
0100
1000
0000
0000
0020
0000
0000
0030
0000
0000
0100
0000
0001
1000
0000
0000
,  // measure 34
0001
0000
0010
0100
0000
0000
1000
0000
0000
0001
0000
0000
2000
0000
0000
0000
0000
0000
3001
0000
0000
0000
0000
0000
,  // measure 35
0100
0000
0000
0010
0000
0000
0010
0000
0100
0000
0000
0000
0001
0000
0000
0000
0010
0000
0000
0100
0000
0000
0100
0000
0010
0000
0000
0000
0001
0000
0000
0000
,  // measure 36
1100
0100
0101
0100
0220
0330
1001
0000
,  // measure 37
0110
0000
0000
0001
0000
0010
0001
0000
0000
0110
0000
0000
1000
0000
0010
1000
0000
0000
0100
0000
1000
0000
0001
0000
,  // measure 38
0020
0130
0110
0100
0101
0010
2002
3003
,  // measure 39
0110
0000
0000
1000
0000
0010
1000
0000
0000
0110
0000
0000
0001
0000
0010
0001
0000
0000
0100
0000
0001
0000
1000
0000
,  // measure 40
0020
0130
0110
0100
1100
0010
2002
3003
,  // measure 41
1000
0000
0100
0010
0000
0000
0001
0000
0000
0100
0000
0000
1010
0000
0000
0010
0000
0000
0022
0000
0000
0033
0000
0000
,  // measure 42
1000
0000
0010
0100
0000
0000
0001
0000
0000
0010
0000
0000
1100
0000
0000
0100
0000
0000
0201
0000
0000
0310
0000
0000
,  // measure 43
0110
0000
0000
0001
0000
0100
0001
0000
0000
0110
0000
0000
1000
0000
0100
1000
0000
0000
0001
0000
0000
0220
0000
0000
,  // measure 44
0330
0000
0000
2002
0000
0000
3003
0000
0000
0001
0000
0100
0010
0000
0000
1000
0000
0000
0100
0000
0010
0100
0000
2000
,  // measure 45
0000
0000
0000
3010
0000
0000
1001
0000
0000
0010
0000
0000
0110
0000
0000
0001
0000
2000
0000
0000
0000
3000
0000
0000
,  // measure 46
0001
0000
0100
0010
0000
0000
1000
0000
0000
0100
0000
0000
2200
0000
0000
3300
0000
0010
0001
0000
0000
1001
0000
0000
,  // measure 47
0010
0000
0000
0101
0000
0000
1000
0000
0000
0100
0000
0000
0110
0000
0000
0001
0000
2000
0000
0000
0000
3000
0000
0000
,  // measure 48
0010
0000
0001
0010
0000
0000
1001
0000
0000
1000
0000
0100
0001
0000
0100
1000
0000
0000
0220
0000
0000
0330
0000
0000
,  // measure 49
0000
0000
0000
0100
0000
0000
1001
0000
0000
0100
0000
0000
0110
0000
0000
1000
0000
0002
0000
0000
0000
0003
0000
0000
,  // measure 50
1000
0000
0010
0100
0000
0000
0001
0000
0000
0010
0000
0000
0022
0000
0000
0033
0000
0100
1000
0000
0000
1001
0000
0000
,  // measure 51
0100
0000
0000
1010
0000
0000
0001
0000
0000
0010
0000
0010
0100
0000
0000
1000
0000
0002
0000
0000
0000
0003
0000
0000
,  // measure 52
0100
0000
1000
0100
0000
0000
1001
0000
0000
0001
0000
0010
1000
0000
0010
0001
0000
0000
0210
0000
0000
1300
0000
0001
;

//---------------dance-single - ----------------
#NOTES:
     dance-single:
     :
     Medium:
     9:
     0.370839,0.413171,0.397183,0.439738,0.007093,366.000000,310.000000,56.000000,62.000000,0.000000,0.000000,0.370839,0.413171,0.397183,0.439738,0.007093,366.000000,310.000000,56.000000,62.000000,0.000000,0.000000:
0000
0000
0000
0000
,
0000
0000
0000
0000
,
0000
0000
0000
0000
,
0000
0000
0000
0000
,
0000
0000
0000
0000
0000
0000
1000
0100
,
0002
0003
1000
0100
0020
0030
1000
0100
,
0001
0100
1000
0001
0020
0030
0100
1000
,
0010
0010
0100
0001
0010
0010
0210
0300
,
0010
0001
0101
1000
1100
0001
0200
0300
,
0001
1000
0100
1000
0010
0010
0110
0000
,
1000
0001
0100
0001
0010
0010
0110
0100
,
0010
0010
1100
0001
0100
0100
0210
0300
,
0010
1000
1100
0001
0101
1000
0200
0300
,
0020
0100
0032
0100
,
1003
1000
0100
0100
0010
0100
2000
3000
,
0020
0100
2030
0100
,
3001
0100
0001
0001
0010
0100
0020
0030
,
0001
0001
0100
0001
0020
0030
0101
0000
,
1000
1000
0100
1000
0020
0030
1100
0000
,
0002
0000
0000
0000
0000
0023
0000
0000
0000
0130
0000
0000
2000
0000
0000
0000
0000
3020
0000
0000
0000
0130
0000
0000
,
0001
0010
1000
0010
2002
0000
3003
0000
,
0110
1000
0100
0110
0001
0100
0110
0001
,
0020
0130
0100
0100
0100
0010
2002
3003
,
0110
0001
0100
0110
1000
0100
0110
1000
,
0020
0130
0100
0100
0100
0010
2002
3003
,
0001
0010
1000
0010
0001
0001
0220
0330
,
1000
0010
0001
0010
1000
1000
0110
1000
,
1100
0010
0001
0101
0010
1000
0011
2200
,
3300
0220
0330
0001
1000
0010
0001
0010
,
2000
0100
0000
0100
,
0000
0010
0000
3010
,
0002
0100
0000
0100
,
0000
0000
0010
0000
0000
0000
0013
0100
,
0010
0000
0001
0100
0001
0000
1000
0100
,
1000
0010
0100
0010
2000
0000
3100
0000
,
0010
0100
1100
0000
0010
0100
0101
0000
,
0010
0010
0100
0100
2000
0000
3001
0000
,
0110
1000
0100
0110
0001
0100
0110
0001
,
0020
0130
0100
0100
0100
0010
2002
3003
,
0110
0001
0100
0110
1000
0100
0110
1000
,
0020
0130
0100
0100
0100
0010
2002
3003
,
0001
0010
1000
0010
0001
0001
0220
0330
,
1000
0010
0001
0010
1000
1000
0110
1000
,
1100
0010
0001
0101
0010
1000
0011
2200
,
3300
0220
0330
0001
1000
0010
0001
0010
,
2000
3000
1100
0001
0110
1000
0002
0003
,
0010
1000
0001
0100
0020
0030
0101
0001
,
1000
0100
0010
0100
1000
0001
0202
0303
,
0010
0010
0011
0010
0010
0010
2020
3030
,
0000
0001
0101
1000
0110
0001
2000
3000
,
0010
0001
1000
0100
0020
0030
1100
1000
,
0001
0100
0010
0100
0001
1000
2200
3300
,
0010
0000
0000
0010
0000
0000
1010
0000
0000
0010
0000
0000
0010
0000
0000
0010
0000
0000
0022
0000
0000
0030
0000
0003
;

//---------------dance-single - ----------------
#NOTES:
     dance-single:
     :
     Easy:
     7:
     0.263438,0.281707,0.248239,0.191499,0.000000,260.000000,225.000000,35.000000,27.000000,0.000000,0.000000,0.263438,0.281707,0.248239,0.191499,0.000000,260.000000,225.000000,35.000000,27.000000,0.000000,0.000000:
0000
0000
0000
0000
,
0000
0000
0000
0000
,
0000
0000
0000
0000
,
0000
0000
0000
0000
,
0000
0000
0000
0010
,
0200
0300
0100
0000
0020
0030
0010
0000
,
0100
0000
1000
0010
0010
0000
0101
0000
,
1000
0100
0001
0000
1000
0010
0002
0000
,
1003
0000
1100
0000
0100
0001
0100
0000
,
1000
1000
0001
0000
0010
0000
0101
0000
,
0010
0010
0100
0000
0001
0000
1100
0000
,
0001
0100
1000
0000
0001
0010
2000
0000
,
3001
0000
0101
0000
0100
1000
0100
0000
,
0002
0100
0023
0100
,
0031
0000
0101
0000
1000
0100
0010
0000
,
2000
0100
3020
0100
,
1030
0000
1100
0000
0001
0100
0010
0000
,
1000
1000
2000
3100
,
0001
0001
0002
0013
,
2000
0000
3100
0010
0002
0000
0103
0010
,
2000
0100
0002
3003
,
0110
1000
0110
0001
,
0010
0100
0100
0000
0100
0000
1001
0000
,
0110
0001
0110
1000
,
0010
0100
0100
0000
0100
0000
1001
0000
,
0100
0010
0010
0000
0100
0000
0101
0000
,
1000
0001
0001
0000
1000
0000
1100
0000
,
0110
0000
1000
0000
0110
0000
0001
0020
,
0000
0130
0000
0010
0100
1000
0001
0000
,
2000
0100
0000
0100
,
0000
0010
0020
3030
,
0002
0100
0000
0100
,
0013
0100
0020
0030
,
0002
0103
0200
1300
,
1000
0010
0010
0000
0002
0000
1003
0000
,
0010
1100
0010
0101
,
0010
0010
0010
0000
2000
0000
3001
0000
,
0110
1000
0110
0001
,
0010
0100
0100
0000
0100
0000
1001
0000
,
0110
0001
0110
1000
,
0010
0100
0100
0000
0100
0000
1001
0000
,
0100
0010
0010
0000
0100
0000
0101
0000
,
1000
0001
0001
0000
1000
0000
1100
0000
,
0110
0000
1000
0000
0110
0000
0001
0020
,
0000
0130
0000
0010
0100
1000
0002
0000
,
0003
0000
1001
0000
0100
0010
0100
0000
,
1000
0001
0001
0000
0010
0000
1010
0000
,
0001
0100
1000
0000
1000
0010
0001
0000
,
0010
0010
0010
0000
0100
0100
1001
0000
,
0000
0010
1001
0000
0100
0010
0100
0000
,
0001
1000
1000
0000
0010
0000
0011
0000
,
1000
0100
0001
0000
0001
0010
1000
0000
,
0010
0000
0000
0010
0000
0000
0010
0000
0000
0000
0000
0000
0100
0000
0000
0100
0000
0000
2002
0000
0000
0000
0000
3003
;

//---------------dance-single - ----------------
#NOTES:
     dance-single:
     :
     Beginner:
     3:
     0.099296,0.130946,0.000000,0.042555,0.000000,98.000000,98.000000,0.000000,6.000000,0.000000,0.000000,0.099296,0.130946,0.000000,0.042555,0.000000,98.000000,98.000000,0.000000,6.000000,0.000000,0.000000:
0000
0000
0000
0000
,
0000
0000
0000
0000
,
0000
0000
0000
0000
,
0000
0000
0000
0000
,
0000
0000
0000
0000
,
0010
0000
0001
0000
,
1000
1000
1000
0000
,
0001
0000
1000
0000
,
0100
0100
0100
0000
,
0010
0000
0010
0000
,
0100
0000
0100
0000
,
1000
0000
0001
0000
,
0100
0100
0100
0000
,
0002
0000
0000
0000
,
0003
0000
0000
0000
,
2000
0000
0000
0000
,
3000
0000
0000
0000
,
0001
0001
0001
0000
,
0010
0010
0010
0000
,
1000
0000
0100
0000
,
0002
0000
0003
0000
,
0100
0000
0100
0000
,
0100
0100
0100
0000
,
0100
0000
0100
0000
,
0100
0100
0100
0000
,
0010
0000
0001
0000
,
0010
0000
1000
0000
,
0100
0000
0100
0000
,
0010
0000
0001
0000
,
0200
0000
0000
0000
,
0300
0000
0000
0000
,
0200
0000
0000
0000
,
0300
0000
0000
0000
,
1000
0000
1000
0000
,
0010
0010
0010
0000
,
0001
0000
0001
0000
,
2000
0000
0000
3000
,
0100
0000
0100
0000
,
0100
0100
0100
0000
,
0100
0000
0100
0000
,
0100
0100
0100
0000
,
0010
0000
1000
0000
,
0010
0000
0001
0000
,
0100
0000
0100
0000
,
0010
0000
1000
0000
,
0000
0100
0100
0000
,
0010
0000
0100
0000
,
1000
1000
1000
0000
,
0010
0010
0010
0010
,
0000
0100
0100
0000
,
0010
0000
0100
0000
,
0001
0001
0001
0000
,
0010
0010
0010
0010
;
