#TITLE:REALLY REALLY;
#SUBTITLE:;
#ARTIST:WINNER;
#TITLETRANSLIT:;
#SUBTITLETRANSLIT:;
#ARTISTTRANSLIT:;
#GENRE:K-Pop;
#CREDIT:;
#BANNER:REALLY REALLY.png;
#BACKGROUND:REALLY REALLY-bg.png;
#LYRICSPATH:;
#CDTITLE:../cdtitle.png;
#MUSIC:REALLY REALLY.ogg;
#OFFSET:1.680000;
#SAMPLESTART:58.896000;
#SAMPLELENGTH:15.000000;
#LASTBEATHINT:1.167333;
#SELECTABLE:YES;
#DISPLAYBPM:103.000000;
#BPMS:0.000000=103.000000
,100.000000=34.333000
,101.000000=103.000000
,166.000000=34.333000
,167.000000=103.000000
;
#STOPS:
;
#BGCHANGES:3.625=REALLY REALLY.avi=1.000=0=0=0=StretchNoLoop====,
99999=-nosongbg-=1.000=0=0=0 // don't automatically add -songbackground-
;
#KEYSOUNDS:;
#ATTACKS:;

//---------------dance-single - ----------------
#NOTES:
     dance-single:
     :
     Challenge:
     13:
     0.475404,0.592177,0.113707,0.469989,0.542003,439.000000,424.000000,15.000000,62.000000,48.000000,0.000000,0.475404,0.592177,0.113707,0.469989,0.542003,439.000000,424.000000,15.000000,62.000000,48.000000,0.000000:
0000
0000
0000
0000
,
0000
0000
0000
0000
,
0000
0000
0000
0000
,
0000
0000
0000
0000
,
0000
0000
0000
0000
0000
0000
0000
MMMM
,
0010
0000
0000
0000
0110
0000
0001
0100
0020
0000
1030
0100
0010
0001
0010
0000
,
0200
0000
0310
0000
MMMM
0000
0110
1000
,
0002
0000
0000
0000
0103
0000
0010
1000
0200
0000
0310
0001
0100
0010
1000
0000
,
0002
0000
0023
0000
0230
0000
2300
0000
3001
0100
0010
1000
0000
0100
0010
0000
,
1100
0000
0000
0000
1000
0100
0010
0000
MMMM
0000
0000
0000
1000
0010
0001
0000
,
MMMM
0000
0000
0000
0001
0010
1000
0000
MMMM
0000
0000
0000
0100
0001
0010
0000
,
MMMM
0000
0000
0000
1000
0010
0100
0000
MMMM
0000
0000
0000
1000
0100
0001
0000
,
MMMM
0000
0000
0000
0010
0100
1000
0100
0001
0000
0100
2000
0000
3001
0000
0010
,
0200
0000
0000
1300
0000
0000
1000
0001
1000
0000
0100
2000
0000
0000
3001
0100
,
0010
0000
0100
0010
0000
1000
0000
2000
0000
0000
3100
0010
0000
0001
0000
0002
,
0000
0000
0003
0000
1000
0100
0010
0000
MMMM
0000
0000
0000
1000
0010
0001
0000
,
MMMM
0000
0000
0000
0100
0001
0010
0100
0001
1000
0010
0100
1000
0010
0100
0001
,
0020
1000
0000
0001
,
0000
1000
0130
0110
,
0200
0001
0000
1000
,
0000
0001
0310
0110
,
1000
0000
0000
0001
0100
0000
0010
0000
1000
0100
0000
0100
1000
0000
0001
0000
,
0100
0000
0000
0000
0000
0000
0000
0000
0000
0010
0000
0000
1000
0000
0000
0000
0000
0000
0100
0000
0000
0000
0000
0000
0010
0000
0000
0001
0000
0000
0000
0000
0000
0001
0000
0000
1000
0000
0000
0000
0000
0000
0001
0000
0100
0000
0010
0000
,
1000
1100
0001
0001
0011
1000
1000
0010
,
1000
0000
0100
0000
1000
0000
0000
0000
0001
0000
0100
0000
0001
0000
0000
0000
1000
0000
0010
0000
0100
0000
0001
0000
0010
0000
0100
0000
1000
0001
1000
0001
,
0000
0000
0000
0000
0110
0000
MMMM
0000
1001
0000
1000
0100
1100
0000
1000
0001
,
0100
0010
0100
0001
0010
0100
0001
0100
0020
0000
0000
0000
0031
0000
1000
0100
,
0020
0000
0130
1000
0010
0100
0010
0000
2000
0000
0000
0000
3001
0000
0010
0100
,
2000
0000
3010
0100
1000
0100
0001
0000
2000
0000
3020
0000
0230
0000
0302
0000
,
0013
0000
0100
0010
0100
1000
0001
0010
0100
0000
1000
0010
1010
0000
1000
0001
,
0010
0100
0010
0001
0100
0010
0001
0010
0200
0000
0000
0000
0301
0000
1000
0010
,
0200
0000
0310
1000
0100
0010
0100
0000
2000
0000
0000
0000
3001
0000
0100
0010
,
2000
0000
3100
0010
1000
0010
0001
0000
2000
0000
3200
0000
0320
0000
0032
0000
,
0103
0000
0010
0100
0010
1000
0100
0010
0001
0000
0000
0100
0010
0000
0000
1000
,
0001
0000
0000
0000
0002
0000
0000
0000
1003
0000
0000
0100
0010
0000
0000
0100
,
1000
0000
1000
0000
0002
0000
0003
0000
1000
0000
0000
0100
0001
0000
0000
0100
,
1000
0000
0000
0000
0002
0000
0000
0000
0013
0000
0000
1000
0010
0000
0000
0001
,
0010
0000
1000
0000
0002
0000
0003
0100
1000
0000
0000
0001
0100
0000
0000
0010
,
1000
0000
0000
0000
0100
0010
0100
0010
0002
0000
0023
0000
0130
0000
1000
0001
,
2000
0000
3020
0000
0230
0000
0300
0010
1000
0000
0000
0001
0010
0000
0000
0100
,
1000
0000
0000
0000
0001
0100
0010
1000
0020
0000
0030
0000
1000
0100
0010
0100
,
2000
0000
0000
3020
0000
0000
0032
0000
0000
2000
0000
0000
0000
3003
0000
0000
0000
0000
0110
0000
0000
MMMM
0000
0000
,
1001
0000
0001
0010
0011
0000
0001
1000
0010
0100
0010
1000
0100
0010
1000
0010
,
0200
0000
0000
0000
1300
0000
0001
0010
0200
0000
0310
0001
0100
0010
0100
0000
,
0002
0000
0000
0000
1003
0000
0100
0010
0002
0000
0103
0010
0001
0010
1000
0000
,
0002
0000
0203
0000
0320
0000
2030
0000
3100
0000
0010
0100
0010
0001
1000
0100
,
0010
0000
0001
0100
0101
0000
0001
1000
0100
0010
0100
1000
0010
0100
1000
0100
,
0020
0000
0000
0000
1030
0000
0001
0100
0020
0000
0130
0001
0010
0100
0010
0000
,
0002
0000
0000
0000
1003
0000
0010
0100
0002
0000
0013
0100
0001
0100
1000
0000
,
0002
0000
0023
0000
0230
0000
2300
0000
3010
0000
0100
0010
0100
0001
0010
0100
,
0010
0000
0000
0010
0000
0000
0010
0000
0100
0000
0000
0100
0000
0000
0100
0000
,
1000
0000
0000
1000
0000
0000
0010
0000
0001
0000
0000
1000
0000
0000
0100
0000
,
0001
0000
0000
0001
0000
0000
0001
0000
1000
0000
0000
1000
0000
0000
0100
0000
,
0001
0000
0000
0001
0000
0000
0010
0000
1000
0000
0100
0020
0000
0000
0031
0000
;

//---------------dance-single - ----------------
#NOTES:
     dance-single:
     :
     Hard:
     12:
     0.448330,0.510497,0.098546,0.454828,0.469989,414.000000,401.000000,13.000000,60.000000,0.000000,0.000000,0.448330,0.510497,0.098546,0.454828,0.469989,414.000000,401.000000,13.000000,60.000000,0.000000,0.000000:
0000
0000
0000
0000
,
0000
0000
0000
0000
,
0000
0000
0000
0000
,
0000
0000
0000
0000
,
0000
0000
0000
0000
0000
0000
0000
0010
,
0110
0000
0000
0000
1001
0000
0001
0010
2000
0000
3010
0001
0000
0010
0001
0000
,
2000
0000
3010
0000
0001
0000
0001
0010
,
2000
0000
0000
0000
3010
0000
1000
0100
0002
0000
0103
1000
0000
0100
1000
0000
,
0020
0000
0230
0000
0302
0000
2003
0000
3100
0010
0001
0010
0000
0100
0010
0000
,
1100
0000
0000
0000
1000
0010
0001
0000
1000
0000
0000
0000
0001
0010
1000
0000
,
0001
0000
0000
0000
0010
1000
0001
0000
0100
0000
0000
0000
0010
0001
1000
0000
,
0010
0000
0000
0000
0001
0010
0100
0000
1000
0000
0000
0000
0100
0001
0010
0000
,
1000
0000
0000
0000
0010
0001
1000
0000
0010
0000
0100
0001
0000
1000
0000
0020
,
0000
0000
0000
0130
0000
0000
0001
0100
0001
0000
1000
0020
0000
0000
1030
0100
,
0010
0000
0100
1000
0000
0001
0000
0020
0000
0000
0130
1000
0000
0010
0000
0200
,
0000
0000
0300
0000
0001
0010
1000
0000
0001
0000
0000
0000
1000
0010
0001
0000
,
1000
0000
0000
0000
0010
0001
1000
0100
0010
0000
0100
0001
0000
1000
0100
0000
,
0020
1000
0000
0001
,
0000
1000
0031
1100
,
0200
0001
0000
1000
,
0000
0001
0310
0011
,
1000
0000
0000
0001
0100
0000
0010
0000
1000
0100
0000
0100
1000
0000
0001
0000
,
0100
0000
0000
0010
1000
0000
0100
0000
0010
0001
0000
0001
1000
0000
0010
0100
,
0001
0110
1000
1000
0110
0001
0001
1000
,
0001
0100
0010
0000
1000
0100
0010
0000
0100
1000
0010
0100
0001
0010
0100
0010
,
0000
0000
0000
0000
0110
0000
0000
0000
1001
0000
0010
0100
0010
0000
1000
0100
,
0010
0000
0100
1000
0000
0100
1000
0000
0002
0000
0000
0000
0103
0000
0010
1000
,
0002
0000
0013
0100
0000
0010
0001
0000
2000
0000
0000
0000
3010
0000
0100
0010
,
1000
0000
0100
0010
0000
0010
0001
0000
2000
0000
3020
0000
0032
0000
0203
0000
,
1300
0001
1000
0010
0000
0100
0001
0000
1001
0000
0100
0010
0100
0000
1000
0010
,
0100
0000
0010
1000
0000
0010
1000
0000
0200
0000
0000
0000
0310
0000
0100
1000
,
0002
0000
1003
0010
0000
0001
0010
0000
2000
0000
0000
0000
3100
0000
0010
0001
,
1000
0000
0010
0100
0000
1000
0100
0000
0020
0000
2030
0000
3200
0000
0302
0000
,
0103
1000
0001
0010
0000
0100
1000
0000
0001
0000
0000
1000
0100
0000
0000
1000
,
0010
0000
0000
0000
0002
0000
0000
0000
1003
0000
0000
0001
0010
0000
0000
1000
,
0100
0000
0010
0000
0002
0000
0000
0000
1003
0000
0000
0100
0001
0000
0000
0100
,
1000
0000
0000
0000
0002
0000
0000
0000
1003
0000
0000
0010
0001
0000
0000
0010
,
1000
0000
0100
0000
0020
0000
0030
0010
0001
0000
0000
0100
0001
0000
0000
1000
,
0010
0000
0000
0000
0100
0001
1000
0000
0002
0000
0023
0000
0130
0000
0010
0001
,
2000
0000
3020
0000
0230
0000
0300
0010
1000
0000
0000
0100
0010
0000
0000
0001
,
1000
0000
0000
0000
0100
0010
0100
0000
2000
0000
3000
0000
0010
0100
0010
0000
,
0002
0000
0000
0023
0000
0000
2030
0000
0000
0002
0000
0000
0000
3003
0000
0000
0000
0000
0110
0000
0000
0000
0000
0000
,
1001
0000
0010
0100
0010
0000
1000
0100
0010
0000
0100
0001
0100
1000
0001
0000
,
0020
0000
0000
0000
0130
0000
0010
0100
2000
0000
3100
0010
0001
0010
0100
0000
,
2000
0000
0000
0000
3010
0000
0100
0010
1000
0000
0100
0010
1000
0010
0001
0000
,
2000
0000
3200
0000
0320
0000
0032
0000
0103
0010
1000
0002
0000
0000
0103
0000
,
1001
0000
0100
0010
0100
0000
1000
0010
0100
0000
0010
0001
0010
1000
0001
0000
,
0200
0000
0000
0000
0310
0000
0100
0010
2000
0000
3010
0100
0001
0100
0010
0000
,
2000
0000
0000
0000
3100
0000
0010
0100
1000
0000
0010
0100
1000
0100
0001
0000
,
2000
0000
3020
0000
0230
0000
0302
0000
0013
0100
1000
0200
0000
0000
0320
0000
,
0031
0000
0000
0001
0000
0000
0001
0000
0100
0000
0000
0100
0000
0000
0010
0000
,
1000
0000
0000
1000
0000
0000
0100
0000
0001
0000
0000
0100
0000
0000
1000
0000
,
0001
0000
0000
0001
0000
0000
0001
0000
0010
0000
0000
0010
0000
0000
1000
0000
,
0001
0000
0000
0001
0000
0000
0100
0000
1000
0000
0010
0002
0000
0000
1003
0000
;

//---------------dance-single - ----------------
#NOTES:
     dance-single:
     :
     Medium:
     8:
     0.333541,0.367558,0.280477,0.280477,0.030322,308.000000,271.000000,37.000000,37.000000,0.000000,0.000000,0.333541,0.367558,0.280477,0.280477,0.030322,308.000000,271.000000,37.000000,37.000000,0.000000,0.000000:
0000
0000
0000
0000
,
0000
0000
0000
0000
,
0000
0000
0000
0000
,
0000
0000
0000
0000
,
0000
0000
0000
0000
,
0010
0000
1100
0000
0010
0000
0101
0010
,
2000
0000
3100
0000
0001
0000
0001
0100
,
2000
3001
0100
1010
,
0001
0010
1000
0100
0002
0000
0000
0003
,
1001
0000
1100
0010
0001
0000
1100
1000
,
0010
0000
0011
0100
1000
0000
0110
0001
,
0100
0000
0101
0010
1000
0000
0110
0001
,
1000
0000
1001
0100
0001
0010
1000
0010
,
0002
0000
0013
0000
0100
1000
0010
0000
,
0001
0000
0001
0010
2000
3000
1000
0100
,
0001
0000
0110
0001
1000
0000
1100
0010
,
0001
0000
1100
0001
1000
0010
0001
0010
,
2000
0100
0000
0100
,
0000
0001
3010
0110
,
0002
0100
0000
0100
,
0000
1000
0013
0110
,
1000
1100
0001
0101
,
0010
1010
0010
0011
,
1000
2000
0010
3010
0002
0010
0013
1000
,
2000
3100
0002
0103
2000
3200
0320
0032
,
0003
0000
0110
0000
1001
0000
0110
0001
,
1000
0010
0001
0010
2000
0000
3001
0000
,
0001
0000
1000
0100
0020
0030
0110
0001
,
1000
0010
0001
0010
2000
0000
3002
0000
,
1003
0010
0100
0001
1001
0000
0110
1000
,
0001
0010
1000
0010
0002
0000
1003
0000
,
1000
0000
0001
0100
0020
0030
0110
1000
,
0001
0010
1000
0010
0002
0000
2003
0000
,
3001
0010
0100
1000
0001
0000
0001
0000
,
0001
0002
1003
1000
,
1000
0100
1000
0000
0010
0000
0010
0000
,
0010
0020
0130
0100
,
0100
0001
0100
0000
0010
0000
0101
0000
,
0010
0000
1100
1000
0100
0010
0001
0000
,
0001
0010
0200
0000
0310
0000
0100
0000
,
1001
0000
0010
0001
2000
3000
0010
0001
,
0010
0000
0000
1000
0000
0000
0100
0000
0000
0020
0000
0000
0000
0030
0000
0000
0000
0000
0110
0000
0000
0000
0000
0000
,
1001
0000
0110
1000
0001
0100
1000
0100
,
0002
0000
1003
0000
1000
0000
0001
0010
,
0200
0300
0110
1000
0001
0100
1000
0100
,
0002
0000
2003
0000
3001
0100
0010
1000
,
1001
0000
0110
0001
1000
0100
0001
0100
,
2000
0000
3001
0000
0001
0000
1000
0010
,
0200
0300
0110
0001
1000
0100
0001
0100
,
2000
0000
3002
0000
1003
0100
0010
0001
,
1000
0000
0000
1000
0000
0000
1000
0000
0001
0000
0000
0001
0000
0000
0001
0000
,
0100
0000
0000
0100
0000
0000
0010
0000
0100
0000
0000
0100
0000
0000
0001
0000
,
1000
0000
0000
1000
0000
0000
1000
0000
0001
0000
0000
0001
0000
0000
0001
0000
,
0010
0000
0000
0010
0000
0000
0100
0000
0010
0000
0000
2000
0000
0000
3001
0000
;

//---------------dance-single - ----------------
#NOTES:
     dance-single:
     :
     Easy:
     5:
     0.214419,0.285878,0.242575,0.288058,0.000000,198.000000,166.000000,32.000000,38.000000,0.000000,0.000000,0.214419,0.285878,0.242575,0.288058,0.000000,198.000000,166.000000,32.000000,38.000000,0.000000,0.000000:
0000
0000
0000
0000
,
0000
0000
0000
0000
,
0000
0000
0000
0000
,
0000
0000
0000
0000
,
0000
0000
0000
0000
,
0010
1100
0010
0101
,
2000
3001
0000
0001
,
0002
1003
0100
0101
,
2000
0000
0002
0000
3003
0000
0000
0010
,
0100
1010
0001
0101
,
0010
0011
1000
1010
,
0001
0110
1000
0011
,
1000
0001
0001
0010
,
0200
0300
0001
1100
,
0001
0001
2000
3001
,
0100
0011
1000
1100
,
0010
1000
1000
0001
,
0020
1000
0000
0100
,
0000
0001
0030
1000
,
0020
0001
0000
0100
,
0000
1000
0030
0010
,
1000
1100
0001
0101
,
1000
1010
0001
0110
,
1000
2000
3002
2003
,
3020
0000
0230
0000
0301
0010
0100
0100
,
0000
0000
1001
0101
,
0010
0001
2000
3000
,
0001
0010
2000
3000
,
0001
1100
2000
3020
,
0130
0100
1001
1100
,
0010
1000
0002
0003
,
1000
0010
0002
0003
,
1000
0101
0002
0023
,
0130
0100
2000
0001
,
0000
0001
0000
0001
,
0000
3001
0002
1000
,
0000
1000
0000
1000
,
0000
1003
1000
1100
,
0001
0000
0110
0000
1000
1000
1000
0000
,
0001
0001
0001
0000
0010
0000
0011
0000
,
0100
1001
0200
0300
,
0020
0000
0030
0000
,
1001
0101
0010
0001
,
2000
3000
0001
0010
,
2000
3000
0001
1100
,
2000
3020
0130
0100
,
1001
1100
0010
1000
,
0002
0003
1000
0010
,
0002
0003
1000
0101
,
0002
0023
0130
0100
,
1000
0000
1000
0000
,
0002
2003
3020
0230
,
0301
0000
0001
0000
,
1000
0000
0000
0000
0010
0000
0020
0030
;

//---------------dance-single - ----------------
#NOTES:
     dance-single:
     :
     Beginner:
     3:
     0.099629,0.122519,0.000000,0.113707,0.000000,92.000000,92.000000,0.000000,15.000000,0.000000,0.000000,0.099629,0.122519,0.000000,0.113707,0.000000,92.000000,92.000000,0.000000,15.000000,0.000000,0.000000:
0000
0000
0000
0000
,
0000
0000
0000
0000
,
0000
0000
0000
0000
,
0000
0000
0000
0000
,
0000
0000
0000
0000
,
1000
0000
1000
0000
,
2000
3000
0000
0000
,
0001
0000
0001
0000
,
0002
0000
0003
0000
,
0000
0010
0000
1000
,
0000
0010
0000
0001
,
0000
1000
0000
0100
,
0000
0001
0001
0001
,
0002
0003
1000
0000
,
0010
0000
0001
0000
,
1000
1000
0000
0001
,
0000
1000
1000
0000
,
2000
0000
0000
0000
,
0000
0000
3000
0000
,
0002
0000
0000
0000
,
0000
0000
0003
0000
,
0010
0000
0100
0000
,
0010
0000
0100
0000
,
1000
0000
1000
0000
,
0001
0001
0001
0001
,
0000
0000
0100
0000
,
0010
0010
0020
0030
,
0000
1000
1000
0000
,
0001
0001
0001
0000
,
1000
0000
0100
0000
,
0010
0010
0010
0000
,
0001
0000
0001
0000
,
1000
1000
1000
0000
,
0001
0000
0002
0000
,
0003
0000
0200
0000
,
0300
0000
2000
0000
,
3000
0000
0020
0000
,
0030
0000
0001
0000
,
0001
0000
1000
0000
,
0001
0000
1000
0000
,
1000
0000
0100
0000
,
0020
0000
0030
0000
,
0100
0000
0010
0010
,
0010
0000
0001
0000
,
0001
0000
1000
1000
,
1000
0000
0001
0000
,
0100
0000
0010
0010
,
0010
0000
1000
0000
,
1000
0000
0001
0001
,
0001
0000
1000
0000
,
0002
0000
0003
0000
,
0020
0000
0030
0000
,
2000
0000
3000
0000
,
0200
0000
0000
0000
0000
0000
0000
0300
;

//---------------dance-double - ----------------
#NOTES:
     dance-double:
     :
     Easy:
     4:
     0.142946,0.224619,0.106127,0.303219,0.000000,132.000000,118.000000,14.000000,40.000000,0.000000,0.000000,0.142946,0.224619,0.106127,0.303219,0.000000,132.000000,118.000000,14.000000,40.000000,0.000000,0.000000:
00000000
00000000
00000000
00000000
,
00000000
00000000
00000000
00000000
,
00000000
00000000
00000000
00000000
,
00000000
00000000
00000000
00000000
,
00000000
00000000
00000000
00000000
,
00001001
00000000
00000010
00000100
,
00000020
00000030
00000000
00000010
,
00000200
00000300
00001000
00010000
,
00002000
00020000
00033000
00000000
,
00010000
00000100
00000000
00000100
,
00000000
00000010
00000000
00000010
,
00000000
00001000
00000000
00001000
,
00000000
00100000
00100000
00010000
,
20000000
30000000
10000000
00000000
,
00010000
10000000
00020000
00030000
,
00010000
10000000
00000000
10000000
,
00000000
00100000
01000000
00010000
,
00200000
00000000
00000000
00000000
,
00000000
00000000
00300000
00011000
,
00000020
00000000
00000000
00000000
,
00000000
00000000
00000030
00000110
,
00001000
00001000
00000001
00000001
,
00000100
00000001
00001000
00001100
,
00020000
00000000
00032000
00000000
,
00203000
02300000
23000000
00020000
,
30030000
00000000
10000000
11000000
,
00100000
00010000
20000000
30000000
,
00010000
01000000
00200000
00300000
,
00010000
00001010
00002000
00000002
,
00003003
00000010
00000001
00000101
,
00000010
00001000
00000002
00000003
,
00001000
00000100
00000020
00000030
,
00001000
00110000
00020000
20000000
,
30030000
00100000
20000000
00000000
,
00000000
00000000
30000000
00000000
,
00000000
00000000
02000000
00000000
,
00000000
00000000
03000000
00000000
,
00000000
00000000
00010000
00011000
,
00001000
00000000
00000200
00000300
,
00000002
00000003
00000010
00000110
,
00000100
00000000
00020000
00030000
,
00200000
00000000
00300000
00000000
,
10000000
11000000
00100000
00010000
,
20000000
30000000
00010000
01000000
,
00200000
00300000
00010000
00001010
,
00002000
00000002
00003003
00000010
,
00000001
00000101
00000010
00001000
,
00000002
00000003
00001000
00000100
,
00000020
00000030
00001000
00110000
,
00020000
20000000
30030000
00100000
,
20000000
00000000
30000000
00000000
,
00020000
00000000
00030000
00000000
,
00002000
00000000
00003000
00000000
,
00000001
00000000
00000000
00000000
00002000
00000000
00000000
00003000
;

//---------------dance-double - ----------------
#NOTES:
     dance-double:
     :
     Medium:
     7:
     0.262068,0.306298,0.136448,0.318380,0.000000,242.000000,224.000000,18.000000,42.000000,0.000000,0.000000,0.262068,0.306298,0.136448,0.318380,0.000000,242.000000,224.000000,18.000000,42.000000,0.000000,0.000000:
00000000
00000000
00000000
00000000
,
00000000
00000000
00000000
00000000
,
00000000
00000000
00000000
00000000
,
00000000
00000000
00000000
00000000
,
00000000
00000000
00000000
00000000
,
00100000
00000000
10010000
00000000
01000000
00000000
00100000
10000000
,
00020000
00000000
10030000
00000000
00000000
00000000
10000000
01000000
,
00020000
00030000
00001000
00010010
,
00001000
00000001
00002000
00000000
00003000
00000000
00000000
00000000
,
00001001
00000000
00000100
00000001
00000010
00000000
00000100
00010000
,
00001000
00000000
00000100
00001000
00010000
00000000
01000000
10000000
,
00100000
00000000
01000000
00001000
00010000
00000000
01000000
00010000
,
00001000
00000000
01000000
00001000
00010000
00001000
00100000
00000000
,
02000000
00000000
03000000
00000000
01000000
10000000
00010000
00000000
,
10000000
00000000
10000000
00100000
00020000
00030000
00010000
00001000
,
00000010
00000000
00000010
00000001
00000100
00000000
00000010
00010000
,
00001000
00000000
00010000
00001000
00000010
00001000
00010000
00000000
,
00000020
00001000
00000000
00001000
,
00000000
00000100
00010030
00101000
,
00020000
00100000
00000000
00100000
,
00000000
10000000
01030000
01100000
,
10000000
10000000
00010000
00010000
,
00100000
00100000
00001000
00011000
,
00100000
00020000
01000000
00000000
20030000
00000000
31000000
00010000
,
00000200
00010300
00002000
00013000
00000020
00000230
00000302
00002000
,
00003003
00000110
00001000
00000101
,
00001000
00000010
00000001
00000010
00002000
00000000
00003100
00000000
,
00000010
00000000
00000100
00001000
00000002
00000003
00000101
00000000
,
00001000
00000010
00000001
00000010
00002000
00000000
00003200
00000000
,
00010300
00100000
10000000
00000000
00010000
00000000
11000000
00000000
,
00010000
00100000
10000000
00100000
00020000
00000000
01030000
00000000
,
00100000
00000000
01000000
00010000
20000000
30000000
11000000
00000000
,
00010000
00100000
10000000
00100000
00020000
00000000
02030000
00000000
,
03001000
00000010
00000001
00001000
00000002
00000000
00000000
00000000
,
00000100
00000003
00002000
00003000
,
00000010
00001000
00000100
00000000
00020000
00000000
00000000
00000000
,
00100000
00030000
20000000
30000000
,
01000000
10000000
00100000
00000000
01000000
00000000
00110000
00000000
,
00001000
00000000
00000000
00000000
01000000
00001000
00010000
00000000
,
00010000
00000100
00002000
00000000
00003010
00000000
00001100
00000000
,
00010000
00000000
00000020
00000030
,
00020000
00000000
00030000
01100000
,
00010000
00000000
10100000
00000000
00010000
01000000
10000000
01000000
,
00020000
00000000
00130000
00000000
01000000
00000000
00100000
00010000
,
20000000
30000000
10100000
00000000
00010000
01000000
10000000
01000000
,
00020000
00000000
00230000
00000000
00301000
00000100
00000001
00000000
,
00001000
00000000
00000011
00000000
00001000
00000100
00000001
00000100
,
00002000
00000000
00003010
00000000
00000100
00000000
00000010
00001000
,
00000002
00000003
00000011
00000000
00001000
00000100
00000001
00000100
,
00002000
00000000
00003020
00000000
00010030
01000000
10000000
00010000
,
20000000
00000000
30010000
00000000
,
01000000
00100000
00010000
00001000
,
00020000
00000000
00030010
00000000
,
00000100
00000000
00000000
00000000
00000002
00000000
00002000
00003003
;

//---------------dance-double - ----------------
#NOTES:
     dance-double:
     :
     Hard:
     11:
     0.396350,0.490077,0.113707,0.477569,0.325960,366.000000,351.000000,15.000000,63.000000,0.000000,0.000000,0.396350,0.490077,0.113707,0.477569,0.325960,366.000000,351.000000,15.000000,63.000000,0.000000,0.000000:
// measure 0
00000000
00000000
00000000
00000000
,  // measure 1
00000000
00000000
00000000
00000000
,  // measure 2
00000000
00000000
00000000
00000000
,  // measure 3
00000000
00000000
00000000
00000000
,  // measure 4
00000000
00000000
00000000
00000000
,  // measure 5
00000100
00000000
00000000
00000000
00011000
00000000
00001000
00000000
00000010
00000000
00000100
00000010
00000000
00000100
00000010
00000000
,  // measure 6
00000002
00000000
00001003
00000000
00000000
00000000
00001000
00000010
,  // measure 7
00000200
00000000
00000000
00000000
00000301
00000000
00000010
00000000
00000100
00000000
00001000
00000010
00000000
00001000
00000010
00000000
,  // measure 8
00020000
00032000
00203000
00000000
00300000
00000000
00000000
00000000
,  // measure 9
10010000
00000000
10000000
00100000
00010000
00000000
10000000
01000000
,  // measure 10
00010000
00000000
00001000
00000010
00000001
00000000
00001000
00000100
,  // measure 11
00000001
00000000
00000010
00001000
00010000
00000000
00000100
00001000
,  // measure 12
00010000
00000000
00000000
00000000
00100000
00000000
01000000
00000000
10000000
00000000
01000000
00100000
00000000
00010000
00000000
10000000
,  // measure 13
00200000
00000000
00000000
01300000
00000000
00000000
00100000
00000000
10000000
00000000
00010000
00200000
00000000
00000000
01300000
00000000
,  // measure 14
10000000
00000000
01000000
00010000
00000000
00001000
00000000
00020000
00000000
00000000
00030100
00001000
00000000
00000001
00000000
00000200
,  // measure 15
00000000
00000300
00000001
00000010
00001000
00000000
00000001
00000100
,  // measure 16
00001000
00000000
00000000
00000000
00010000
00100000
10000000
00000000
00010000
00000000
01000000
20000000
00000000
00000000
30010000
00000000
,  // measure 17
20000000
00100000
00000000
00100000
,  // measure 18
00000000
01000000
30010000
00011000
,  // measure 19
00000020
00010000
00000000
00010000
,  // measure 20
00000000
00000100
00001030
00011000
,  // measure 21
00001000
00000000
00000000
00001000
00000010
00000000
00000001
00000000
00000010
00000100
00000000
00000100
00000010
00000000
00001000
00000000
,  // measure 22
00010000
00000000
00000000
00010000
00001000
00000000
00100000
00000000
00010000
10000000
00000000
10000000
00100000
00000000
00100000
00000000
,  // measure 23
00010000
00011000
00100000
00100000
00110000
10000000
10000000
00010000
,  // measure 24
10000000
00100000
01000000
00000000
00010000
00100000
01000000
00000000
10000000
00100000
00010000
00001000
00000100
00000010
00000100
00000010
,  // measure 25
00000000
00000000
00000000
00000000
00001001
00000000
00000000
00000000
00001010
00000000
00001000
00000000
00011000
00000000
00100000
00010000
,  // measure 26
00100000
00000000
01000000
10000000
00000000
01000000
10000000
00000000
00020000
00000000
00000000
00000000
01030000
00000000
00100000
10000000
,  // measure 27
00020000
00000000
00130000
01000000
00000000
00100000
00010000
00000000
20000000
00000000
00000000
00000000
30100000
00000000
01000000
00001000
,  // measure 28
00020000
00000000
00030100
00000010
00000000
00000100
00000010
00000000
00000002
00000000
00000203
00000000
00002300
00000000
00003200
00000000
,  // measure 29
00000301
00000000
00001000
00000200
00000000
00000000
00000310
00000000
00000100
00000000
00001000
00000000
00011000
00000000
01000000
00010000
,  // measure 30
01000000
00000000
00100000
10000000
00000000
00100000
10000000
00000000
00020000
00000000
00000000
00000000
00130000
00000000
01000000
10000000
,  // measure 31
00020000
00000000
01030000
00100000
00000000
01000000
00010000
00000000
20000000
00000000
00000000
00000000
31000000
00000000
00100000
00001000
,  // measure 32
00020000
00000000
00030010
00000100
00000000
00000010
00000100
00000000
00000002
00000000
00000023
00000000
00002030
00000000
00003020
00000000
,  // measure 33
00000031
00000000
00000010
00000200
00000000
00000000
00001300
00000000
00000001
00000000
00000000
00001000
00000100
00000000
00000000
00000000
,  // measure 34
00001000
00000000
00000000
00000000
00000020
00000000
00000000
00000000
00000130
00000000
00000000
00001000
00010000
00000000
00000000
00000000
,  // measure 35
01000000
00000000
00100000
00000000
02000000
00000000
00000000
00000000
03010000
00000000
00000000
01000000
10000000
00000000
00000000
00000000
,  // measure 36
00010000
00000000
00000000
00000000
20000000
00000000
00000000
00000000
30100000
00000000
00000000
01000000
00100000
00000000
00000000
00000000
,  // measure 37
00100000
00000000
00010000
00000000
00002000
00000000
00000000
00000000
00013000
00000000
00000000
00001000
00100000
00000000
00000000
00010000
,  // measure 38
00100000
00000000
00001000
00010000
00200000
02300000
03001000
00010000
,  // measure 39
00020000
00000000
00032000
00000000
00003020
00000000
00000000
00000000
00001030
00000000
00000000
00010000
00000010
00000000
00000000
00001000
,  // measure 40
00000010
00000000
00000000
00000000
00010000
00000000
00001000
00000000
00000020
00000000
00000030
00000000
00001000
00010000
00001000
00000000
,  // measure 41
00200000
00000000
00000000
00320000
00000000
00000000
02030000
00000000
00000000
00200000
00000000
00000000
00000000
03300000
00000000
00000000
00000000
00000000
11000000
00000000
00000000
00000000
00000000
00000000
,  // measure 42
01010000
00000000
00010000
00000000
00011000
00000000
00000010
00001000
00000010
00000000
00000100
00000001
00000000
00000100
00000001
00000000
,  // measure 43
00002000
00000000
00000000
00000000
00003100
00000000
00000010
00000001
00002000
00000000
00003010
00000100
00000000
00000010
00001000
00000000
,  // measure 44
00000002
00000000
00000000
00000000
00000013
00000000
00000100
00010000
00002000
00000000
01003000
00100000
00000000
01000000
00100000
00000000
,  // measure 45
20000000
00000000
32000000
00000000
03020000
00000000
02030000
00000000
13000000
00000000
00010000
02000000
00000000
00000000
03100000
00000000
,  // measure 46
00110000
00000000
00010000
00000000
00011000
00000000
00000100
00001000
00000100
00000000
00000010
00000001
00000000
00000010
00000001
00000000
,  // measure 47
00002000
00000000
00000000
00000000
00003010
00000000
00000100
00000001
00002000
00000000
00003100
00000010
00000000
00000100
00001000
00000000
,  // measure 48
00000002
00000000
00000000
00000000
00000103
00000000
00000010
00010000
00002000
00000000
00103000
01000000
00000000
00100000
01000000
00000000
,  // measure 49
20000000
00000000
30200000
00000000
00320000
00000000
00230000
00000000
10300000
00000000
01000000
00200000
00000000
00000000
00310000
00000000
,  // measure 50
10000000
00000000
00000000
10000000
00000000
00000000
10000000
00000000
00010000
00000000
00000000
00010000
00000000
00000000
01000000
00000000
,  // measure 51
00100000
00000000
00000000
00100000
00000000
00000000
00010000
00000000
00001000
00000000
00000000
00001000
00000000
00000000
00000100
00000000
,  // measure 52
00000001
00000000
00000000
00000001
00000000
00000000
00000001
00000000
00001000
00000000
00000000
00001000
00000000
00000000
00000100
00000000
,  // measure 53
00000010
00000000
00000000
00000010
00000000
00000000
00001000
00000000
00010000
00000000
00000000
00200000
00000000
00000000
01300000
00000000
;

//---------------dance-double - ----------------
#NOTES:
     dance-double:
     :
     Challenge:
     14:
     0.510057,0.673856,0.151609,0.500311,0.587486,471.000000,451.000000,20.000000,66.000000,108.000000,0.000000,0.510057,0.673856,0.151609,0.500311,0.587486,471.000000,451.000000,20.000000,66.000000,108.000000,0.000000:
00000000
00000000
00000000
00000000
,
00000000
00000000
00000000
00000000
,
00000000
00000000
00000000
00000000
,
00000000
00000000
00000000
00000000
,
00000000
00000000
00000000
00000000
00000000
00000000
00000000
MMMMMMMM
,
00000010
00000000
00000000
00000000
00000110
00000000
00000001
00001000
00000200
00000000
00001300
00000001
00000100
00000010
00001000
00000000
,
00000002
00000000
00001003
00000000
MMMMMMMM
00000000
00000110
00010000
,
00002000
00000000
00000000
00000000
00103000
00000000
00010000
10000000
02000000
00000000
13000000
00010000
01000000
00100000
10000000
00000000
,
00020000
00000000
00230000
00000000
20300000
00000000
30200000
00000000
00310000
10000000
01000000
10000000
00000000
01000000
00100000
00000000
,
10010000
00000000
MMMMMMMM
00000000
10000000
00100000
00010000
00000000
MMMM1000
00000000
0000MMMM
00000000
00000001
00000100
00001000
00000000
,
0001MMMM
00000000
MMMM0000
00000000
01000000
00010000
00100000
00000000
MMMM1000
00000000
0000MMMM
00000000
00000100
00001000
00000010
00000000
,
0001MMMM
00000000
MMMM0000
00000000
10000000
01000000
00010000
00000000
MMMM1000
00000000
0000MMMM
00000000
00000001
00000010
00001000
00000000
,
0001MMMM
00000000
MMMM0000
00000000
00100000
00001000
00010000
00001000
00010000
00000000
01000000
20000000
00000000
30010000
00000000
00100000
,
02000000
00000000
13000000
00010000
00000000
00010000
01000000
00010000
10000000
00000000
00100000
02000000
00000000
03010000
10000000
01000000
,
00200000
00000000
01300000
10000000
00000000
10000000
00000000
00010000
02000000
00000000
03100000
00010000
00000000
00010000
00000000
00001000
,
00020000
00000000
00030000
00000000
00000100
00001000
00000010
00000000
0001MMMM
00000000
MMMM0000
00000000
01000000
00010000
00100000
00000000
,
MMMM1000
00000000
0000MMMM
00000000
00000001
00000100
00001000
00010000
00100000
10000000
00100000
01000000
00100000
10000000
01000000
00100000
,
00020000
00001000
00000000
00100000
,
00000000
00001000
10030000
00011000
,
00002000
00010000
00000000
00000010
,
00000000
00010000
00003001
00011000
,
02000000
00000000
03000000
00001000
00010000
00000000
00000100
00000000
00010000
00001000
00000000
00001000
00100000
00000000
00010000
00000000
,
02000000
00000000
00000000
00000000
00000000
00000000
03000000
00000000
00000000
00001000
00000000
00000000
00010000
00000000
00000000
00000000
00000000
00000000
00000010
00000000
00000000
00000000
00000000
00000000
00000100
00000000
00000000
00000001
00000000
00000000
00000000
00000000
00000000
00000001
00000000
00000000
00002000
00000000
00000000
00000000
00000000
00000000
00003100
00000000
00000010
00000000
00000100
00000000
,
00000010
00001100
00010000
00010000
00011000
00100000
00100000
00110000
,
10000000
00000000
01000000
00000000
10000000
00000000
01000000
00000000
00010000
00000000
01000000
00000000
00010000
00000000
01000000
00000000
10000000
00100000
10000000
00000000
00010000
00100000
00010000
00000000
10000000
01000000
10000000
00010000
01000000
00001000
00010000
00001000
,
00000000
00000000
00000000
00000000
00011000
00000000
MMMMMMMM
00000000
00000110
00000000
00001000
00000001
00000101
00000000
00000100
00000010
,
00001000
00000100
00000010
00000100
00001000
00000010
00000100
00001000
00020000
00000000
00000000
00000000
00031000
00000000
00100000
01000000
,
00020000
00000000
01030000
00100000
00010000
01000000
00100000
00000000
20000000
00000000
00000000
00000000
31000000
00000000
00100000
00010000
,
02000000
00000000
03100000
10000000
00010000
00100000
00010000
00000000
20000000
00000000
30200000
00000000
00320000
00000000
00032000
00000000
,
00003010
00000100
00000010
00000001
00000010
00000100
00001000
00000001
00001000
00000000
00000001
00000100
00000110
00000000
00001000
00000010
,
00000100
00001000
00000100
00000010
00001000
00000100
00000010
00000100
00020000
00000000
00000000
00000000
00031000
00000000
00100000
00010000
,
02000000
00000000
03100000
10000000
00010000
00100000
01000000
00000000
20000000
00000000
00000000
00000000
30010000
00000000
00100000
01000000
,
20000000
00000000
31000000
00100000
00010000
10000000
00100000
00000000
20000000
00000000
32000000
00000000
03020000
00000000
00032000
00000000
,
00003100
00000010
00000100
00000010
00001000
00000100
00000010
00000001
00001000
00000000
00000000
00000100
00000001
00000000
00000000
00000100
,
00001000
00000000
00000000
00000000
00000002
00000000
00000000
00000000
00000103
00000000
00000000
00000010
00001000
00000000
00000000
00000100
,
00000010
00000000
00000100
00000000
00020000
00000000
00030000
00000000
00001000
00000000
00000000
00010000
00100000
00000000
00000000
00010000
,
00001000
00000000
00000000
00000000
02000000
00000000
00000000
00000000
03001000
00000000
00000000
00010000
01000000
00000000
00000000
00010000
,
00001000
00000000
00000010
00000000
00002000
00000000
00003000
00010000
00001000
00000000
00000000
00100000
00010000
00000000
00000000
10000000
,
00100000
00000000
00000000
00000000
00010000
00100000
00010000
00100000
20000000
00000000
30020000
00000000
00130000
00000000
00100000
00010000
,
20000000
00000000
30200000
00000000
02300000
00000000
00000000
03001000
00010000
00000000
00000000
00000100
00001000
00000000
00000000
00000001
,
00000100
00000000
00000000
00000000
00000010
00000100
00000010
00000100
00002000
00000000
00003000
00000000
00000100
00000010
00001000
00000100
,
00020000
00000000
00000000
00032000
00000000
00000000
02003000
00000000
00000000
00200000
00000000
00000000
00000000
03300000
00000000
00000000
00000000
00000000
10010000
00000000
00000000
MMMMMMMM
00000000
00000000
,
01100000
00000000
00010000
10000000
10100000
00000000
00100000
01000000
00010000
00100000
01000000
10000000
01000000
00100000
00001000
00010000
,
00002000
00000000
00013000
00000000
00001010
00000000
00000010
00000100
00002000
00000000
00003100
00000010
00001000
00000100
00000010
00000000
,
00000002
00000000
00000103
00000000
00001010
00000000
00000010
00000100
00000002
00000000
00001003
00000001
00001000
00000100
00001000
00000000
,
00000002
00000000
00000203
00000000
00002300
00000000
00023000
00000000
01030000
00100000
01000000
10000000
01000000
00100000
00010000
10000000
,
00010000
00000000
10000000
00100000
01100000
00000000
00010000
10000000
01000000
00100000
00010000
00001000
00000100
00000010
00000001
00001000
,
00000002
00000000
00000103
00000000
00001100
00000000
00000010
00001000
00000002
00000000
00000103
00000001
00000100
00000010
00001000
00000000
,
00000002
00000000
00000013
00000000
00000110
00000000
00000001
00001000
00000020
00000000
00001030
00000100
00001000
00000001
00000100
00000000
,
00000002
00000000
00000023
00000000
00002030
00000000
00023000
00000000
00130000
01000000
00100000
01000000
00010000
00100000
01000000
10000000
,
00010000
00000000
00000000
00010000
00000000
00000000
00100000
00000000
01000000
00000000
00000000
01000000
00000000
00000000
00100000
00000000
,
00010000
00000000
00000000
00010000
00000000
00000000
10000000
00000000
00100000
00000000
00000000
00010000
00000000
00000000
00001000
00000000
,
00010000
00000000
00000000
00010000
00000000
00000000
00000100
00000000
00001000
00000000
00000000
00001000
00000000
00000000
00000010
00000000
,
00000100
00000000
00000000
00000100
00000000
00000000
00000001
00000000
00000010
00000000
00001000
00020000
0000MMMM
00000000
00030010
00000000
;
