#VERSION:0.83;
#TITLE:Queen;
#SUBTITLE:;
#ARTIST:Loren Gray;
#TITLETRANSLIT:;
#SUBTITLETRANSLIT:;
#ARTISTTRANSLIT:;
#GENRE:Popular Songs;
#ORIGIN:;
#CREDIT:;
#BANNER:Queen.png;
#BACKGROUND:Queen-bg.png;
#PREVIEWVID:;
#JACKET:Queen-jacket.png;
#CDIMAGE:;
#DISCIMAGE:;
#LYRICSPATH:;
#CDTITLE:../cdtitle.png;
#MUSIC:Queen.ogg;
#OFFSET:2.823000;
#SAMPLESTART:44.605000;
#SAMPLELENGTH:15.000000;
#SELECTABLE:YES;
#BPMS:0.000=84.000;
#STOPS:;
#DELAYS:;
#WARPS:;
#TIMESIGNATURES:0.000=4=4;
#TICKCOUNTS:0.000=4;
#COMBOS:0.000=1;
#SPEEDS:0.000=1.000=0.000=0;
#SCROLLS:0.000=1.000;
#FAKES:;
#LABELS:0.000=Song Start;
#BGCHANGES:3.625=Queen.avi=1.000=0=0=0=StretchNoLoop====,
99999=-nosongbg-=1.000=0=0=0 // don't automatically add -songbackground-
;
#KEYSOUNDS:;
#ATTACKS:
;

//---------------dance-single - ----------------
#NOTEDATA:;
#CHARTNAME:;
#STEPSTYPE:dance-single;
#DESCRIPTION:;
#CHARTSTYLE:;
#DIFFICULTY:Beginner;
#METER:1;
#RADARVALUES:0.054772,0.088226,0.000000,0.034855,0.000000,44.000000,44.000000,0.000000,4.000000,0.000000,0.000000,0.000000,0.000000,0.000000,0.054772,0.088226,0.000000,0.034855,0.000000,44.000000,44.000000,0.000000,4.000000,0.000000,0.000000,0.000000,0.000000,0.000000;
#CREDIT:led_light;
#NOTES:
0000
0000
0000
0000
,
0000
0000
0000
0000
,
0000
0000
0000
0000
,
0000
0000
0000
0000
,
0000
0000
0000
0000
,
1000
0000
0000
0000
,
0001
0000
0000
0000
,
1000
0000
0000
0000
,
0001
0000
0000
0000
,
1000
0000
0000
0000
,
1000
0000
0000
0000
,
0001
0000
0000
0000
,
0001
0000
0000
0000
,
1000
0000
0000
0000
,
1000
0000
0000
0000
,
0001
0000
0000
0000
,
2000
0000
3000
0000
,
0001
0000
0000
0000
,
0001
0001
0001
0000
,
1000
0000
0000
0000
,
1000
0000
0000
0000
,
0010
0000
0000
0000
,
0010
0010
0010
0000
,
0100
0000
0000
0000
,
0200
0000
0300
0000
,
0001
0000
0000
0000
,
0001
0000
0000
0000
,
1000
0000
0000
0000
,
1000
0000
0000
0000
,
0001
0000
0000
0000
,
0001
0000
0000
0000
,
1000
0000
0000
0000
,
0002
0000
0003
0000
,
1000
0000
0000
0000
,
1000
1000
1000
0000
,
0001
0000
0000
0000
,
0001
0000
0000
0000
,
0100
0000
0000
0000
,
0100
0100
0100
0000
,
0010
0000
0000
0000
,
0020
0000
0030
0000
;

//---------------dance-single - ----------------
#NOTEDATA:;
#CHARTNAME:;
#STEPSTYPE:dance-single;
#DESCRIPTION:;
#CHARTSTYLE:;
#DIFFICULTY:Easy;
#METER:2;
#RADARVALUES:0.107054,0.158807,0.034855,0.104564,0.000000,86.000000,82.000000,4.000000,12.000000,0.000000,0.000000,0.000000,0.000000,0.000000,0.107054,0.158807,0.034855,0.104564,0.000000,86.000000,82.000000,4.000000,12.000000,0.000000,0.000000,0.000000,0.000000,0.000000;
#CREDIT:led_light;
#NOTES:
0000
0000
0000
0000
,
0000
0000
0000
0000
,
0000
0000
0000
0000
,
0000
0000
0000
0000
,
0000
0000
0000
0000
,
2000
0000
0000
3000
,
0002
0000
0000
0003
,
0200
0000
0000
0300
,
0020
0000
0000
0030
,
1000
0000
1000
0000
,
0001
0000
0001
0000
,
0010
0000
0010
0000
,
0100
0000
0100
0000
,
1000
0001
1000
0000
,
0001
1000
0001
0000
,
0100
0000
0100
0000
,
0020
0000
0030
0000
,
0200
0300
0010
0110
,
0010
0010
0010
0000
,
1000
0001
1000
0000
,
0001
1000
0001
0000
,
0020
0030
0100
0110
,
0100
0100
0100
0000
,
1000
0001
1000
0000
,
2000
0000
3000
0000
,
0001
0000
0001
0000
,
1000
0000
1000
0000
,
0100
0000
0100
0000
,
0010
0000
0010
0000
,
0001
1000
0001
0000
,
1000
0001
1000
0000
,
0010
0000
0010
0000
,
0200
0000
0300
0000
,
0020
0030
0100
0110
,
0100
0100
0100
0000
,
0001
1000
0001
0000
,
1000
0001
1000
0000
,
0200
0300
0010
0110
,
0010
0010
0010
0000
,
0001
1000
0001
0000
,
0002
0000
0003
0000
;

//---------------dance-single - ----------------
#NOTEDATA:;
#CHARTNAME:;
#STEPSTYPE:dance-single;
#DESCRIPTION:;
#CHARTSTYLE:;
#DIFFICULTY:Medium;
#METER:4;
#RADARVALUES:0.141909,0.194097,0.026141,0.200415,0.000000,114.000000,111.000000,3.000000,23.000000,0.000000,0.000000,0.000000,0.000000,0.000000,0.141909,0.194097,0.026141,0.200415,0.000000,114.000000,111.000000,3.000000,23.000000,0.000000,0.000000,0.000000,0.000000,0.000000;
#CREDIT:led_light;
#NOTES:
0000
0000
0000
0000
,
0000
0000
0000
0000
,
0000
0000
0000
0000
,
0000
0000
0000
0000
,
0000
0000
0000
0000
,
2000
0000
0000
3000
,
0002
0000
0000
0003
,
0200
0000
0000
0300
,
0020
0000
0000
0030
,
1000
0100
1000
0000
,
0001
0100
0001
0000
,
0020
0030
0200
0300
,
0010
0100
0010
0100
,
1000
0001
1000
1000
,
0001
1000
0001
0001
,
0200
0300
0020
0030
,
2000
0100
3000
0000
,
0220
0000
0330
0000
0100
0100
0100
0000
,
0100
0100
0100
0000
0100
0000
0000
0000
,
1000
0100
1000
0000
1000
0000
0000
0000
,
0001
0100
0001
0000
0001
0000
0000
0000
,
0220
0000
0330
0000
0010
0010
0010
0000
,
0010
0010
0010
0000
0010
0000
0000
0000
,
1000
0001
1000
0000
0001
0000
0000
0000
,
0020
0100
0130
0000
,
1000
0010
1000
0000
,
0001
0010
0001
0000
,
0200
0300
0020
0030
,
0100
0010
0100
0010
,
1000
0001
1000
1000
,
0001
1000
0001
0001
,
0020
0030
0200
0300
,
2000
0000
3000
0000
,
0020
0000
0030
0000
0010
0010
0010
0000
,
0010
0010
0010
0000
0010
0000
0000
0000
,
1000
0010
1000
0000
1000
0000
0000
0000
,
0001
0010
0001
0000
0001
0000
0000
0000
,
0220
0000
0330
0000
0100
0100
0100
0000
,
0100
0100
0100
0000
0100
0000
0000
0000
,
1000
0001
1000
0000
0001
0000
0000
0000
,
0200
0000
0300
0000
;

//---------------dance-single - ----------------
#NOTEDATA:;
#CHARTNAME:;
#STEPSTYPE:dance-single;
#DESCRIPTION:;
#CHARTSTYLE:;
#DIFFICULTY:Hard;
#METER:7;
#RADARVALUES:0.251452,0.299969,0.148133,0.235270,0.000000,202.000000,185.000000,17.000000,27.000000,0.000000,0.000000,0.000000,0.000000,0.000000,0.251452,0.299969,0.148133,0.235270,0.000000,202.000000,185.000000,17.000000,27.000000,0.000000,0.000000,0.000000,0.000000,0.000000;
#CREDIT:led_light;
#NOTES:
0000
0000
0000
0000
,
0000
0000
0000
0000
,
0000
0000
0000
0000
,
0000
0000
0000
0000
,
0000
0000
0000
0000
,
2000
0000
0000
3000
,
0002
0000
0000
0003
,
0200
0000
0000
0300
,
0020
0000
0000
0030
,
1000
0000
0110
0000
1000
0100
0001
0000
,
1000
0000
0110
0000
1000
0010
0001
0000
,
2000
3100
0002
0103
,
0001
0000
0011
0000
0100
1000
1010
0000
,
0100
0001
0010
0001
0100
0010
0100
0000
,
0010
1000
0100
1000
0010
0100
0010
0000
,
2000
3100
0002
0103
,
2000
0010
3000
0000
,
0200
0000
0310
2100
0100
0100
3100
0000
,
0102
0100
0100
0100
0103
0000
0001
0100
,
0001
0010
1000
0010
0001
0000
1000
0100
,
1000
0010
0001
0010
1000
0000
0100
0010
,
0020
0000
0130
0012
0010
0010
0013
0000
,
2010
0010
0010
0010
3010
0000
1000
0010
,
1000
0100
0001
0100
1000
0000
0001
1000
,
0020
0100
0100
0100
0130
0000
0110
0000
,
1000
0100
0001
0100
1000
0000
0011
0000
,
0001
0010
1000
0010
0001
0000
1100
0000
,
0002
0010
0100
1003
,
1000
0000
1100
0000
0010
0001
0101
0000
,
0010
1000
0100
1000
0010
0100
0010
0000
,
0100
0001
0010
0001
0100
0010
0100
0000
,
0002
0013
2000
3010
,
0002
0000
0003
0000
,
0020
0000
0130
0012
0010
0010
0013
0000
,
2010
0010
0010
0010
3010
0000
1000
0010
,
1000
0100
0001
0100
1000
0000
0001
0010
,
0001
0100
1000
0100
0001
0000
0010
0100
,
0020
0000
0030
2100
0100
0100
3100
0000
,
0102
0100
0100
0100
0103
0000
0001
0100
,
0001
0010
1000
0010
0001
0000
1000
0001
,
0200
0010
0310
0000
;

//---------------dance-single - ----------------
#NOTEDATA:;
#CHARTNAME:;
#STEPSTYPE:dance-single;
#DESCRIPTION:;
#CHARTSTYLE:;
#DIFFICULTY:Challenge;
#METER:10;
#RADARVALUES:0.363485,0.423485,0.174274,0.339834,0.209128,292.000000,272.000000,20.000000,39.000000,28.000000,0.000000,0.000000,0.000000,0.000000,0.363485,0.423485,0.174274,0.339834,0.209128,292.000000,272.000000,20.000000,39.000000,28.000000,0.000000,0.000000,0.000000,0.000000;
#CREDIT:led_light;
#NOTES:
// measure 0
0000
0000
0000
0000
,  // measure 1
0000
0000
0000
0000
,  // measure 2
0000
0000
0000
0000
,  // measure 3
0000
0000
0000
0000
,  // measure 4
0000
0000
0000
0000
,  // measure 5
2000
0000
0200
3300
,  // measure 6
0002
0000
0200
0303
,  // measure 7
0020
0000
0000
0030
,  // measure 8
2000
0000
0002
3003
,  // measure 9
1000
0100
0001
0100
1000
0100
0110
0000
,  // measure 10
0001
0010
1000
0010
0001
0010
0110
0000
,  // measure 11
0002
0003
0001
0100
0010
1000
1100
0000
,  // measure 12
2000
0000
3000
0100
1000
0000
0100
0000
0010
0000
0001
0000
0201
0000
0310
0000
,  // measure 13
1000
0000
0001
0010
0001
0000
1000
0100
1000
0000
0001
0000
0100
0010
2000
0000
,  // measure 14
3001
0000
0100
0001
0100
0001
0010
0100
1000
0000
0100
0000
0010
0001
2000
0000
,  // measure 15
3100
0000
0000
1000
0010
0000
0000
1000
0100
0000
0000
1000
0002
0000
0203
0000
,  // measure 16
0320
0000
0030
1000
0200
0000
0020
0330
MMMM
0000
1000
0001
1000
0001
1000
0001
,  // measure 17
0200
0000
0310
2100
0100
0100
3100
0010
,  // measure 18
0102
0000
0100
0000
0100
0000
0100
0000
0103
0000
0001
0000
1000
0100
0001
0100
,  // measure 19
1000
0000
0100
0000
0010
0000
0100
0000
1100
0000
0001
0000
0100
0001
1000
0010
,  // measure 20
0001
0000
0010
0000
1000
0000
0100
0000
0010
0000
0000
0001
1000
0001
1000
0001
,  // measure 21
0020
0000
0130
0012
0010
0010
0013
0100
,  // measure 22
2010
0000
0010
0000
0010
0000
0010
0000
3010
0000
1000
0000
0001
0010
1000
0010
,  // measure 23
0001
0000
0010
0000
0100
0000
0010
0000
0011
0000
1000
0000
0100
1000
0001
0100
,  // measure 24
0020
0100
0100
0100
0130
0000
MMMM
0000
,  // measure 25
0001
0010
1000
0010
0001
0010
0110
0000
,  // measure 26
1000
0100
0001
0100
1000
0100
0110
0000
,  // measure 27
2000
3000
1000
0010
0100
0001
0011
0000
,  // measure 28
0002
0000
0003
0010
0001
0000
0010
0000
0100
0000
1000
0000
1020
0000
0130
0000
,  // measure 29
0001
0000
1000
0100
1000
0000
0001
0010
0001
0000
1000
0000
0010
0100
0002
0000
,  // measure 30
1003
0000
0010
1000
0010
1000
0100
0010
0001
0000
0010
0000
0100
1000
0002
0000
,  // measure 31
0013
0000
0000
0001
0100
0000
0000
0001
0010
0000
0000
0001
2000
0000
3020
0000
,  // measure 32
0200
0000
0000
0000
0330
MMMM
MMMM
MMMM
,  // measure 33
0020
0000
0130
0012
0010
0010
0013
0100
,  // measure 34
2010
0000
0010
0000
0010
0000
0010
0000
3010
0000
1000
0000
0001
0010
1000
0010
,  // measure 35
0001
0000
0010
0000
0100
0000
0010
0000
0011
0000
1000
0000
0010
1000
0001
0100
,  // measure 36
1000
0000
0100
0000
0001
0000
0010
0000
0100
0000
0000
1000
0001
1000
0001
1000
,  // measure 37
MMMM
0020
0030
2100
0100
0100
3100
0010
,  // measure 38
0102
0000
0100
0000
0100
0000
0100
0000
0103
0000
0001
0000
1000
0100
0001
0100
,  // measure 39
1000
0000
0100
0000
0010
0000
0100
0000
1100
0000
0001
0000
0010
0001
1000
0010
,  // measure 40
0200
0010
0010
0310
MMMM
0000
0000
0000
;

//---------------dance-double - ----------------
#NOTEDATA:;
#CHARTNAME:;
#STEPSTYPE:dance-double;
#DESCRIPTION:;
#CHARTSTYLE:;
#DIFFICULTY:Easy;
#METER:2;
#RADARVALUES:0.097095,0.158807,0.034855,0.139419,0.000000,78.000000,74.000000,4.000000,16.000000,0.000000,0.000000,0.000000,0.000000,0.000000,0.097095,0.158807,0.034855,0.139419,0.000000,78.000000,74.000000,4.000000,16.000000,0.000000,0.000000,0.000000,0.000000,0.000000;
#CREDIT:led_light;
#NOTES:
00000000
00000000
00000000
00000000
,
00000000
00000000
00000000
00000000
,
00000000
00000000
00000000
00000000
,
00000000
00000000
00000000
00000000
,
00000000
00000000
00000000
00000000
,
00200000
00000000
00000000
00300000
,
02000000
00000000
00000000
03000000
,
20000000
00000000
00000000
30000000
,
00020000
00000000
00000000
00030000
,
01000000
00000000
01000000
00000000
,
00001000
00000000
00001000
00000000
,
00020000
00000000
00030000
00000000
,
00000200
00000000
00000300
00000000
,
00001000
00000100
00001000
00000000
,
00000001
00000100
00000001
00000000
,
00000100
00000000
00000100
00000000
,
00000020
00000000
00000030
00000000
,
00020000
00030000
00001000
00011000
,
00001000
00001000
00001000
00000000
,
00001000
00000000
00100000
00000000
,
00001000
00000000
01000000
00000000
,
00002000
00003000
00010000
00011000
,
00010000
00010000
00010000
00000000
,
00001000
00010000
00001000
00000000
,
00020000
00000000
00030000
00000000
,
00000100
00000000
00000100
00000000
,
00010000
00000000
00010000
00000000
,
00002000
00000000
00003000
00000000
,
02000000
00000000
03000000
00000000
,
00010000
01000000
00010000
00000000
,
10000000
01000000
10000000
00000000
,
01000000
00000000
01000000
00000000
,
00200000
00000000
00300000
00000000
,
00002000
00003000
00010000
00011000
,
00010000
00010000
00010000
00000000
,
00010000
00000000
00000010
00000000
,
00010000
00000000
00000100
00000000
,
00020000
00030000
00001000
00011000
,
00001000
00001000
00001000
00000000
,
00010000
00001000
00010000
00000000
,
00002000
00000000
00003000
00000000
;

//---------------dance-double - ----------------
#NOTEDATA:;
#CHARTNAME:;
#STEPSTYPE:dance-double;
#DESCRIPTION:;
#CHARTSTYLE:;
#DIFFICULTY:Medium;
#METER:4;
#RADARVALUES:0.141909,0.194097,0.043568,0.200415,0.000000,114.000000,109.000000,5.000000,23.000000,0.000000,0.000000,0.000000,0.000000,0.000000,0.141909,0.194097,0.043568,0.200415,0.000000,114.000000,109.000000,5.000000,23.000000,0.000000,0.000000,0.000000,0.000000,0.000000;
#CREDIT:led_light;
#NOTES:
00000000
00000000
00000000
00000000
,
00000000
00000000
00000000
00000000
,
00000000
00000000
00000000
00000000
,
00000000
00000000
00000000
00000000
,
00000000
00000000
00000000
00000000
,
00000200
00000000
00000000
00000300
,
00002000
00000000
00000000
00003000
,
00000020
00000000
00000000
00000030
,
00020000
00000000
00000000
00030000
,
00001000
00010000
00001000
00000000
,
00010000
00001000
00010000
00000000
,
02000000
03000000
00200000
00300000
,
00010000
00000000
00010000
01100000
,
10000000
00010000
10000000
10000000
,
00010000
10000000
00010000
00010000
,
20000000
30000000
02000000
03000000
,
00020000
00001000
00030000
00000000
,
00022000
00000000
00033000
00000000
00010000
00010000
00010000
00000000
,
00001000
00001000
00001000
00000000
00010000
00000000
00000000
00000000
,
00000100
00001000
00000100
00000000
00001000
00000000
00000000
00000000
,
00000001
00000100
00000001
00000000
00000100
00000000
00000000
00000000
,
00000220
00000000
00000330
00000000
00000010
00000010
00000010
00000000
,
00000100
00000100
00000100
00000000
00000010
00000000
00000000
00000000
,
00001000
00000100
00001000
00000000
00000100
00000000
00000000
00000000
,
00020000
00001000
00031000
00000000
,
00010000
00001000
00010000
00000000
,
00001000
00010000
00001000
00000000
,
00000020
00000030
00000200
00000300
,
00001000
00000000
00001000
00000110
,
00000001
00001000
00000001
00000001
,
00001000
00000001
00001000
00001000
,
00000002
00000003
00000020
00000030
,
00002000
00000000
00003000
00000000
,
00020000
00000000
00030000
00000000
00001000
00001000
00001000
00000000
,
00010000
00010000
00010000
00000000
00001000
00000000
00000000
00000000
,
00100000
00010000
00100000
00000000
00010000
00000000
00000000
00000000
,
10000000
00100000
10000000
00000000
00100000
00000000
00000000
00000000
,
02200000
00000000
03300000
00000000
01000000
01000000
01000000
00000000
,
00100000
00100000
00100000
00000000
01000000
00000000
00000000
00000000
,
00010000
00100000
00010000
00000000
00100000
00000000
00000000
00000000
,
00002000
00000000
00003000
00000000
;

//---------------dance-double - ----------------
#NOTEDATA:;
#CHARTNAME:;
#STEPSTYPE:dance-double;
#DESCRIPTION:;
#CHARTSTYLE:;
#DIFFICULTY:Hard;
#METER:7;
#RADARVALUES:0.248962,0.299969,0.148133,0.243983,0.000000,200.000000,183.000000,17.000000,28.000000,0.000000,0.000000,0.000000,0.000000,0.000000,0.248962,0.299969,0.148133,0.243983,0.000000,200.000000,183.000000,17.000000,28.000000,0.000000,0.000000,0.000000,0.000000,0.000000;
#CREDIT:led_light;
#NOTES:
00000000
00000000
00000000
00000000
,
00000000
00000000
00000000
00000000
,
00000000
00000000
00000000
00000000
,
00000000
00000000
00000000
00000000
,
00000000
00000000
00000000
00000000
,
20000000
00000000
00000000
30000000
,
00020000
00000000
00000000
00030000
,
00002000
00000000
00000000
00003000
,
00000002
00000000
00000000
00000003
,
00001000
00000000
00000110
00000000
00001000
00000100
00001000
00000000
,
00000001
00000000
00000110
00000000
00000001
00000010
00000001
00000000
,
00002000
00003010
00000002
00000013
,
00001000
00000000
00001100
00000000
00010000
00001000
00011000
00000000
,
00100000
00001000
00010000
00001000
00100000
00001000
00010000
00000000
,
00000100
00010000
00001000
00010000
00000100
00010000
00001000
00000000
,
00000200
00000310
00000020
00000130
,
00000002
00000010
00000003
00000000
,
00000020
00000000
00000130
00021000
00001000
00001000
00031000
00000000
,
00001020
00001000
00001000
00001000
00001030
00000000
00010000
00001000
,
00100000
00010000
01000000
00100000
01000000
00000000
00001000
00010000
,
00000100
00001000
00000010
00000100
00000010
00000000
00001000
00000100
,
00020000
00000000
00031000
00012000
00010000
00010000
00013000
00000000
,
02010000
00010000
00010000
00010000
03010000
00000000
00001000
00010000
,
00000100
00001000
00000010
00000100
00000010
00000000
00001000
00000100
,
00020000
00001000
00031000
00011000
,
00001000
00000100
00000010
00000100
00001000
00000000
00000110
00000000
,
00000001
00000010
00000100
00000010
00000001
00000000
00000110
00000000
,
00002000
00003010
00000002
00000013
,
00001000
00000000
00001100
00000000
00010000
00001000
00011000
00000000
,
00100000
00001000
00010000
00001000
00100000
00001000
00010000
00000000
,
00000100
00010000
00001000
00010000
00000100
00010000
00001000
00000000
,
00000200
00000310
00000020
00000130
,
00000002
00000000
00000003
00000000
,
00000020
00000000
00000130
00021000
00001000
00001000
00031000
00000000
,
00001020
00001000
00001000
00001000
00001030
00000000
00010000
00001000
,
00100000
00010000
01000000
00100000
01000000
00000000
00001000
00010000
,
00000100
00001000
00000010
00000100
00000010
00000000
00001000
00000100
,
00020000
00000000
00030000
00012000
00010000
00010000
00013000
00000000
,
02010000
00010000
00010000
00010000
03010000
00000000
00001000
00010000
,
00000100
00001000
00000010
00000100
00000010
00000000
00001000
00000100
,
00020000
00001000
00031000
00000000
;

//---------------dance-double - ----------------
#NOTEDATA:;
#CHARTNAME:;
#STEPSTYPE:dance-double;
#DESCRIPTION:;
#CHARTSTYLE:;
#DIFFICULTY:Challenge;
#METER:10;
#RADARVALUES:0.360996,0.423485,0.209128,0.322406,0.200415,290.000000,266.000000,24.000000,37.000000,44.000000,0.000000,0.000000,0.000000,0.000000,0.360996,0.423485,0.209128,0.322406,0.200415,290.000000,266.000000,24.000000,37.000000,44.000000,0.000000,0.000000,0.000000,0.000000;
#CREDIT:led_light;
#NOTES:
00000000
00000000
00000000
00000000
,
00000000
00000000
00000000
00000000
,
00000000
00000000
00000000
00000000
,
00000000
00000000
00000000
00000000
,
00000000
00000000
00000000
00000000
,
20000000
00000000
00000000
30000000
,
00020000
00000000
00000000
00030000
,
00002000
00000000
00000000
00003000
,
00000002
00000000
00000000
00000003
,
00001000
00000100
00000001
00000100
00001000
00000001
00001001
00000000
,
00000001
00000010
00001000
00000010
00000001
00001000
00001001
00000000
,
00000002
00000003
00000101
00000001
00001000
00000100
00001100
00000000
,
00020000
00000000
00030000
00001000
00010000
00000000
00000100
00000000
00010000
00000000
00001000
00000000
00022000
00000000
00033000
00000000
,
00100000
00000000
00010000
01000000
00010000
00000000
10000000
01000000
10000000
00000000
00010000
00000000
01000000
00100000
20000000
00000000
,
30010000
00000000
00100000
01000000
00100000
01000000
00100000
00000000
01000000
00000000
01100000
00000000
10000000
00010000
02000000
00000000
,
03100000
00000000
00000000
01000000
10000000
00000000
00000000
01000000
00100000
00000000
00000000
01000000
00020000
00000000
00230000
00000000
,
01300000
00000000
00000000
00100000
00002000
00000000
00023000
00000000
0003MMMM
00000000
00001000
00010000
00001000
00010000
00001000
00010000
,
00000020
00000000
00000130
00002010
00000010
00000010
00003010
00000100
,
00000012
00000000
00000010
00000000
00000010
00000000
00000010
00000000
00000013
00000000
00000100
00000000
00010000
00001000
00010000
00001000
,
00100000
00000000
00010000
00000000
01000000
00000000
00100000
00000000
10100000
00000000
00010000
00000000
00100000
01000000
00100000
01000000
,
10000000
00000000
01000000
00000000
00010000
00000000
01000000
00000000
10000000
00000000
00000000
00010000
01000000
00010000
01000000
00001000
,
00200000
00000000
00310000
00012000
00010000
00010000
00013000
00001000
,
00210000
00000000
00010000
00000000
00010000
00000000
00010000
00000000
00310000
00000000
01000000
00000000
00001000
00010000
00001000
00010000
,
00000010
00000000
00000100
00000000
00000010
00000000
00001000
00000000
00001001
00000000
00000001
00000000
00000100
00000010
00001000
00000100
,
00020000
00001000
00001000
00001000
00031000
00000000
MMMMMMMM
00000000
,
00010000
00100000
10000000
00100000
00010000
10000000
10010000
00000000
,
10000000
01000000
00010000
01000000
10000000
00010000
10010000
00000000
,
20000000
30000000
10100000
10000000
00010000
00100000
00110000
00000000
,
00002000
00000000
00003000
00010000
00001000
00000000
00100000
00000000
00001000
00000000
00010000
00000000
00022000
00000000
00033000
00000000
,
00000100
00000000
00001000
00000010
00001000
00000000
00000001
00000010
00000001
00000000
00001000
00000000
00000010
00000100
00000002
00000000
,
00001003
00000000
00000100
00000010
00000100
00000010
00000100
00000000
00000010
00000000
00000110
00000000
00000001
00001000
00000020
00000000
,
00000130
00000000
00000000
00000010
00000001
00000000
00000000
00000010
00000100
00000000
00000000
00000010
00002000
00000000
00003200
00000000
,
00000020
00000000
00000000
00000000
00000330
MMMMMMMM
MMMMMMMM
MMMMMMMM
,
00000020
00000000
00000130
00002010
00000010
00000010
00003010
00000100
,
00000012
00000000
00000010
00000000
00000010
00000000
00000010
00000000
00000013
00000000
00000100
00000000
00010000
00001000
00010000
00001000
,
00100000
00000000
00010000
00000000
01000000
00000000
00100000
00000000
10100000
00000000
00010000
00000000
00100000
01000000
00100000
01000000
,
10000000
00000000
01000000
00000000
00010000
00000000
01000000
00000000
10000000
00000000
00000000
00010000
01000000
00010000
01000000
00001000
,
00100000
00020000
00030000
00012000
00010000
00010000
00013000
00001000
,
00210000
00000000
00010000
00000000
00010000
00000000
00010000
00000000
00310000
00000000
01000000
00000000
00001000
00010000
00001000
00010000
,
00000010
00000000
00000100
00000000
00000010
00000000
00001000
00000000
00001001
00000000
00000001
00000000
00000100
00000010
00001000
00000100
,
00020000
00001000
00001000
00031000
MMMMMMMM
00000000
00000000
00000000
;
