#VERSION:0.83;
#TITLE:Put It On Me;
#SUBTITLE:(feat. Mila Falls);
#ARTIST:Holy Goof & Notion;
#TITLETRANSLIT:;
#SUBTITLETRANSLIT:;
#ARTISTTRANSLIT:;
#GENRE:Spinnin' Records;
#ORIGIN:;
#CREDIT:;
#BANNER:Put It On Me (feat. Mila Falls).png;
#BACKGROUND:Put It On Me (feat. Mila Falls)-bg.png;
#PREVIEWVID:;
#JACKET:Put It On Me (feat. Mila Falls)-jacket.png;
#CDIMAGE:;
#DISCIMAGE:;
#LYRICSPATH:;
#CDTITLE:../cdtitle.png;
#MUSIC:Put It On Me (feat. Mila Falls).ogg;
#OFFSET:0.909000;
#SAMPLESTART:53.042999;
#SAMPLELENGTH:15.000000;
#SELECTABLE:YES;
#BPMS:0.000=129.000;
#STOPS:112.000=1.395;
#DELAYS:;
#WARPS:;
#TIMESIGNATURES:0.000=4=4;
#TICKCOUNTS:0.000=4;
#COMBOS:0.000=1;
#SPEEDS:0.000=1.000=0.000=0;
#SCROLLS:0.000=1.000;
#FAKES:;
#LABELS:0.000=Song Start;
#BGCHANGES:1.875=Put It On Me (feat. Mila Falls).avi=1.000=0=0=0=StretchNoLoop====,
99999=-nosongbg-=1.000=0=0=0 // don't automatically add -songbackground-
;
#KEYSOUNDS:;
#ATTACKS:
;

//---------------dance-single - ----------------
#NOTEDATA:;
#CHARTNAME:;
#STEPSTYPE:dance-single;
#DESCRIPTION:;
#CHARTSTYLE:;
#DIFFICULTY:Challenge;
#METER:9;
#RADARVALUES:0.333615,0.485016,0.166110,0.244279,0.034199,239.000000,222.000000,17.000000,25.000000,12.000000,0.000000,0.000000,0.000000,0.000000,0.333615,0.485016,0.166110,0.244279,0.034199,239.000000,222.000000,17.000000,25.000000,12.000000,0.000000,0.000000,0.000000,0.000000;
#CREDIT:led_light;
#NOTES:
0000
0000
0000
0000
,
0000
0000
0000
0000
,
0000
0000
0000
0000
,
0000
0000
0000
0000
,
0000
0000
0000
0000
,
2000
0000
0000
0000
,
0002
0000
0000
3000
,
0020
0000
0000
0000
,
0000
0003
0200
0300
,
0002
0000
0000
0030
,
0200
0000
0000
0300
,
2000
0000
0000
0003
,
0200
0000
0000
3300
,
2002
0000
3000
0010
,
2000
0000
0003
0100
,
0020
0000
3000
0001
,
2000
0030
3200
0010
,
2000
0000
0300
0010
,
0020
0000
3000
0100
,
2000
0000
0030
0100
,
0002
0000
3000
0103
,
0110
0000
0100
1000
0100
0000
0100
0000
,
0100
1000
0100
0001
1000
0001
0100
0000
,
0000
0000
0010
0001
0010
0000
0010
0000
,
0010
0001
0010
1000
0001
1000
0010
0000
,
0000
0000
1000
0100
1000
0000
1000
0000
,
1000
0100
1000
0010
0100
0010
1000
0000
,
0000
0000
0001
0010
0001
0000
0001
0000
,
MMMM
0000
0101
0000
1000
0010
1000
0000
,
0011
0000
0010
0001
1000
0001
0100
0010
,
1000
0000
1100
0000
0001
0010
0001
0000
,
0110
0000
1000
0010
1000
0100
0010
0100
,
1000
0001
MMMM
0000
0010
0100
0010
0000
,
1001
0000
0001
0010
1000
0010
0001
0010
,
0100
1000
1001
0000
0001
0010
0001
0000
,
1100
0000
0000
0000
0010
0000
0010
0000
0001
0000
0001
0000
0100
0010
1000
0000
,
0100
0010
0001
0000
MMMM
0000
0000
0000
0001
0100
0001
0000
1000
0000
0010
0000
,
0100
0001
1000
0001
0010
0100
1000
0001
,
2001
0000
3010
0000
0100
0001
1000
0010
,
0100
0001
0010
0100
0010
0001
1000
0001
,
0100
0000
0010
0000
0010
0000
0000
0000
1000
0010
1000
0000
0100
0000
1000
0000
,
0001
0000
1002
0000
0013
0001
0100
0010
,
2000
0100
3100
0000
0001
0100
0001
0000
,
1100
0000
0000
0000
0001
0000
1000
0000
0010
0000
0100
0000
0001
0010
0001
0000
,
1000
0100
1000
0000
1001
0000
0000
0000
0010
0000
0001
0000
0001
0000
0000
0000
,
0101
0000
0010
1000
0001
1000
0010
0100
,
0001
1000
1000
0000
0100
1000
0100
0000
,
0011
0000
1000
0010
0100
0010
1000
0100
,
0010
0000
0001
0000
0001
0000
0000
0000
0100
0010
0100
0000
0010
0000
0000
0000
,
0101
0000
1000
0100
1000
0001
0010
0001
,
0100
0010
0010
0000
1000
0100
1000
0000
,
0011
0200
0320
0230
,
0320
0030
0000
0000
;

//---------------dance-single - ----------------
#NOTEDATA:;
#CHARTNAME:;
#STEPSTYPE:dance-single;
#DESCRIPTION:;
#CHARTSTYLE:;
#DIFFICULTY:Hard;
#METER:9;
#RADARVALUES:0.326636,0.485016,0.146567,0.244279,0.039085,234.000000,219.000000,15.000000,25.000000,0.000000,0.000000,0.000000,0.000000,0.000000,0.326636,0.485016,0.146567,0.244279,0.039085,234.000000,219.000000,15.000000,25.000000,0.000000,0.000000,0.000000,0.000000,0.000000;
#CREDIT:led_light;
#NOTES:
0000
0000
0000
0000
,
0000
0000
0000
0000
,
0000
0000
0000
0000
,
0000
0000
0000
0000
,
0000
0000
0000
0000
,
0002
0000
0000
0000
,
0203
0000
0000
0000
,
0320
0000
0000
0000
,
0000
0000
2030
0000
,
3002
0000
0000
0000
,
0023
0000
0000
0000
,
0230
0000
0000
0000
,
0020
0000
0000
0330
,
2001
0000
0000
0100
,
3002
0000
0000
0010
,
2003
0000
0000
0100
,
3020
0000
0100
0100
,
2030
0000
0000
0010
,
3002
0000
0000
0100
,
2003
0000
0000
0010
,
3200
0000
0000
0310
,
1001
0000
0001
0010
0001
0000
0001
0000
,
0001
0100
0001
0010
0001
0100
0010
0000
,
0000
0000
1000
0010
1000
0000
1000
0000
,
1000
0100
1000
0010
1000
0100
0010
0000
,
0000
0000
0100
0001
0100
0000
0100
0000
,
0100
1000
0100
0001
0100
1000
0001
0000
,
0000
0000
0010
1000
0010
0000
0010
0000
,
0100
0000
1001
0000
0010
0100
0010
0000
,
0110
0000
0001
0100
0010
0100
0001
1000
,
0100
0000
0110
0000
0001
1000
0001
0000
,
0101
0000
1000
0010
0100
0010
1000
0001
,
0010
0100
0100
0000
1000
0001
1000
0000
,
1010
0000
0001
0100
0010
0100
0001
1000
,
0100
0010
0001
0000
0100
0010
0100
0000
,
0110
0000
0000
0000
1000
0000
0100
0000
0010
0000
0100
0000
1000
0100
1000
0000
,
0010
0100
0010
0000
1000
0000
0000
0000
0001
0010
0001
0000
0010
0000
0100
0000
,
0010
0001
2000
0000
3010
0100
1000
0100
,
0020
0000
0130
0000
0001
0001
1000
0000
,
0100
0100
0020
0000
0031
1000
0010
0001
,
0010
0000
1000
0000
0001
0000
0000
0000
0010
0100
0010
0000
0100
0000
0000
0000
,
1000
0000
0000
0000
0012
0000
0000
0000
0103
0000
0010
0000
0100
0000
0000
0001
,
2000
0000
3100
0000
0010
0100
0010
0000
,
0001
0000
0000
0000
1000
0000
1000
0000
0010
0000
0010
0000
0100
0010
1000
0000
,
0100
0010
0001
0000
1001
0000
0000
0000
0001
0000
0010
0000
0100
0000
0000
0000
,
1100
0000
0001
1000
0010
0100
0001
1000
,
0100
0010
0001
0000
0100
0010
1000
0000
,
1001
0000
0001
0010
1000
0010
0001
1000
,
0010
0000
0000
0000
0110
0000
0000
0000
1000
0100
1000
0000
0001
0000
0000
0000
,
0110
0000
1000
0001
0100
0010
1000
0001
,
0010
0100
0100
0000
1000
0001
1000
0000
,
0110
2000
3200
0302
,
0023
0030
0000
0000
;

//---------------dance-single - ----------------
#NOTEDATA:;
#CHARTNAME:;
#STEPSTYPE:dance-single;
#DESCRIPTION:;
#CHARTSTYLE:;
#DIFFICULTY:Medium;
#METER:7;
#RADARVALUES:0.249863,0.357380,0.146567,0.254050,0.000000,179.000000,164.000000,15.000000,26.000000,0.000000,0.000000,0.000000,0.000000,0.000000,0.249863,0.357380,0.146567,0.254050,0.000000,179.000000,164.000000,15.000000,26.000000,0.000000,0.000000,0.000000,0.000000,0.000000;
#CREDIT:led_light;
#NOTES:
0000
0000
0000
0000
,
0000
0000
0000
0000
,
0000
0000
0000
0000
,
0000
0000
0000
0000
,
0000
0000
0000
0000
,
0200
0000
0000
0000
,
0302
0000
0000
0000
,
0023
0000
0000
0000
,
0000
0000
0230
0000
,
2300
0000
0000
0000
,
3020
0000
0000
0000
,
0230
0000
0000
0000
,
0302
0000
0000
0003
,
2001
0000
3000
0100
,
0002
0000
0003
0100
,
2000
0000
3000
0010
,
0002
0003
0010
1000
,
0002
0000
0003
0010
,
2000
0000
3000
0010
,
0002
0000
0003
0100
,
0020
0000
0000
0130
,
1001
0100
0010
0010
,
0100
0001
0100
0000
1000
0000
0100
0000
,
0000
1000
0001
0001
,
1000
0100
1000
0000
0010
0000
1000
0000
,
0000
0001
1000
1000
,
0001
0010
0001
0000
0100
0000
0001
0000
,
0000
0000
0010
0100
0010
0000
0010
0000
,
0100
0000
0110
0000
0001
0001
0001
0000
,
1100
0000
1000
0010
0100
0000
0010
0000
,
0010
0000
0000
0000
1000
1000
1000
0000
,
0011
0000
0001
0100
0010
0000
0100
0000
,
1000
0000
0110
0000
0001
0001
0001
0000
,
1010
0000
1000
0100
0010
0000
0100
0000
,
0100
0000
0000
0000
1000
1000
1000
0000
,
0110
0000
1000
0010
0001
0010
1000
0000
,
2000
0000
3000
0000
0100
0001
0100
0000
,
1000
0001
0010
0100
,
2200
0000
3300
0000
0010
0001
0010
0000
,
1000
0001
0100
0010
,
2000
0000
3000
0000
0100
0010
0100
0000
,
1000
0001
0100
0010
,
0220
0000
0330
0000
1000
0001
1000
0000
,
0100
0010
0010
0100
,
0100
0000
1001
0000
0100
0100
0001
0000
,
1100
0000
0001
0100
0001
0000
1000
0000
,
0100
0000
0000
0000
0010
0010
1000
0000
,
0011
0000
1000
0010
1000
0000
0001
0000
,
0010
0000
0100
0000
1000
1000
0010
0000
,
1100
0000
0010
1000
0010
0000
0100
0000
,
0001
0000
1000
0000
0001
0001
0010
0000
,
0101
0020
0230
2300
,
3002
0003
0000
0000
;

//---------------dance-single - ----------------
#NOTEDATA:;
#CHARTNAME:;
#STEPSTYPE:dance-single;
#DESCRIPTION:;
#CHARTSTYLE:;
#DIFFICULTY:Easy;
#METER:5;
#RADARVALUES:0.184256,0.280799,0.107483,0.195423,0.000000,132.000000,121.000000,11.000000,20.000000,0.000000,0.000000,0.000000,0.000000,0.000000,0.184256,0.280799,0.107483,0.195423,0.000000,132.000000,121.000000,11.000000,20.000000,0.000000,0.000000,0.000000,0.000000,0.000000;
#CREDIT:led_light;
#NOTES:
// measure 0
0000
0000
0000
0000
,  // measure 1
0000
0000
0000
0000
,  // measure 2
0000
0000
0000
0000
,  // measure 3
0000
0000
0000
0000
,  // measure 4
0000
0000
0000
0000
,  // measure 5
2000
0000
0000
0000
,  // measure 6
3200
0000
0000
0000
,  // measure 7
0302
0000
0000
0000
,  // measure 8
0000
0000
0003
0000
,  // measure 9
0200
0000
0000
0000
,  // measure 10
2300
0000
0000
0000
,  // measure 11
3002
0000
0000
0000
,  // measure 12
0000
0000
0003
0000
,  // measure 13
2000
0000
0000
0000
,  // measure 14
3020
0000
0000
0000
,  // measure 15
0032
0000
0000
0000
,  // measure 16
0000
0000
0003
0000
,  // measure 17
2000
0000
0000
0000
,  // measure 18
3200
0000
0000
0000
,  // measure 19
0302
0000
0000
0000
,  // measure 20
0023
0000
0000
0030
,  // measure 21
0110
0001
0001
0000
,  // measure 22
1000
0100
0001
0100
,  // measure 23
0000
0010
0010
0000
,  // measure 24
1000
0010
0001
0010
,  // measure 25
0000
0100
0100
0000
,  // measure 26
1000
0010
0001
0010
,  // measure 27
0000
1000
1000
0100
,  // measure 28
0001
0110
1000
0001
,  // measure 29
1100
0100
0100
0001
,  // measure 30
0010
0000
1000
1000
,  // measure 31
0011
0100
0100
1000
,  // measure 32
0010
0000
0001
1000
,  // measure 33
0011
0010
0010
1000
,  // measure 34
0100
0000
0001
0001
,  // measure 35
1100
0010
0010
2000
,  // measure 36
3002
0003
0100
0100
,  // measure 37
1000
0001
0001
0100
,  // measure 38
0020
0030
1000
1000
,  // measure 39
0001
0010
0010
1000
,  // measure 40
0020
0030
0001
0001
,  // measure 41
0100
0010
1000
1000
,  // measure 42
0002
0003
0010
0010
,  // measure 43
0100
0010
0010
0200
,  // measure 44
0300
1001
0010
0100
,  // measure 45
1010
1000
1000
0100
,  // measure 46
0001
0000
0010
0010
,  // measure 47
0101
1000
1000
0010
,  // measure 48
0001
0000
0100
0010
,  // measure 49
0101
0001
0001
0010
,  // measure 50
1000
0000
0100
0100
,  // measure 51
1010
0001
0010
0100
,  // measure 52
2000
3000
0000
0000
;

//---------------dance-single - ----------------
#NOTEDATA:;
#CHARTNAME:;
#STEPSTYPE:dance-single;
#DESCRIPTION:;
#CHARTSTYLE:;
#DIFFICULTY:Beginner;
#METER:2;
#RADARVALUES:0.079565,0.153163,0.009771,0.156339,0.000000,57.000000,56.000000,1.000000,16.000000,0.000000,0.000000,0.000000,0.000000,0.000000,0.079565,0.153163,0.009771,0.156339,0.000000,57.000000,56.000000,1.000000,16.000000,0.000000,0.000000,0.000000,0.000000,0.000000;
#CREDIT:led_light;
#NOTES:
// measure 0
0000
0000
0000
0000
,  // measure 1
0000
0000
0000
0000
,  // measure 2
0000
0000
0000
0000
,  // measure 3
0000
0000
0000
0000
,  // measure 4
0000
0000
0000
0000
,  // measure 5
2000
0000
0000
0000
,  // measure 6
0000
0000
3000
0000
,  // measure 7
0002
0000
0000
0000
,  // measure 8
0000
0000
0003
0000
,  // measure 9
0020
0000
0000
0000
,  // measure 10
0000
0000
0030
0000
,  // measure 11
0200
0000
0000
0000
,  // measure 12
0000
0000
0300
0000
,  // measure 13
2000
0000
0000
0000
,  // measure 14
0000
0000
3000
0000
,  // measure 15
0020
0000
0000
0000
,  // measure 16
0000
0000
0030
0000
,  // measure 17
0002
0000
0000
0000
,  // measure 18
0000
0000
0003
0000
,  // measure 19
0200
0000
0000
0000
,  // measure 20
0000
0000
0300
0000
,  // measure 21
2002
0000
0000
0000
,  // measure 22
0000
0000
0000
0000
,  // measure 23
0000
0000
0000
0000
,  // measure 24
0000
0000
0000
0000
,  // measure 25
0000
0000
0000
0000
,  // measure 26
0000
0000
0000
0000
,  // measure 27
0000
0000
0000
0000
,  // measure 28
3003
0100
0000
0100
,  // measure 29
0000
0010
0000
0010
,  // measure 30
0010
0000
0000
0100
,  // measure 31
0000
0001
0000
0001
,  // measure 32
0001
0000
0000
0100
,  // measure 33
0000
1000
0000
1000
,  // measure 34
1000
0000
0000
0010
,  // measure 35
0000
0001
0000
0002
,  // measure 36
0000
0003
0000
1000
,  // measure 37
0000
0100
0000
0100
,  // measure 38
0200
0300
0000
0001
,  // measure 39
0000
1000
0000
2000
,  // measure 40
0000
3000
0000
0100
,  // measure 41
0000
0010
0000
0010
,  // measure 42
0020
0030
0000
0100
,  // measure 43
0000
0001
0000
0002
,  // measure 44
0000
0003
0000
1000
,  // measure 45
0000
0010
0010
0010
,  // measure 46
0000
0000
0000
0001
,  // measure 47
0000
1000
1000
1000
,  // measure 48
0000
0000
0100
0100
,  // measure 49
0000
0001
0001
0001
,  // measure 50
0000
0000
0010
0010
,  // measure 51
0000
0100
0000
0002
,  // measure 52
0000
0003
0000
0000
;
