#VERSION:0.83;
#TITLE:Put 'Em Up;
#SUBTITLE:(LED-Special);
#ARTIST:Edun;
#TITLETRANSLIT:;
#SUBTITLETRANSLIT:;
#ARTISTTRANSLIT:;
#GENRE:;
#ORIGIN:;
#CREDIT:;
#BANNER:Put 'Em Up (LED-Special).png;
#BACKGROUND:../bg.png;
#PREVIEWVID:;
#JACKET:Put 'Em Up (LED-Special)-jacket.png;
#CDIMAGE:;
#DISCIMAGE:;
#LYRICSPATH:;
#CDTITLE:../cdtitle.png;
#MUSIC:Put 'Em Up (LED-Special).ogg;
#OFFSET:0.000000;
#SAMPLESTART:47.090000;
#SAMPLELENGTH:15.000000;
#SELECTABLE:YES;
#BPMS:0.000=130.000;
#STOPS:;
#DELAYS:;
#WARPS:;
#TIMESIGNATURES:0.000=4=4;
#TICKCOUNTS:0.000=4;
#COMBOS:0.000=1;
#SPEEDS:0.000=1.000=0.000=0;
#SCROLLS:0.000=1.000;
#FAKES:;
#LABELS:0.000=Song Start;
#BGCHANGES:0.000=Put 'Em Up (LED-Special).avi=1.000=0=0=0=StretchNoLoop====,
99999=-nosongbg-=1.000=0=0=0 // don't automatically add -songbackground-
;
#KEYSOUNDS:;
#ATTACKS:
;

//---------------dance-double - ----------------
#NOTEDATA:;
#CHARTNAME:;
#STEPSTYPE:dance-double;
#DESCRIPTION:;
#CHARTSTYLE:;
#DIFFICULTY:Challenge;
#METER:11;
#RADARVALUES:0.437383,0.467624,0.201986,0.127570,0.042523,288.000000,269.000000,19.000000,12.000000,0.000000,0.000000,0.000000,0.000000,0.000000,0.437383,0.467624,0.201986,0.127570,0.042523,288.000000,269.000000,19.000000,12.000000,0.000000,0.000000,0.000000,0.000000,0.000000;
#CREDIT:led_light;
#NOTES:
00000000
00000000
00000000
00000000
,
00000000
00000000
00000000
00000000
,
00000000
00000000
00000000
00000000
,
00000000
00000000
00000000
00000000
,
00000000
00000000
00000000
00000000
,
00000000
00000000
00000000
00000000
,
00001000
00000000
00010000
00000000
01000000
00000000
00000000
00000000
10000000
00000000
00000000
10000000
00000000
00000000
10000000
00000000
,
01000000
00000000
00010000
00000000
00001000
00000000
00000000
00000000
00000100
00000000
00000000
00000100
00000000
00000000
00000100
00000000
,
00000001
00000000
00000100
00000000
00001000
00000000
00000000
00000000
00010000
00000000
00000000
00001000
00000000
00000000
00010000
00000000
,
00022000
00000000
00000000
00033000
,
01000000
00010000
10000000
01000000
00010000
00000100
00000001
00000100
,
00001000
00000001
00001001
00000000
00001000
00000100
00010000
00001000
,
01000000
00001000
00010000
00000100
00001000
00000001
00000100
00010000
,
01000000
00001000
00011000
00000000
00010000
00000100
00001000
00010000
,
00001000
00000100
00001000
00001000
00000001
00000100
00001000
00010000
,
00001000
00010000
00011000
00000000
00010000
01000000
10000000
00010000
,
10000000
01000000
00010000
00010000
00001000
00000100
00001000
00010000
,
00001000
00001000
00010000
00000000
00022000
00000000
00033000
00000000
,
00000100
00001000
00000001
00000100
00001000
00001000
00000100
00000001
,
00001000
00000100
00000001
00000000
00000100
00010000
00001000
00001000
,
01000000
00010000
10000000
01000000
00010000
00010000
01000000
10000000
,
00010000
01000000
10000000
00000000
01000000
00001000
00010000
00010000
,
01000000
00010000
00000100
00000001
00000100
00001000
00000100
00010000
,
01000000
00010000
00001000
00000000
01000000
01000000
10000000
00010000
,
10000000
01000000
00010000
00000000
01000000
00010000
01000000
00001000
,
00021000
00000000
00001000
00031000
,
00001000
00010000
00100000
00000000
00010000
00000000
00010000
00001000
,
00000010
00000000
00000100
00000000
00001001
00000000
00000001
00000100
,
00001000
00010000
00100000
00000000
00010000
00001000
00000100
00000000
,
00001000
00010000
01000000
00010000
01000000
00010000
00001000
01000000
,
00002000
00003100
00020000
01030000
,
00001000
00010000
01000000
00001000
01000000
00010000
00001000
00000100
,
00000001
00000000
00000000
00000000
00000101
00000000
00000000
00000000
00001000
00000000
00000000
00001000
00000000
00000000
00000100
00000000
,
00000001
00001000
00010000
00000000
00022000
00000000
00033000
00000000
,
00010000
00001000
00000010
00000000
00001000
00000000
00001000
00010000
,
00100000
00000000
01000000
00000000
10010000
00000000
10000000
01000000
,
00010000
00001000
00000010
00000000
00001000
00010000
01000000
00000000
,
00010000
00001000
00000100
00001000
00000100
00001000
00010000
00000100
,
00020000
01030000
00002000
00003100
,
00010000
00001000
00000100
00010000
00000100
00001000
00010000
01000000
,
10000000
00000000
00000000
00000000
11000000
00000000
00000000
00000000
00010000
00000000
00000000
00010000
00000000
00000000
01000000
00000000
,
10000000
00010000
00001000
00000000
00011000
00000000
00010000
00001000
,
00000100
00000001
00000010
00000000
00000100
00000100
00010000
00001000
,
01000000
00001000
00010000
00000000
00011000
00000000
00001000
00010000
,
01000000
10000000
00100000
00000000
01000000
00010000
10000000
00000000
,
01000000
00010000
00001000
00010000
00001000
00000100
00000001
00000100
,
00001000
00000000
00010000
00000000
00011000
00000000
00000000
00000000
00010000
00000000
00000000
01000000
00000000
00000000
01010000
00000000
,
10000000
00000000
01000000
00000000
00010000
00000000
00000000
00000000
00001000
00000000
00000000
00000100
00000000
00000000
00001100
00000000
,
00002000
00000000
00000000
00000000
00013000
00000000
00000000
00000000
01001000
00000000
00000000
00010100
00000000
00000000
00011000
00000000
;

//---------------dance-single - ----------------
#NOTEDATA:;
#CHARTNAME:;
#STEPSTYPE:dance-single;
#DESCRIPTION:;
#CHARTSTYLE:;
#DIFFICULTY:Challenge;
#METER:10;
#RADARVALUES:0.419159,0.415666,0.297663,0.106308,0.031893,276.000000,248.000000,28.000000,10.000000,0.000000,0.000000,0.000000,0.000000,0.000000,0.419159,0.415666,0.297663,0.106308,0.031893,276.000000,248.000000,28.000000,10.000000,0.000000,0.000000,0.000000,0.000000,0.000000;
#CREDIT:led_light;
#NOTES:
0000
0000
0000
0000
,
0000
0000
0000
0000
,
0000
0000
0000
0000
,
0000
0000
0000
0000
,
0000
0000
0000
0000
,
0000
0000
0000
0000
,
1000
0000
0001
0000
0100
0000
0000
0000
1000
0000
0000
1000
0000
0000
1000
0000
,
0100
0000
0001
0000
1000
0000
0000
0000
0100
0000
0000
0100
0000
0000
0100
0000
,
0001
0000
0100
0000
1000
0000
0000
0000
0001
0000
0000
0001
0000
0000
0001
0000
,
2002
0000
0000
3003
,
1000
0100
1000
0000
0001
0100
0001
0001
,
0100
0000
1100
0000
0001
0100
0001
1000
,
0001
0100
0001
0000
1000
0100
1000
1000
,
0100
0000
0101
0000
1000
0100
1000
0000
,
0001
0100
1000
0000
1000
0100
0001
0100
,
0001
0000
1100
0000
0001
0100
0001
0000
,
1000
0100
0001
0000
0001
0100
1000
0100
,
1000
1000
0001
0000
0202
0000
0303
0000
,
0001
1000
0100
0000
1000
0001
0100
0100
,
2000
0000
3001
0000
1000
0100
0100
0001
,
1000
0001
0100
0000
0001
1000
0100
0100
,
0002
0000
1003
0000
0001
0100
0100
0001
,
0100
1000
0001
0000
1000
0100
1000
0002
,
0100
0000
1003
0000
0100
0001
0100
0000
,
1000
0100
1000
0000
0001
0100
1000
0100
,
0002
0000
1000
1003
,
1001
0100
0010
0000
1001
0000
1001
0100
,
0010
0000
0100
0000
1001
0000
0001
0100
,
1000
0100
0010
0000
0001
1000
0100
0000
,
0001
1000
0100
0001
0100
0001
0100
1000
,
0001
0101
1000
1100
,
0001
0100
1000
0000
0100
0001
1000
0001
,
0100
0000
1001
0000
0001
1000
0100
1000
,
0001
1000
2200
3300
,
1001
0100
0010
0000
1001
0000
1001
0100
,
0010
0000
0100
0000
1001
0000
1000
0100
,
0001
0100
0010
0000
1000
0001
0100
0000
,
1000
0001
0100
1000
0100
1000
0100
0001
,
1000
1100
0001
0101
,
1000
0100
0001
0000
0100
1000
0001
1000
,
0100
0000
1001
0000
1000
0001
0100
0001
,
1000
0000
0001
0000
0101
0000
0100
1000
,
0100
0001
0010
0000
0100
1000
0100
1000
,
0001
0000
1000
0000
1100
0000
0100
0001
,
0100
1000
0010
0000
0100
0001
1000
0000
,
0100
0001
1000
0001
0100
0100
1000
0001
,
0100
0000
0000
0000
1001
0000
0000
0000
1000
0000
0000
0100
0000
0000
0101
0000
,
0000
0000
1000
0000
0100
0000
0000
0000
0001
0000
0000
0100
0000
0000
1100
0000
,
0000
0000
0001
0000
0100
0000
0000
0000
1001
0000
0000
1100
0000
0000
0101
0000
;
