#TITLE:Pumpkin Panic;
#SUBTITLE:;
#ARTIST:P*Light;
#TITLETRANSLIT:;
#SUBTITLETRANSLIT:;
#ARTISTTRANSLIT:;
#GENRE:J-Music;
#CREDIT:;
#BANNER:Pumpkin Panic.png;
#BACKGROUND:Pumpkin Panic-bg.png;
#LYRICSPATH:;
#CDTITLE:../cdtitle.png;
#MUSIC:Pumpkin Panic.ogg;
#OFFSET:2.367000;
#SAMPLESTART:82.793999;
#SAMPLELENGTH:15.000000;
#LASTBEATHINT:2.118850;
#SELECTABLE:YES;
#BPMS:0.000000=93.000000
,20.000000=186.000000
;
#STOPS:307.750000=0.323000
;
#BGCHANGES:-99.000=../bg.avi=1.000=0=0=1=====,
99999=-nosongbg-=1.000=0=0=0 // don't automatically add -songbackground-
;
#KEYSOUNDS:;
#ATTACKS:;

//---------------dance-single - ----------------
#NOTES:
     dance-single:
     :
     Hard:
     14:
     0.714266,0.707701,0.294110,0.027573,0.096505,544.000000,512.000000,32.000000,3.000000,0.000000,0.000000,0.714266,0.707701,0.294110,0.027573,0.096505,544.000000,512.000000,32.000000,3.000000,0.000000,0.000000:
0000
0000
0000
0000
,
0000
0000
0000
0000
,
0000
0000
0000
0000
,
0000
0000
0000
0000
,
0000
0000
0000
0000
,
1100
0000
0100
0000
0100
0010
0100
0010
,
0001
1000
0001
0100
1000
0100
0001
0000
,
1010
0000
0010
0000
0010
0100
0010
0100
,
0001
1000
0001
0010
1000
0010
0001
0000
,
1100
0000
0100
0000
0100
0010
0100
1000
,
1010
0000
0010
0000
0010
0100
0010
1000
,
0001
0010
0001
0010
0100
1000
0100
1000
,
0010
0010
0100
0110
,
1000
0000
0001
0000
0010
0000
0000
0000
0100
0000
0000
0100
0000
0000
0010
0000
,
0001
0000
0100
0000
0010
0000
0000
0000
1000
0000
0000
1000
0000
0000
0001
0000
,
0100
0000
0010
0000
1000
0000
0000
0000
0100
0000
0000
0100
0000
0000
1000
0000
,
0100
0000
0010
0000
0001
0000
0000
0000
1000
0000
0000
1000
0000
0000
0100
0000
,
1000
0000
0001
0000
0100
0000
0000
0000
0110
0000
0000
0010
1000
0000
0010
0000
,
0100
0000
0001
0000
1000
0000
0000
0000
1001
0000
0000
0001
0010
0000
0001
0000
,
1000
0000
0100
0000
0010
0000
0000
0000
0110
0000
0000
0010
0001
0000
0010
0000
,
0100
1000
0001
0000
0101
1000
0010
0000
,
0110
0000
0100
0000
0100
0001
0010
0001
,
1000
0010
1000
0001
0010
0100
1000
0100
,
0110
0000
0100
0000
0100
1000
0010
1000
,
0001
0010
0001
1000
0010
0100
0001
1000
,
1100
0000
0100
0000
0100
0001
0100
1000
,
0010
0000
0010
0000
0010
0001
0010
1000
,
0001
0010
0100
0010
0001
0010
1000
0010
,
0001
0001
1000
0001
0100
0000
0110
0000
,
1000
0100
0010
0001
0010
0100
1000
0001
,
1000
0100
0010
0001
0010
0100
1000
0001
,
0100
0010
1000
0001
1000
0010
0100
0001
,
1000
0100
1000
0100
0001
0100
1000
0000
,
0001
0010
0100
1000
0100
0010
0001
1000
,
0001
0010
0100
1000
0100
0010
0001
1000
,
0010
0100
0001
1000
0001
0100
0010
1000
,
2020
3030
0011
0011
,
1100
0000
0000
0000
0100
0000
0010
0100
0010
0000
0100
0000
0010
0000
0100
0000
,
1000
0001
1000
0010
0001
0010
1000
0000
,
0011
0000
0000
0000
0010
0000
0100
0010
0100
0000
0010
0000
0100
0000
0010
0000
,
0001
1000
0001
0010
1000
0010
0001
0000
,
1100
0000
0000
0000
0100
0000
0010
0100
0010
0000
0100
0000
1000
0000
0010
0000
,
1010
0000
0000
0000
0010
0000
0100
0010
0100
0000
0010
0000
1000
0000
0100
0000
,
0010
0001
0010
0001
1000
0100
1000
0001
,
0100
0010
1000
0110
,
0001
0010
0100
0010
1000
0010
0100
0010
,
0001
0000
0010
0000
0100
0000
0010
0000
1000
0000
0010
0100
0010
0000
0001
0000
,
1000
0010
0100
0010
0001
0010
0100
0010
,
1000
0100
0010
0001
0001
0010
0100
1000
,
0001
0100
0010
0100
1000
0100
0010
0100
,
0001
0000
0100
0000
0010
0000
0100
0000
1000
0000
0100
0010
0100
0000
0001
0000
,
1000
0100
0010
0100
0001
0100
0010
0100
,
1000
0010
0100
0001
0001
0100
0010
1000
,
0001
0000
0011
0000
1000
0100
1000
0010
,
1000
0001
1000
0100
0010
0001
0100
0010
,
1000
0000
1100
0000
0001
0010
0001
0100
,
0001
1000
0001
0010
0100
1000
0010
0100
,
0001
1000
0001
1000
0100
1000
0100
1000
,
0100
0010
0100
0010
0001
0100
0001
0100
,
0010
0010
1000
1000
0100
0010
0001
1000
,
0002
0000
0000
0003
,
1001
0000
0101
0000
1000
0010
0100
0010
,
1000
0100
1000
0100
0001
0100
1000
0100
,
0010
0000
0011
0000
0001
0100
0010
0100
,
0001
1000
0001
1000
0010
0100
0010
1000
,
0001
0000
1100
0000
0001
0010
0100
0010
,
0001
0100
0001
0100
1000
0100
0001
0100
,
0010
0000
1010
0000
1000
0100
0010
0100
,
1000
0001
1000
0010
0100
0010
1000
0000
,
0011
0000
0000
0000
0010
0000
0100
0010
0100
0000
0010
0000
0100
0000
0010
0100
,
1000
0001
1000
0010
0001
0010
1000
0000
,
0101
0000
0000
0000
0100
0000
0010
0100
0010
0000
0100
0000
0010
0000
0100
0010
,
1000
0001
1000
0100
0001
0100
1000
0000
,
0011
0000
0000
0000
0010
0000
0100
0010
0100
0000
0010
0000
0001
0000
0010
0001
,
0100
0000
0000
0000
0100
0000
0010
0100
0010
0000
0100
0000
0001
0000
0100
0001
,
1000
0100
1000
0100
0010
0001
0010
0001
,
0100
0100
0010
0010
1000
0001
0010
0100
,
1001
0000
0000
0000
;

//---------------dance-single - ----------------
#NOTES:
     dance-single:
     :
     Medium:
     10:
     0.476615,0.530776,0.358446,0.073527,0.000000,363.000000,324.000000,39.000000,8.000000,0.000000,0.000000,0.476615,0.530776,0.358446,0.073527,0.000000,363.000000,324.000000,39.000000,8.000000,0.000000,0.000000:
0000
0000
0000
0000
,
0000
0000
0000
0000
,
0000
0000
0000
0000
,
0000
0000
0000
0000
,
0000
0000
0000
0000
,
0010
0010
1010
0010
,
0001
0000
0001
0000
0010
1000
0001
0000
,
0010
0010
0011
0010
,
1000
0000
1000
0000
0010
0001
1000
0000
,
1100
0000
0100
0000
0010
0100
0010
0000
,
0101
0000
0100
0000
0010
0100
0010
0000
,
1010
1010
0011
1001
,
0010
0000
0000
0000
,
1000
0100
0010
0000
0100
0000
0100
0000
,
0001
0100
1000
0100
,
1000
0010
0100
0000
0010
0000
0010
0000
,
0001
0010
1000
0010
,
1000
0100
0010
0000
0001
0000
1100
0000
,
0001
0100
0010
0000
1000
0000
0011
0000
,
0010
0100
1000
0000
0100
0000
1000
0000
,
0010
0100
0001
0000
0100
0000
0110
0000
,
1000
0000
1000
0000
0001
0100
0001
0000
,
0010
0100
1000
1001
,
0001
0000
0001
0000
1000
0100
1000
0000
,
0010
0100
0001
1001
,
0010
0000
0010
0000
0100
1000
0100
0000
,
0010
0000
0010
0000
0100
0001
0100
0000
,
0002
0023
2030
3200
,
0302
0000
0003
0000
,
1000
0100
0001
0000
0100
0000
1000
0000
,
0100
0001
0100
0000
1000
0000
0001
0000
,
1000
0010
0001
0000
0010
0000
1000
0000
,
0010
0001
0010
0000
0100
0010
1000
0000
,
0001
0010
1000
0000
0010
0000
0001
0000
,
0010
1000
0010
0000
0001
0000
1000
0000
,
0001
0100
1000
0000
0100
0000
0001
0000
,
2200
3300
0110
0110
,
0100
0100
1100
0100
,
0001
0000
0001
0000
0100
1000
0001
0000
,
0100
0100
0101
0100
,
1000
0000
1000
0000
0100
0001
1000
0000
,
1010
0000
0010
0000
0100
0010
0100
0000
,
0011
0000
0010
0000
0100
0010
0100
0000
,
1100
1000
0011
0001
,
1000
0001
0100
0000
,
0010
1000
0010
1000
,
0001
0000
0010
0000
0100
1000
0001
0000
,
0100
0001
0100
0001
,
1000
0100
0010
0000
0100
0010
0001
0000
,
1000
1100
1000
1010
,
1000
0000
1100
0000
1000
0010
1000
0000
,
0001
0101
0001
1001
,
0001
0010
0100
0000
1000
0100
0010
0000
,
0001
0000
1100
0000
0001
0100
0010
0000
,
0001
0010
1000
0100
,
0001
0000
1010
0000
0001
0010
0100
0000
,
0001
0100
1000
0010
,
0100
0100
0010
0010
,
1000
1000
0001
0001
,
0010
0100
0010
0000
0100
0010
0100
0000
,
2000
0000
0000
3000
,
0001
0101
0010
1000
,
0001
0000
0001
0000
0100
0010
1000
0000
,
0001
0011
0100
1000
,
0100
0010
0100
0000
1000
0000
0001
0000
,
1000
1010
0100
0001
,
1000
0000
1000
0000
0010
0100
0001
0000
,
1000
1100
0010
0001
,
0010
0100
0010
0000
0001
0000
1001
0000
,
0010
0010
1010
0010
,
0001
0000
0001
0000
0010
1000
0001
0000
,
0010
0010
0011
0010
,
1000
0000
1000
0000
0010
0001
1000
0000
,
1100
0000
0100
0000
0010
0100
0010
0000
,
0101
0000
0100
0000
0010
0100
0010
0000
,
0100
0010
1000
0000
0010
0100
0001
0000
,
0010
0100
0010
0100
,
1001
0000
0000
0000
;

//---------------dance-single - ----------------
#NOTES:
     dance-single:
     :
     Easy:
     7:
     0.362385,0.460006,0.119482,0.064336,0.000000,276.000000,263.000000,13.000000,7.000000,0.000000,0.000000,0.362385,0.460006,0.119482,0.064336,0.000000,276.000000,263.000000,13.000000,7.000000,0.000000,0.000000:
0000
0000
0000
0000
,
0000
0000
0000
0000
,
0000
0000
0000
0000
,
0000
0000
0000
0000
,
0000
0000
0000
0000
,
0010
0010
0010
0010
,
0001
0001
1000
0001
,
0100
0100
0100
0100
,
1000
1000
0001
1000
,
0010
0010
0001
0010
,
1000
1000
0100
1000
,
0001
0001
0100
1000
,
0010
0000
0000
0000
,
1000
0100
1000
0001
,
1000
0100
1000
0010
,
0100
0001
0100
0010
,
0100
0001
1000
0000
,
0001
0101
0001
1001
,
0001
0101
0001
0010
,
1000
1100
1000
1001
,
1000
1100
0010
0010
,
1000
1000
0001
1000
,
0100
0010
0001
0000
,
0001
0001
1000
0001
,
0100
0010
1000
0000
,
0001
0001
0100
0001
,
0010
0010
1000
0010
,
0100
0100
0001
0010
,
1000
0000
0000
0000
,
0002
0100
0000
0103
,
0020
1000
0000
1030
,
0002
0010
0000
0013
,
0100
1000
0100
0000
,
2000
0010
0000
3010
,
0200
0001
0000
0301
,
2000
0100
0000
3100
,
0010
0000
0110
1001
,
0010
0010
0010
0010
,
0001
0001
1000
0001
,
0100
0100
0100
0100
,
1000
1000
0001
1000
,
0010
0010
0001
0010
,
1000
1000
0100
1000
,
0001
0001
0100
1000
,
0010
0010
0010
0000
,
1000
0100
1000
0100
,
1000
0100
1000
1000
,
0001
0100
0001
0100
,
0001
0000
1001
0000
,
0001
0010
0001
0010
,
0001
0010
0001
0001
,
1000
0010
1000
0010
,
1000
0000
1001
0000
,
0001
0001
0100
0001
,
1000
0001
0100
0010
,
1000
1000
0100
1000
,
0001
1000
0100
0000
,
1000
1000
0010
1000
,
0100
0100
0001
0100
,
0010
0010
1000
0100
,
0002
0000
0000
0003
,
1000
0100
0001
0100
,
0001
0100
1000
0100
,
0010
0100
1000
0100
,
1000
0010
0100
0110
,
1000
0010
0001
0010
,
0001
0010
1000
0010
,
0100
0010
1000
0010
,
1000
0100
0010
0110
,
0010
0010
0100
0010
,
0001
0001
1000
0001
,
0100
0100
0010
0100
,
1000
1000
0001
1000
,
0010
0010
0001
0010
,
1000
1000
0100
1000
,
0001
0001
0100
1000
,
0010
0010
0100
0010
,
0110
0000
0000
0000
;

//---------------dance-single - ----------------
#NOTES:
     dance-single:
     :
     Beginner:
     4:
     0.183818,0.247695,0.027573,0.064336,0.000000,140.000000,137.000000,3.000000,7.000000,0.000000,0.000000,0.183818,0.247695,0.027573,0.064336,0.000000,140.000000,137.000000,3.000000,7.000000,0.000000,0.000000:
0000
0000
0000
0000
,
0000
0000
0000
0000
,
0000
0000
0000
0000
,
0000
0000
0000
0000
,
0000
0000
0000
0000
,
0100
0000
0100
0000
,
0100
0100
0100
0000
,
0010
0000
0010
0000
,
0010
0010
0010
0000
,
0001
0000
0001
0000
,
1000
0000
1000
0000
,
0001
0000
0001
0000
,
0010
0000
0000
0000
,
0100
0000
0100
0000
,
1000
0000
0100
0000
,
1000
0000
1000
0000
,
0010
0000
1000
0000
,
0001
0000
0001
0000
,
0100
0000
0001
0000
,
0010
0000
0010
0000
,
0100
0000
0010
0000
,
0001
0000
0001
0000
,
0001
0000
0100
0000
,
1000
0000
1000
0000
,
1000
0000
0010
0000
,
1000
0000
1000
0000
,
0001
0000
0001
0000
,
1000
0000
1000
0000
,
0100
0000
0000
0000
,
2000
0000
3000
0000
,
2000
0000
3000
0000
,
0200
0000
0300
0000
,
0100
0000
0010
0000
,
0002
0000
0003
0000
,
0002
0000
0003
0000
,
0200
0000
0300
0000
,
0010
0000
0110
0000
,
0100
0000
0100
0000
,
0100
0100
0100
0000
,
0010
0000
0010
0000
,
0010
0010
0010
0000
,
1000
0000
1000
0000
,
0001
0000
0001
0000
,
1000
0000
1000
0000
,
0010
0000
0000
0000
,
1000
0000
1000
0000
,
1000
0000
1000
0000
,
0100
0000
0100
0000
,
0001
0000
0000
0000
,
0001
0000
0001
0000
,
0001
0000
0001
0000
,
0010
0000
0010
0000
,
1000
0000
0000
0000
,
0100
0000
0001
0000
,
0100
0000
0100
0000
,
1000
0000
0010
0000
,
1000
0000
1000
0000
,
0001
0000
0001
0000
,
0010
0000
0010
0000
,
1000
0000
1000
0000
,
0100
0000
0000
0000
,
1000
0000
0100
0000
,
1000
0000
0010
0000
,
1000
0000
0001
0000
,
0100
0000
0110
0000
,
0001
0000
0010
0000
,
0001
0000
0100
0000
,
0001
0000
1000
0000
,
0010
0000
0110
0000
,
0100
0000
0100
0000
,
0100
0100
0100
0000
,
0010
0000
0010
0000
,
0010
0010
0010
0000
,
1000
0000
1000
0000
,
0001
0000
0001
0000
,
1000
0000
1000
0000
,
0020
0000
0000
0000
,
0030
0000
0000
0000
;

//---------------dance-double - ----------------
#NOTES:
     dance-double:
     :
     Medium:
     10:
     0.468737,0.495391,0.294110,0.073527,0.000000,357.000000,325.000000,32.000000,8.000000,0.000000,0.000000,0.468737,0.495391,0.294110,0.073527,0.000000,357.000000,325.000000,32.000000,8.000000,0.000000,0.000000:
// measure 0
00000000
00000000
00000000
00000000
,  // measure 1
00000000
00000000
00000000
00000000
,  // measure 2
00000000
00000000
00000000
00000000
,  // measure 3
00000000
00000000
00000000
00000000
,  // measure 4
00000000
00000000
00000000
00000000
,  // measure 5
00001000
00001000
00010000
00001000
,  // measure 6
00100000
00000000
00100000
00000000
01000000
10000000
00100000
00000000
,  // measure 7
00010000
00010000
00001000
00010000
,  // measure 8
00000010
00000000
00000010
00000000
00000100
00000001
00000010
00000000
,  // measure 9
00001100
00000000
00000100
00000000
00010000
00001000
00010000
00000000
,  // measure 10
01010000
00000000
01000000
00000000
00001000
00010000
00001000
00000000
,  // measure 11
00110000
01000000
00110000
10000000
,  // measure 12
00100000
01000000
00100000
00000000
,  // measure 13
10000000
01000000
00010000
00000000
01000000
00000000
01000000
00000000
,  // measure 14
10000000
01000000
00010000
00001000
,  // measure 15
00001000
00000100
00000001
00000000
00000100
00000000
00001000
00000000
,  // measure 16
00000100
00000100
00000001
00000010
,  // measure 17
00001000
00010000
01000000
00000000
10000000
00000000
10010000
00000000
,  // measure 18
00010000
00110000
00100000
00101000
,  // measure 19
00001000
00010000
00100000
00000000
10000000
00000000
11000000
00000000
,  // measure 20
01000000
00010000
01000000
00000000
00010000
00001000
00010000
00000000
,  // measure 21
00001000
00000000
00011000
00000000
00100000
01000000
10000000
00000000
,  // measure 22
01000000
01000000
10000000
00100000
,  // measure 23
00010000
00000000
00011000
00000000
00000010
00000100
00000001
00000000
,  // measure 24
00000100
00000100
00000001
00000010
,  // measure 25
00000100
00000000
00000100
00000000
00000100
00010000
00001000
00000000
,  // measure 26
01000000
00000000
01000000
00000000
01000000
00001000
00010000
00000000
,  // measure 27
02000000
23000000
30200000
00320000
,  // measure 28
00032000
00000010
00013000
00000000
,  // measure 29
01000000
10000000
01000000
00000000
00010000
00000000
00001000
00000000
,  // measure 30
00010000
01000000
10000000
00000000
01000000
00000000
00010000
00000000
,  // measure 31
00001000
00000100
00000001
00000000
00000100
00000000
00001000
00000000
,  // measure 32
00010000
01000000
00010000
00000000
01000000
00000000
10000000
00000000
,  // measure 33
00100000
10000000
00100000
00000000
00010000
00000000
00001000
00000000
,  // measure 34
00010000
00100000
10000000
00000000
00100000
00000000
00010000
00000000
,  // measure 35
00001000
00000010
00000001
00000000
00000010
00000000
00001000
00000000
,  // measure 36
00022000
00033000
00011000
00011000
,  // measure 37
00010000
00010000
00001000
00010000
,  // measure 38
00000010
00000000
00000010
00000000
00000100
00000001
00000010
00000000
,  // measure 39
00001000
00001000
00010000
00001000
,  // measure 40
00100000
00000000
00100000
00000000
01000000
10000000
00100000
00000000
,  // measure 41
01010000
00000000
01000000
00000000
00001000
00010000
00001000
00000000
,  // measure 42
00001100
00000000
00000100
00000000
00010000
00001000
00010000
00000000
,  // measure 43
00001010
00000100
00001010
00000001
,  // measure 44
00000010
00000100
00000010
00000000
,  // measure 45
00000001
00000100
00000001
00000100
,  // measure 46
00001000
00000000
00010000
00000000
00001000
00100000
00010000
00000000
,  // measure 47
10000000
01000000
10000000
01000000
,  // measure 48
00100000
00010000
01000000
00000000
00100000
00000000
10000000
00000000
,  // measure 49
00010000
00110000
00010000
00011000
,  // measure 50
00010000
00000000
01010000
00000000
10000000
00100000
00010000
00000000
,  // measure 51
00001000
00001100
00001000
00011000
,  // measure 52
00001000
00000010
00001000
00000000
00001000
00000000
00000001
00000000
,  // measure 53
00000100
00000000
00000110
00000000
00000001
00001000
00000010
00000000
,  // measure 54
00010000
00001000
00100000
00100000
,  // measure 55
00001000
00000000
00011000
00000000
00001000
00010000
00100000
00000000
,  // measure 56
01000000
00010000
00100000
00100000
,  // measure 57
10000000
10000000
00100000
00100000
,  // measure 58
00001000
00001000
00000010
00000010
,  // measure 59
00000001
00000100
00001000
00000000
00000100
00000010
00010000
00000000
,  // measure 60
00002000
00000000
00000000
00003000
,  // measure 61
00010000
00000000
01100000
00000000
00010000
00100000
01000000
00000000
,  // measure 62
10000000
01000000
00100000
00010000
,  // measure 63
01000000
00000000
10010000
00000000
00100000
00000000
00010000
10000000
,  // measure 64
00000000
01000000
00100000
00000000
00001000
00000000
00010000
00000000
,  // measure 65
00001000
00000000
00000110
00000000
00001000
00000100
00000010
00000000
,  // measure 66
00000001
00000010
00000100
00001000
,  // measure 67
00000010
00000000
00001001
00000000
00000100
00000000
00001000
00000001
,  // measure 68
00000000
00000010
00000100
00000000
00001000
00000000
00011000
00000000
,  // measure 69
00001000
00001000
00010000
00001000
,  // measure 70
01000000
00000000
01000000
00000000
00100000
10000000
01000000
00000000
,  // measure 71
00010000
00010000
00001000
00010000
,  // measure 72
00000100
00000000
00000100
00000000
00000010
00000001
00000100
00000000
,  // measure 73
00001010
00000000
00000010
00000000
00010000
00001000
00010000
00000000
,  // measure 74
00110000
00000000
00100000
00000000
00001000
00010000
00001000
00000000
,  // measure 75
01000000
00010000
00100000
00000000
01000000
10000000
00100000
00000000
,  // measure 76
00010000
00001000
00000010
00001000
,  // measure 77
00011000
00000000
00000000
00000000
;

//---------------dance-double - ----------------
#NOTES:
     dance-double:
     :
     Easy:
     7:
     0.344003,0.460006,0.119482,0.073527,0.000000,262.000000,249.000000,13.000000,8.000000,0.000000,0.000000,0.344003,0.460006,0.119482,0.073527,0.000000,262.000000,249.000000,13.000000,8.000000,0.000000,0.000000:
// measure 0
00000000
00000000
00000000
00000000
,  // measure 1
00000000
00000000
00000000
00000000
,  // measure 2
00000000
00000000
00000000
00000000
,  // measure 3
00000000
00000000
00000000
00000000
,  // measure 4
00000000
00000000
00000000
00000000
,  // measure 5
00001000
00001000
00001000
00001000
,  // measure 6
00010000
00010000
00000010
00001000
,  // measure 7
00000100
00000100
00000100
00000100
,  // measure 8
00000010
00000010
00000001
00001000
,  // measure 9
00000010
00000010
00000100
00000010
,  // measure 10
00010000
00010000
00100000
00010000
,  // measure 11
00001000
00001000
01000000
00001000
,  // measure 12
00010000
00000000
00000000
00000000
,  // measure 13
01000000
10000000
01000000
10000000
,  // measure 14
00100000
10000000
00100000
00100000
,  // measure 15
01000000
00010000
00100000
00010000
,  // measure 16
00100000
00100000
00001000
00000000
,  // measure 17
00001000
00001100
00001000
00011000
,  // measure 18
00001000
00001010
00000010
00001000
,  // measure 19
00010000
01010000
00010000
00011000
,  // measure 20
00010000
00110000
00001000
00000000
,  // measure 21
00010000
00010000
00001000
00100000
,  // measure 22
01000000
00100000
00010000
00000000
,  // measure 23
00001000
00001000
00010000
00000010
,  // measure 24
00000100
00000010
00001000
00000000
,  // measure 25
00010000
00010000
01000000
00010000
,  // measure 26
00000100
00000100
00000010
00000100
,  // measure 27
00001000
00001000
00000001
00000100
,  // measure 28
00000020
00000000
00000030
00000000
,  // measure 29
00020000
00000000
00031000
00000000
,  // measure 30
00002000
00000000
00103000
00000000
,  // measure 31
00200000
00000000
01300000
00000000
,  // measure 32
00100000
01000000
00010000
00000000
,  // measure 33
00002000
00000000
00013000
00000000
,  // measure 34
00020000
00000000
00030010
00000000
,  // measure 35
00000020
00000000
00000130
00000000
,  // measure 36
00000010
00000000
00000110
00000110
,  // measure 37
00001000
00001000
00001000
00001000
,  // measure 38
00010000
00010000
00000100
00001000
,  // measure 39
00000010
00000010
00000010
00000010
,  // measure 40
00000100
00000100
00000001
00001000
,  // measure 41
00000100
00000100
00000010
00000100
,  // measure 42
00010000
00010000
01000000
00010000
,  // measure 43
00001000
00001000
00100000
00001000
,  // measure 44
00010000
00010000
00010000
00000000
,  // measure 45
00100000
01000000
00100000
01000000
,  // measure 46
00100000
01000000
00010000
00001000
,  // measure 47
00000010
00000100
00000010
00000100
,  // measure 48
00000001
00000000
00001001
00000000
,  // measure 49
00000100
00000010
00000100
00000010
,  // measure 50
00000100
00000010
00001000
00010000
,  // measure 51
01000000
00100000
01000000
00100000
,  // measure 52
10000000
00000000
10010000
00000000
,  // measure 53
00010000
00000000
00010000
00000000
,  // measure 54
00010000
01000000
00100000
00000000
,  // measure 55
10000000
00000000
10000000
00000000
,  // measure 56
10000000
01000000
00100000
00000000
,  // measure 57
01000000
10000000
00100000
00000000
,  // measure 58
01000000
00010000
00100000
00000000
,  // measure 59
00001000
00001000
00010000
00001000
,  // measure 60
00020000
00000000
00000000
00030000
,  // measure 61
00001000
00010000
00000100
00010000
,  // measure 62
00001000
00000100
00000001
00000100
,  // measure 63
00000010
00001000
00000010
00010000
,  // measure 64
00001000
00100000
00001000
00011000
,  // measure 65
00010000
00001000
00100000
00001000
,  // measure 66
00010000
00100000
10000000
00100000
,  // measure 67
01000000
00010000
01000000
00001000
,  // measure 68
00010000
00000100
00010000
00011000
,  // measure 69
00001000
00001000
00001000
00001000
,  // measure 70
00010000
00010000
00000100
00001000
,  // measure 71
00000010
00000010
00000010
00000010
,  // measure 72
00000100
00000100
00000001
00001000
,  // measure 73
00000100
00000100
00000010
00000100
,  // measure 74
00010000
00010000
01000000
00010000
,  // measure 75
00000010
00000100
00000010
00000100
,  // measure 76
00001000
00001000
00010000
00001000
,  // measure 77
00011000
00000000
00000000
00000000
;

//---------------dance-double - ----------------
#NOTES:
     dance-double:
     :
     Hard:
     14:
     0.676189,0.707701,0.404401,0.045955,0.087314,515.000000,471.000000,44.000000,5.000000,0.000000,0.000000,0.676189,0.707701,0.404401,0.045955,0.087314,515.000000,471.000000,44.000000,5.000000,0.000000,0.000000:
// measure 0
00000000
00000000
00000000
00000000
,  // measure 1
00000000
00000000
00000000
00000000
,  // measure 2
00000000
00000000
00000000
00000000
,  // measure 3
00000000
00000000
00000000
00000000
,  // measure 4
00000000
00000000
00000000
00000000
,  // measure 5
00011000
00000000
00010000
00000000
01000000
00100000
01000000
00100000
,  // measure 6
00010000
10000000
00010000
01000000
10000000
01000000
00010000
00000000
,  // measure 7
00011000
00000000
00001000
00000000
00000010
00000100
00000010
00000100
,  // measure 8
00001000
00000001
00001000
00000010
00000001
00000010
00001000
00000000
,  // measure 9
00011000
00000000
00001000
00000000
01000000
00010000
00100000
00001000
,  // measure 10
00011000
00000000
00010000
00000000
00000100
00001000
00000010
00010000
,  // measure 11
00001000
00000010
00001000
00000010
00000001
00000100
00001000
00010000
,  // measure 12
00100000
01000000
00100000
01100000
,  // measure 13
10000000
00000000
00010000
00000000
00100000
00000000
00000000
00000000
01000000
00000000
00000000
01000000
00000000
00000000
00010000
00000000
,  // measure 14
00001000
00000000
00000100
00000000
00000001
00000000
00000000
00000000
00001000
00000000
00000000
00001000
00000000
00000000
00000010
00000000
,  // measure 15
00000100
00000000
00001000
00000000
00010000
00000000
00000000
00000000
01000000
00000000
00000000
01000000
00000000
00000000
10000000
00000000
,  // measure 16
01000000
00000000
00100000
00000000
00010000
00000000
00000000
00000000
00100000
00000000
00000000
00100000
00000000
00000000
00001000
00000000
,  // measure 17
00010000
00000000
00000010
00000000
00001000
00000000
00000000
00000000
00011000
00000000
00000000
00000010
00001000
00000000
00000001
00000000
,  // measure 18
00000010
00000000
00000100
00000000
00001000
00000000
00000000
00000000
00011000
00000000
00000000
00000100
00001000
00000000
00000001
00000000
,  // measure 19
00000100
00000000
00000010
00000000
00001000
00000000
00000000
00000000
00011000
00000000
00000000
00010000
01000000
00000000
00001000
00000000
,  // measure 20
00100000
00010000
00100000
00000000
00100000
10000000
00100000
00000000
,  // measure 21
00010000
00000000
00110000
00000000
00001000
00010000
00001000
01000000
,  // measure 22
00010000
01000000
00100000
10000000
01000000
00100000
01000000
00000000
,  // measure 23
00010000
00000000
00011000
00000000
00000100
00001000
00000010
00000100
,  // measure 24
00000001
00001000
00000010
00000100
00000010
00001000
00000100
00000000
,  // measure 25
00011000
00000000
00001000
00000000
00000010
00000100
00000010
00001000
,  // measure 26
00010000
00000000
00010000
00000000
01000000
00100000
01000000
00010000
,  // measure 27
00001000
00000100
00001000
00000100
00000001
00000010
00000001
00000010
,  // measure 28
00000100
00010000
00001000
00000000
00010000
00000000
00011000
00000000
,  // measure 29
00010000
01000000
10000000
00000000
01000000
00010000
00001000
00000000
,  // measure 30
00010000
00001000
00000100
00000000
00000001
00000100
00001000
00000000
,  // measure 31
00010000
00100000
10000000
00000000
00100000
00010000
00001000
00000000
,  // measure 32
00010000
00001000
00000010
00000100
00000010
00001000
00010000
00000000
,  // measure 33
00001000
00000010
00000001
00000000
00000010
00001000
00010000
00000000
,  // measure 34
00001000
00010000
00100000
00000000
10000000
00100000
00010000
00000000
,  // measure 35
00001000
00000100
00000001
00000000
00000100
00001000
00010000
00000000
,  // measure 36
02020000
03030000
11000000
11000000
,  // measure 37
00110000
00000000
00000000
00000000
00100000
00000000
01000000
00100000
01000000
00000000
10000000
00000000
00010000
00000000
01000000
00000000
,  // measure 38
00100000
01000000
10000000
00010000
00001000
00010000
00000100
00000000
,  // measure 39
00001100
00000000
00000000
00000000
00000100
00000000
00000010
00000100
00000010
00000000
00000001
00000000
00001000
00000000
00000010
00000000
,  // measure 40
00000100
00000010
00000001
00001000
00010000
00001000
00100000
00000000
,  // measure 41
00110000
00000000
00000000
00000000
00100000
00000000
01000000
00100000
01000000
00000000
00010000
00000000
00000100
00000000
00001000
00000000
,  // measure 42
00001010
00000000
00000000
00000000
00000010
00000000
00000100
00000010
00000100
00000000
00001000
00000000
01000000
00000000
00010000
00000000
,  // measure 43
00210000
01300000
12000000
03010000
,  // measure 44
00001000
00100000
00001000
00011000
,  // measure 45
00010000
00100000
00000000
10100000
00000000
01000000
00000000
00110000
,  // measure 46
00000000
00000000
01000000
00000000
00000000
00000000
00011000
00000000
00000000
00000000
00001000
00000010
00001000
00000000
00000010
00000000
,  // measure 47
00000001
00000010
00000000
00000110
00000000
00010000
00000000
00001100
,  // measure 48
00001000
00000100
00010000
00001000
00010000
00000010
00000100
00000000
,  // measure 49
00001000
00000100
00000000
00000101
00000000
00000010
00000000
00001100
,  // measure 50
00000000
00000000
00000010
00000000
00000000
00000000
00011000
00000000
00000000
00000000
00010000
01000000
00010000
00000000
01000000
00000000
,  // measure 51
10000000
01000000
00000000
01100000
00000000
00001000
00000000
00110000
,  // measure 52
00010000
00100000
00001000
00010000
01000000
10000000
00100000
00010000
,  // measure 53
00001000
00000000
00011000
00000000
01000000
00010000
01000000
00100000
,  // measure 54
00010000
00100000
01000000
10000000
01000000
00010000
10000000
01000000
,  // measure 55
00100000
00000000
00011000
00000000
00000010
00001000
00000010
00000100
,  // measure 56
00001000
00000100
00000010
00000001
00000010
00001000
00000001
00000000
,  // measure 57
00000010
00001000
00000010
00001000
00010000
01000000
00010000
01000000
,  // measure 58
10000000
00010000
10000000
00010000
01000000
00100000
01000000
00100000
,  // measure 59
00010000
00000000
00010000
00000000
10000000
00000000
10000000
00000000
01000000
00100000
01000000
00000000
00010000
00100000
01000000
00000000
,  // measure 60
20000000
00000000
00000000
30000000
,  // measure 61
00110000
00000000
00011000
00000000
01000000
00010000
01000000
00100000
,  // measure 62
10000000
01000000
10000000
00100000
01000000
00010000
00100000
00001000
,  // measure 63
00010000
00000000
00001100
00000000
00000001
00001000
00000010
00000100
,  // measure 64
00000001
00001000
00000100
00000001
00001000
00000010
00000001
00001000
,  // measure 65
00000001
00000000
00000101
00000000
00000010
00001000
00000010
00000100
,  // measure 66
00000001
00000010
00000001
00000100
00000010
00001000
00000100
00010000
,  // measure 67
00001000
00000000
00110000
00000000
10000000
00010000
01000000
00100000
,  // measure 68
10000000
00010000
00100000
10000000
00100000
00100000
00010000
00000000
,  // measure 69
00011000
00000000
00000000
00000000
00001000
00000000
00000010
00000100
00000010
00000000
00000100
00000000
00000010
00000000
00000100
00000000
,  // measure 70
00001000
00000001
00001000
00000010
00000001
00000010
00001000
00000000
,  // measure 71
00011000
00000000
00000000
00000000
00010000
00000000
01000000
00100000
01000000
00000000
00100000
00000000
01000000
00000000
00100000
00000000
,  // measure 72
00010000
10000000
00010000
01000000
10000000
01000000
00010000
00000000
,  // measure 73
00011000
00000000
00000000
00000000
00010000
00000000
00000010
00000100
00000010
00000000
00001000
00000000
00000100
00000000
00010000
00000000
,  // measure 74
00011000
00000000
00000000
00000000
00001000
00000000
00100000
01000000
00100000
00000000
00010000
00000000
01000000
00000000
00001000
00000000
,  // measure 75
00010000
01000000
00010000
01000000
10000000
00100000
10000000
00100000
,  // measure 76
00010000
00010000
00001000
00001000
00000010
00000001
00001000
00000001
,  // measure 77
00000110
00000000
00000000
00000000
;
