#VERSION:0.83;
#TITLE:Pumpkin Panic;
#SUBTITLE:-Nightmare Remix-;
#ARTIST:P*Light;
#TITLETRANSLIT:;
#SUBTITLETRANSLIT:;
#ARTISTTRANSLIT:;
#GENRE:J-Music;
#ORIGIN:;
#CREDIT:;
#BANNER:Pumpkin Panic -Nightmare Remix-.png;
#BACKGROUND:Pumpkin Panic -Nightmare Remix--bg.png;
#PREVIEWVID:;
#JACKET:Pumpkin Panic -Nightmare Remix--jacket.png;
#CDIMAGE:;
#DISCIMAGE:;
#LYRICSPATH:;
#CDTITLE:../cdtitle.png;
#MUSIC:Pumpkin Panic -Nightmare Remix-.ogg;
#OFFSET:0.816000;
#SAMPLESTART:45.338001;
#SAMPLELENGTH:15.000000;
#SELECTABLE:YES;
#BPMS:0.000=130.000,
36.000=260.000,
96.000=130.000,
98.000=520.000,
218.000=260.000,
222.000=520.000,
342.000=260.000,
346.000=520.000,
402.000=130.000,
404.000=520.000,
524.000=260.000,
528.000=520.000,
648.000=260.000,
652.000=130.000;
#STOPS:;
#DELAYS:;
#WARPS:;
#TIMESIGNATURES:0.000=4=4;
#TICKCOUNTS:0.000=4;
#COMBOS:0.000=1;
#SPEEDS:0.000=1.000=0.000=0;
#SCROLLS:0.000=1.000;
#FAKES:;
#LABELS:0.000=Song Start;
#BGCHANGES:-99.000=../bg.avi=1.000=0=0=1=====,
99999=-nosongbg-=1.000=0=0=0 // don't automatically add -songbackground-
;
#KEYSOUNDS:;
#ATTACKS:
;

//---------------dance-single - ----------------
#NOTEDATA:;
#CHARTNAME:;
#STEPSTYPE:dance-single;
#DESCRIPTION:;
#CHARTSTYLE:;
#DIFFICULTY:Medium;
#METER:13;
#RADARVALUES:0.625070,1.392555,0.190675,0.200711,0.000000,436.000000,417.000000,19.000000,20.000000,0.000000,0.000000,0.000000,0.000000,0.000000,0.625070,1.392555,0.190675,0.200711,0.000000,436.000000,417.000000,19.000000,20.000000,0.000000,0.000000,0.000000,0.000000,0.000000;
#CREDIT:led_light;
#NOTES:
0000
0000
0000
0000
,
0000
0000
0000
0000
,
0000
0000
0000
0000
,
0000
0000
0000
0000
,
0000
0000
0000
0000
,
0000
0000
0000
0000
,
0000
0000
0000
0000
,
0000
0000
0000
0000
,
0000
0000
0000
0000
,
1100
0000
0100
0000
0010
0000
0100
1000
,
0000
0100
1000
0000
0001
0000
0001
0100
,
0001
0000
0001
0000
1000
0000
0001
0100
,
0000
0001
0100
0000
0010
0100
0001
0000
,
0010
0000
0010
0000
0100
0000
0010
0001
,
0000
0010
0001
0000
1000
0000
1000
0010
,
1000
0000
1000
0000
0001
0000
1000
0010
,
0000
1000
0010
0000
0100
0010
1000
0000
,
0001
0000
0010
0000
1000
0010
0001
0000
,
1000
0000
0100
0000
0001
0100
1000
0000
,
0001
0000
0100
0000
1000
0100
0001
0000
,
1000
0000
0010
0000
0001
0010
1000
0000
,
0001
0100
0001
0000
1000
0100
1000
0000
,
0001
0010
0001
0000
1000
0010
1000
0000
,
0001
0010
0100
1000
0001
0010
0100
1000
,
0002
1003
0220
0330
1001
0000
0000
0000
,
0001
0000
0100
0000
,
0010
1000
0000
0100
,
1000
0000
0001
0000
,
1000
0000
0100
0000
,
0010
0000
0001
0000
,
1000
0100
0000
0010
,
0001
0000
0100
0001
,
0100
0000
0001
0000
,
1000
0000
0010
0000
,
0100
0010
0000
1000
,
0001
0000
0100
0000
,
0001
0000
0010
0000
,
0010
0000
0100
1000
,
0000
0110
0000
1000
,
0010
0000
2000
0000
,
0000
0000
3001
0000
,
0100
0000
0010
1000
,
0010
0000
0100
0000
,
0001
0000
1000
0000
,
0001
0100
0001
0000
,
1000
0000
0100
0000
,
0010
0000
0001
1000
,
0001
0000
0100
0000
,
0010
0000
1000
0000
,
0001
0000
0010
0100
,
0010
0000
0001
0000
,
1000
0000
0100
0010
,
0100
0000
1000
0001
,
1000
0001
1000
0001
,
1000
0001
0000
0000
,
0000
0000
1001
0000
,
0001
0000
0100
0010
,
1000
0000
0001
0000
,
0100
0000
0010
0000
,
1000
0100
0010
0000
,
0001
0000
1000
0000
,
0100
0000
0010
0001
,
0010
0000
0001
1000
,
0001
0000
1000
0000
,
0100
0000
1000
0010
,
0100
0000
0001
0000
,
1000
0000
0010
0000
,
0100
0010
1000
0000
,
0100
0000
0010
0001
,
0000
1001
0000
1000
,
0010
0000
0200
0000
,
0000
0000
0301
0000
,
1000
0000
0010
0100
,
0010
0000
1000
0000
,
0001
0000
1000
0000
,
0100
0010
0100
0000
,
1000
0000
0100
0000
,
0010
0000
0001
1000
,
0001
0000
0200
0000
,
0320
0000
1030
0010
,
1000
0000
0010
0000
,
0100
0000
0001
0100
,
0001
0000
0100
0000
,
0010
0000
1000
0000
,
1000
0000
0010
0100
,
0001
1000
0000
0000
,
0000
0000
1001
0000
,
0000
1200
0000
0000
,
0310
0000
0011
0000
,
0000
0210
0000
0000
,
1300
0000
1001
0000
,
0000
1020
0000
0000
,
0130
0000
0101
0000
,
0000
0120
0000
0000
,
1030
0000
0010
0000
,
0010
0000
0100
0000
,
0100
0000
0001
0000
,
0001
0000
1000
0000
,
1000
0000
0100
0010
,
0100
0010
0001
1000
,
0001
0000
1000
0000
0002
1003
0220
0330
,
1000
0000
0001
0000
,
0100
0010
0100
0000
,
0010
0000
1000
0000
,
0001
0000
0100
0010
,
1000
0000
0001
0000
,
0010
0000
0100
0000
,
1000
0100
1000
0000
,
0001
0000
0010
0000
,
0001
0000
1000
0000
,
0010
0100
0010
0000
,
0100
0000
0001
0000
,
1000
0000
0010
0100
,
0001
0000
1000
0000
,
0100
0010
0000
0110
,
0000
0001
1000
0000
,
0002
0000
0000
0000
,
1003
0000
0010
0000
,
1000
0000
0010
0000
,
0001
0000
0010
0000
,
0001
0000
0010
1000
,
0010
0000
0100
0000
,
0010
0000
0100
0000
,
0001
1000
0001
0000
,
0100
0000
0010
0000
,
1000
0100
1000
0000
,
0100
0000
0001
0000
,
1000
0010
1000
0000
,
0010
0000
0001
0000
,
0010
0100
0010
0100
,
1000
0001
1000
0001
,
0000
0000
0000
0000
,
1001
0000
0001
0000
,
0010
0000
1000
0010
,
0000
0001
0010
0000
,
0100
0000
1000
0001
,
1000
0000
0010
0000
,
0001
0000
0010
1000
,
0000
0010
0100
0000
,
0001
1000
0001
0000
,
0100
0000
0001
0000
,
1000
0000
0100
0010
,
0000
0100
1000
0000
,
0001
0000
1000
0100
,
1000
0000
0001
0000
,
0010
0100
1000
1100
,
0000
0100
0010
0000
,
0002
0000
0000
0000
,
1003
0000
0100
0000
,
0001
0100
0001
0000
,
0100
0000
1000
0000
,
0001
0000
1000
0010
,
1000
0000
0010
0000
,
0001
0000
0010
0000
,
1000
0010
1000
0010
,
0200
0000
0320
0000
,
1030
0100
1000
0000
,
0001
0100
0001
0000
,
1000
0010
1000
0000
,
0001
0010
0001
0000
,
1000
0010
0100
0001
,
0100
0010
1000
0001
,
0000
0010
0100
0000
1000
0000
0001
0000
,
2002
3003
0000
0000
;

//---------------dance-single - ----------------
#NOTEDATA:;
#CHARTNAME:;
#STEPSTYPE:dance-single;
#DESCRIPTION:;
#CHARTSTYLE:;
#DIFFICULTY:Beginner;
#METER:6;
#RADARVALUES:0.219348,0.409575,0.070249,0.080284,0.000000,153.000000,146.000000,7.000000,8.000000,0.000000,0.000000,0.000000,0.000000,0.000000,0.219348,0.409575,0.070249,0.080284,0.000000,153.000000,146.000000,7.000000,8.000000,0.000000,0.000000,0.000000,0.000000,0.000000;
#CREDIT:led_light;
#NOTES:
0000
0000
0000
0000
,
0000
0000
0000
0000
,
0000
0000
0000
0000
,
0000
0000
0000
0000
,
0000
0000
0000
0000
,
0000
0000
0000
0000
,
0000
0000
0000
0000
,
0000
0000
0000
0000
,
0000
0000
0000
0000
,
0100
0000
0100
0000
,
0000
0000
0100
0000
,
1000
0000
1000
0000
,
0000
0000
1000
0000
,
0010
0000
0010
0000
,
0000
0000
0010
0000
,
0001
0000
0001
0000
,
0000
0000
0001
0000
,
0100
0000
0100
0000
,
0010
0000
0010
0000
,
0100
0000
0100
0000
,
0010
0000
0010
0000
,
1000
0000
0001
0000
,
1000
0000
0001
0000
,
2000
0000
0000
0000
,
3000
0000
1001
0000
,
0000
0000
0100
0000
,
0000
0000
0001
0000
,
0000
0000
1000
0000
,
0000
0000
0001
0000
,
0000
0000
0100
0000
,
0000
0000
1000
0000
,
0000
0000
0000
0000
,
0000
0000
0001
0000
,
0000
0000
0010
0000
,
0000
0000
1000
0000
,
0000
0000
0001
0000
,
0000
0000
1000
0000
,
0000
0000
0010
0000
,
0000
0000
0001
0000
,
0000
0000
0000
0000
,
0000
0000
0001
0000
,
0000
0000
0001
0000
,
0000
0000
0100
0000
,
0000
0000
0001
0000
,
0000
0000
0010
0000
,
0000
0000
0010
0000
,
0000
0000
0100
0000
,
0000
0000
0010
0000
,
0000
0000
0001
0000
,
0000
0000
0001
0000
,
0000
0000
1000
0000
,
0000
0000
0001
0000
,
0000
0000
2000
0000
,
0000
0000
0000
0000
,
0000
0000
3000
0000
,
0000
0000
0001
0000
,
0000
0000
0001
0000
,
0000
0000
0001
0000
,
0000
0000
0100
0000
,
0000
0000
1000
0000
,
0000
0000
1000
0000
,
0000
0000
1000
0000
,
0000
0000
0100
0000
,
0000
0000
0010
0000
,
0000
0000
0010
0000
,
0000
0000
0010
0000
,
0000
0000
1000
0000
,
0000
0000
0100
0000
,
0000
0000
0100
0000
,
0000
0000
1000
0000
,
0000
0000
0000
0000
,
0000
0000
0001
0000
,
0000
0000
0100
0000
,
0000
0000
0001
0000
,
0000
0000
0100
0000
,
0000
0000
0010
0000
,
0000
0000
1000
0000
,
0000
0000
0010
0000
,
0000
0000
1000
0000
,
0000
0000
0100
0000
,
0000
0000
0010
0000
,
0000
0000
0100
0000
,
0000
0000
0010
0000
,
0000
0000
0200
0000
,
0000
0000
0000
0000
,
0000
0000
0300
0000
,
0000
0000
1001
0000
,
0000
0000
0000
0000
,
0000
0000
1001
0000
,
0000
0000
0000
0000
,
0000
0000
0110
0000
,
0000
0000
0000
0000
,
0000
0000
0110
0000
,
0000
0000
0000
0000
,
0000
0000
0001
0000
,
0000
0000
1000
0000
,
0000
0000
0001
0000
,
0000
0000
1000
0000
,
0000
0000
0020
0000
,
0000
0000
0000
0000
,
0000
0000
0030
0000
,
1001
0000
0000
0000
,
0010
0000
0000
0000
,
1000
0000
0000
0000
,
0100
0000
0000
0000
,
1000
0000
0000
0000
,
0010
0000
0000
0000
,
0001
0000
0000
0000
,
0001
0000
0000
0000
,
1000
0000
0000
0000
,
0100
0000
0000
0000
,
0001
0000
0000
0000
,
0010
0000
0000
0000
,
0001
0000
0000
0000
,
0100
0000
0000
0000
,
1000
0000
0000
0000
,
0000
0000
0000
0000
,
1000
0000
0000
0000
,
1000
0000
0000
0000
,
0100
0000
0000
0000
,
1000
0000
0000
0000
,
0010
0000
0000
0000
,
0010
0000
0000
0000
,
0100
0000
0000
0000
,
0010
0000
0000
0000
,
1000
0000
0000
0000
,
1000
0000
0000
0000
,
0001
0000
0000
0000
,
1000
0000
0000
0000
,
0002
0000
0000
0000
,
0000
0000
0000
0000
,
0003
0000
0000
0000
,
1000
0000
0000
0000
,
1000
0000
0000
0000
,
1000
0000
0000
0000
,
0100
0000
0000
0000
,
0001
0000
0000
0000
,
0001
0000
0000
0000
,
0001
0000
0000
0000
,
0100
0000
0000
0000
,
0010
0000
0000
0000
,
0010
0000
0000
0000
,
0010
0000
0000
0000
,
0001
0000
0000
0000
,
0100
0000
0000
0000
,
0100
0000
0000
0000
,
0001
0000
0000
0000
,
0000
0000
0000
0000
,
1000
0000
0000
0000
,
0100
0000
0000
0000
,
1000
0000
0000
0000
,
0100
0000
0000
0000
,
0010
0000
0000
0000
,
0001
0000
0000
0000
,
0010
0000
0000
0000
,
0001
0000
0000
0000
,
0100
0000
0000
0000
,
0010
0000
0000
0000
,
0100
0000
0000
0000
,
0010
0000
0000
0000
,
0200
0000
0000
0000
,
0000
0000
0000
0000
,
0300
0000
0000
0000
,
2002
3003
0000
0000
;

//---------------dance-single - ----------------
#NOTEDATA:;
#CHARTNAME:;
#STEPSTYPE:dance-single;
#DESCRIPTION:;
#CHARTSTYLE:;
#DIFFICULTY:Easy;
#METER:10;
#RADARVALUES:0.458767,0.737235,0.110391,0.120426,0.000000,320.000000,309.000000,11.000000,12.000000,0.000000,0.000000,0.000000,0.000000,0.000000,0.458767,0.737235,0.110391,0.120426,0.000000,320.000000,309.000000,11.000000,12.000000,0.000000,0.000000,0.000000,0.000000,0.000000;
#CREDIT:led_light;
#NOTES:
0000
0000
0000
0000
,
0000
0000
0000
0000
,
0000
0000
0000
0000
,
0000
0000
0000
0000
,
0000
0000
0000
0000
,
0000
0000
0000
0000
,
0000
0000
0000
0000
,
0000
0000
0000
0000
,
0000
0000
0000
0000
,
1001
0000
0100
0000
,
0000
0001
0100
0000
,
0010
0000
0010
0000
,
0000
1000
0100
0000
,
1000
0000
1000
0000
,
0000
0100
0010
0000
,
0001
0000
0001
0000
,
0000
1000
0001
0000
,
1000
0010
1000
0000
,
0010
0001
0010
0000
,
0001
0100
0001
0000
,
0100
1000
0100
0000
,
1000
1000
0001
0001
,
1000
1000
0001
0001
,
2000
0000
0002
0000
,
3003
0000
1000
0000
,
0001
0000
0100
0000
,
0001
0000
1000
0000
,
0001
0000
0100
0000
,
0001
0000
1000
0000
,
0100
0000
1000
0000
,
0001
0000
1000
0000
,
0100
0000
0010
0000
,
0001
0000
1000
0000
,
0010
0000
0100
0000
,
0010
0000
1000
0000
,
0010
0000
0100
0000
,
0010
0000
1000
0000
,
0001
0000
0010
0000
,
0000
0110
0000
0000
,
0100
0000
2000
0000
,
0000
0000
3001
0000
,
0100
0000
0001
0000
,
0100
0000
0010
0000
,
1000
0000
0010
0000
,
1000
0000
0001
0000
,
0010
0000
0001
0000
,
0010
0000
0100
0000
,
1000
0000
0100
0000
,
1000
0000
0001
0000
,
0001
0000
0100
0000
,
0010
0000
1000
0000
,
1000
0000
0100
0000
,
0010
0000
0001
0000
,
0001
0000
1000
0000
,
0001
1000
0000
0000
,
0000
0000
1000
0000
,
0010
0000
0001
0000
,
0010
0000
1000
0000
,
0010
0000
0001
0000
,
0010
0000
1000
0000
,
0100
0000
0001
0000
,
0100
0000
1000
0000
,
0100
0000
0020
0000
,
0000
0000
0031
0000
,
0010
0000
1000
0000
,
0010
0000
0001
0000
,
0010
0000
1000
0000
,
0010
0000
0001
0000
,
1000
0000
0001
0000
,
0000
0101
0000
0000
,
1000
0000
0020
0000
,
0000
0000
0130
0000
,
0001
0000
0100
0000
,
0001
0000
1000
0000
,
0100
0000
1000
0000
,
0100
0000
0010
0000
,
0001
0000
0010
0000
,
0001
0000
1000
0000
,
0010
0000
1000
0000
,
0010
0000
0100
0000
,
0100
0000
0001
0000
,
1000
0000
0100
0000
,
0100
0000
1000
0000
,
0001
0000
0100
0000
,
0010
0000
1000
0000
,
0001
1000
0000
0000
,
0000
0000
0010
0000
,
0000
0101
0000
0000
,
0000
0000
0001
0000
,
0000
1100
0000
0000
,
0000
0000
0100
0000
,
0000
0011
0000
0000
,
0000
0000
0001
0000
,
0000
1010
0000
0000
,
0000
0000
0010
0000
,
0010
0000
0100
0000
,
0100
0000
0001
0000
,
0001
0000
1000
0000
,
1000
0000
0100
0010
,
0100
0000
0010
0100
,
0010
0000
0002
1003
,
1001
0000
0001
0000
,
0100
0000
0010
0000
,
1000
0000
0001
0000
,
0100
0000
0010
0000
,
1000
0000
0100
0000
,
0010
0000
0001
0000
,
1000
0100
1000
0000
,
0100
0000
0010
0000
,
0001
0000
1000
0000
,
0010
0000
0100
0000
,
0010
0000
1000
0000
,
0001
0000
0100
0000
,
0010
0000
1000
0000
,
0001
0000
0000
1100
,
0000
0100
0010
0000
,
0002
0000
0000
0000
,
1003
0000
0010
0000
,
0100
0000
0001
0000
,
1000
0000
0001
0000
,
0100
0000
0010
1000
,
0010
0000
1000
0000
,
0100
0000
1000
0000
,
0001
0100
0001
0000
,
0010
0000
0100
0000
,
1000
0000
1000
0000
,
0100
0000
0010
0000
,
0001
0000
0001
0000
,
0100
0000
0010
0000
,
1000
0100
1000
0000
,
0001
0000
1000
0010
,
0000
0000
0000
0000
,
0010
0000
0010
0000
,
0001
0000
0010
0000
,
1000
0000
0010
0000
,
0100
0000
0001
0100
,
0001
0000
1000
0000
,
0010
0000
0001
0000
,
0010
0000
1000
0000
,
0002
0000
0000
0000
,
0013
0000
0010
0000
,
1000
0000
0010
0000
,
0001
0000
0010
0000
,
0100
0000
1000
0100
,
1000
0000
0001
0000
,
0010
0000
0000
0110
,
0000
0100
1000
0000
,
0002
0000
0000
0000
,
1003
0000
0010
0000
,
1000
0000
0010
0000
,
0100
0000
0001
0000
,
0100
0000
0001
1000
,
0001
0000
0010
0000
,
0001
0000
0010
0000
,
0100
1000
0001
0000
,
2000
0000
0000
0000
,
3001
0000
0001
0000
,
0100
0000
0001
0000
,
0010
0000
0010
0000
,
1000
0000
0010
0000
,
0001
0000
0001
0000
,
1000
0000
0001
0010
,
0000
0100
1000
0001
,
2002
3003
0000
0000
;

//---------------dance-single - ----------------
#NOTEDATA:;
#CHARTNAME:;
#STEPSTYPE:dance-single;
#DESCRIPTION:;
#CHARTSTYLE:;
#DIFFICULTY:Hard;
#METER:15;
#RADARVALUES:0.858754,1.474470,0.521847,0.361279,0.000000,599.000000,547.000000,52.000000,36.000000,0.000000,0.000000,0.000000,0.000000,0.000000,0.858754,1.474470,0.521847,0.361279,0.000000,599.000000,547.000000,52.000000,36.000000,0.000000,0.000000,0.000000,0.000000,0.000000;
#CREDIT:led_light;
#NOTES:
0000
0000
0000
0000
,
0000
0000
0000
0000
,
0000
0000
0000
0000
,
0000
0000
0000
0000
,
0000
0000
0000
0000
,
0000
0000
0000
0000
,
0000
0000
0000
0000
,
0000
0000
0000
0000
,
0000
0000
0000
0000
,
0110
0000
0100
0000
0100
0000
1000
0100
,
0000
0010
0001
0010
0001
0000
1000
0100
,
0010
0000
0100
0000
1000
0010
1000
0010
,
0000
0100
0001
1000
0001
0000
0100
0000
,
0010
0000
1000
0000
1000
0000
0001
0100
,
0000
0010
0100
0010
0100
0000
0010
1000
,
0001
0000
0100
0000
0001
0010
0001
0010
,
0000
0100
1000
0100
0010
0000
0001
0000
,
1000
0000
0010
0000
0001
0010
0001
0010
,
1000
0000
0010
0000
0100
0001
0100
0001
,
1000
0000
0100
0000
0001
0100
0001
0100
,
1000
0000
0100
0000
0010
0001
0010
0001
,
1000
0010
1000
0010
0100
0010
0100
0010
,
0100
0001
0100
0001
0010
0100
0010
0100
,
1000
0001
1000
0001
1000
0001
1000
0001
,
2000
3001
0220
0330
1001
0000
0000
0000
,
1001
0000
0001
0100
,
0001
0100
0010
1000
,
0010
1000
0001
0100
,
0010
1000
0001
0000
,
1001
0000
0001
0010
,
0001
0010
0000
0100
,
1000
0100
0010
0000
,
0001
0000
0011
0000
,
0011
0000
0001
0010
,
0001
0000
0010
0100
,
0010
0100
1000
0000
,
0100
0000
1001
0000
,
1000
0000
0010
0100
,
0010
1000
0000
0001
,
0010
0000
0220
0000
,
0330
0000
0011
0000
,
0011
0000
0001
1000
,
0001
0000
1000
0010
,
1000
0010
0100
0000
,
0100
0010
1000
0000
,
1001
0000
0001
0000
,
1100
0000
1000
0100
,
1000
0100
1000
0000
,
0001
0000
0100
0001
,
0100
0001
1000
0001
,
1000
0001
1000
0100
,
1000
0100
0010
0001
,
0010
0001
0100
0010
,
0100
0010
0100
0010
,
0100
0000
0010
0000
0000
0010
0100
0001
,
1000
0010
0110
0000
,
0110
0000
0010
1000
,
0010
1000
0001
0100
,
0001
0100
0001
1000
,
0100
0010
0100
0000
,
0110
0000
0010
0001
,
0010
0000
0001
1000
,
0100
1000
0002
0023
,
0230
2300
3001
0000
,
1001
0000
1000
0001
,
0100
0000
0001
1000
,
0010
0100
0010
0100
,
0001
0000
1001
0000
,
0100
0000
0110
0010
,
1000
0010
0000
0001
,
0010
0000
0220
0000
,
0330
0000
1100
0000
,
1100
0000
0001
0100
,
0001
0000
0100
0010
,
0100
0010
1000
0000
,
0001
0100
0001
0000
,
1100
0000
1000
0000
,
1001
0000
0001
0010
,
0001
0010
0002
0203
,
0320
2030
3001
1000
,
0001
1000
0001
0100
,
0001
0100
0001
1000
,
0001
1000
0100
0010
,
0100
0010
0001
1000
,
0001
1000
0001
1000
,
0001
0000
1000
0000
0000
0100
0010
0001
,
1000
0001
0110
0000
,
0001
2000
0000
0000
,
3100
0000
1010
0000
,
1000
1200
0000
0000
,
0310
0000
0110
0000
,
0010
0021
0000
0000
,
0130
0000
1000
0010
,
0000
1020
0000
0000
,
0130
0000
0001
0000
,
0001
0000
1000
0000
,
1000
0000
0010
0000
,
0010
0000
0100
0000
,
0100
0000
0001
0100
,
0001
0100
0010
1000
,
0100
0000
0010
0000
0002
1003
0220
0330
,
1001
0000
1001
0000
,
0001
0010
0001
0010
,
0100
1000
0100
1000
,
0100
0010
0001
1000
,
0001
0000
1001
0000
,
0001
0100
0001
0100
,
0010
1000
0010
0100
,
0001
1000
0001
0100
,
0010
0000
1001
0000
,
0001
0010
0001
1000
,
0100
0010
0100
0010
,
0001
0010
0100
1000
,
1100
0000
1000
0000
,
0011
0001
1000
0001
,
0000
1000
0001
0100
,
0220
0000
0330
0000
,
0101
0000
0101
0000
,
0001
1000
0001
0100
,
0010
1000
0010
1000
,
0010
0100
0001
0010
,
0100
0000
0110
0000
,
0100
0010
0001
1000
,
0001
1000
0010
0001
,
0010
1000
0001
0000
,
0010
0001
0010
0001
,
1000
0001
1000
0001
,
1000
0010
1000
0010
,
0100
0001
0100
0001
,
0010
0100
0010
0100
,
0010
0100
0010
0100
,
0000
0100
0010
0001
1000
0100
0010
0000
,
0110
0000
0110
0000
,
0100
1000
0100
1000
,
0001
0010
0001
0010
,
0100
1000
0001
0100
,
0010
0000
0110
0000
,
0100
0010
0100
0010
,
1000
0001
0100
0010
,
2000
3200
0320
0032
,
1003
0000
1001
0000
,
0001
1000
0010
0100
,
0001
1000
0001
1000
,
0001
0100
0010
1000
,
1001
0000
0010
0000
,
0110
0100
1000
0100
,
0000
0001
0100
0010
,
0220
0000
0330
0000
,
1010
0000
1010
0000
,
0010
0100
0001
1000
,
0100
0010
0100
0010
,
1000
0010
0001
1000
,
0100
0000
1001
0000
,
0001
0100
0010
1000
,
0001
0010
0001
0010
,
0200
2300
3200
0320
,
0031
1000
0001
1000
,
0001
0010
0001
0010
,
0001
1000
0001
1000
,
0010
0100
0010
0100
,
0001
1000
0001
1000
,
0001
1000
0001
1000
,
0000
0010
0100
0001
1000
0001
0010
0000
,
0220
0330
0000
0000
;

//---------------dance-single - ----------------
#NOTEDATA:;
#CHARTNAME:;
#STEPSTYPE:dance-single;
#DESCRIPTION:;
#CHARTSTYLE:;
#DIFFICULTY:Challenge;
#METER:18;
#RADARVALUES:0.993517,2.293619,0.582060,0.200711,0.060213,693.000000,635.000000,58.000000,20.000000,0.000000,0.000000,0.000000,0.000000,0.000000,0.993517,2.293619,0.582060,0.200711,0.060213,693.000000,635.000000,58.000000,20.000000,0.000000,0.000000,0.000000,0.000000,0.000000;
#CREDIT:led_light;
#NOTES:
0000
0000
0000
0000
,
0000
0000
0000
0000
,
0000
0000
0000
0000
,
0000
0000
0000
0000
,
0000
0000
0000
0000
,
0000
0000
0000
0000
,
0000
0000
0000
0000
,
0000
0000
0000
0000
,
0000
0000
0000
0000
,
0011
0000
0010
0000
0010
0100
1000
0001
,
0000
1000
0100
0010
0001
0100
0010
1000
,
0001
0000
0001
0000
0001
1000
0010
0100
,
0000
0010
1000
0001
0100
1000
0001
0010
,
1000
0000
1000
0000
1000
0001
0100
0010
,
0000
0100
0001
1000
0010
0001
1000
0100
,
0010
0000
0010
0000
0010
0100
0001
1000
,
0000
0001
0100
0010
1000
0100
0010
0001
,
1000
0000
0100
0000
0001
0010
0001
0100
,
0001
0000
0100
0000
1000
0100
1000
0010
,
1000
0000
0010
0000
0001
0100
0001
0010
,
0001
0000
0010
0000
1000
0100
1000
0010
,
0100
0001
0100
0001
0100
0010
0100
0010
,
1000
0100
1000
0100
0010
0100
0010
0100
,
1000
0001
1000
0001
1000
0001
1000
0001
1000
0001
1000
0001
1000
0001
1000
0001
,
2000
3002
0103
0010
0220
0000
0330
0000
1001
0000
0000
0000
0000
0000
0000
0000
,
0011
0000
1000
0100
,
1000
0001
0100
0010
,
1000
0001
0100
0001
,
0100
0010
1000
0000
,
1001
0000
0100
1000
,
0100
0010
0001
0010
,
0001
0010
1000
0001
,
1000
0010
0001
0000
,
1001
0000
0100
0010
,
1000
0001
0100
0010
,
0100
0001
0010
0100
,
1000
0100
0110
0000
,
1000
0000
0101
0100
,
0010
1000
0000
0001
,
0100
0010
0220
0000
,
0330
0000
1100
0000
,
1100
0000
0001
0100
,
0001
0100
1000
0100
,
0001
1000
0010
0100
,
0001
1000
0001
0000
,
0110
0000
1000
0010
,
1000
0001
0100
0010
,
1000
0001
0010
0001
,
1000
0001
1000
0100
,
1000
0001
0010
0001
,
0010
0100
1000
0010
,
1000
0001
0100
0001
,
0100
0000
0010
0000
1000
0100
1000
0100
,
1000
0100
1000
0100
0010
0100
0010
0100
,
0010
0001
0010
0001
0000
1000
0100
0010
,
0001
0100
0010
1000
1001
0000
0000
0000
,
1100
0000
0001
0010
,
0001
1000
0010
0100
,
0001
1000
0010
1000
,
0010
0100
0001
0000
,
1001
0000
0010
1000
,
0001
1000
0100
1000
,
0100
0000
0010
0000
0001
0100
0001
0100
,
0001
0100
0001
0100
0001
0000
0000
0000
,
0110
0000
1000
0001
,
0100
0001
0010
0100
,
0010
0100
1000
0100
,
0010
0001
1001
0000
,
0100
0000
0011
0001
,
1000
0010
0000
0100
,
0001
1000
2002
0000
,
3003
0000
1100
0000
,
1100
0000
0001
0100
,
0001
0100
0010
1000
,
0001
1000
0010
0100
,
0001
0010
0011
0000
,
1100
0000
1000
0001
,
0100
0001
1000
0010
,
0001
0000
0010
0000
1000
0010
1000
0010
,
1000
0010
1000
0010
1000
0000
0001
0000
,
1000
0001
0010
0100
,
0010
0100
1000
0100
,
1000
0100
0010
0001
,
0010
0001
1000
0001
,
1000
0000
0001
0000
0100
0010
0100
0010
,
0100
0010
0100
0010
0000
0100
0001
1000
,
0001
0100
0010
1000
1001
0000
0000
0000
,
0100
2100
0000
0000
,
3001
0000
0011
0000
,
1000
1020
0000
0000
,
0130
0000
0101
0000
,
0010
0021
0000
0000
,
1030
0000
0011
0001
,
0000
2100
0000
0000
,
3010
0000
1000
0000
,
1100
0000
0100
0000
,
0101
0000
0001
0000
,
0011
0000
0010
0000
,
1010
0000
1000
0100
,
1000
0100
0010
0001
,
0010
0000
0000
0000
0001
0000
0000
0000
1000
0001
0100
0010
0220
0000
0330
0000
,
1001
0000
0011
0000
,
1000
0100
1000
0001
,
0100
0001
0100
0010
,
1000
0001
1000
0001
,
0010
0000
1100
0000
,
0100
1000
0100
0010
,
0001
1000
0001
0010
,
1000
0001
0100
1000
,
0001
0000
1001
0000
,
1000
0100
0010
0001
,
0010
0100
0010
0100
,
1000
0001
0100
0010
,
0110
0000
1000
0000
,
0011
0010
0100
1000
,
0000
0001
0100
0010
,
0220
0000
0330
0000
,
1010
0000
1010
0000
,
0001
0010
0100
1000
,
0100
0001
0100
1000
,
0001
0010
0100
0010
,
0100
0000
1100
0000
,
0100
0010
0001
1000
,
0100
0010
0100
0010
,
0001
0100
1000
0100
,
0010
1000
0010
1000
,
0100
0010
0100
0010
,
0100
1000
0100
1000
,
0001
0100
0001
0100
,
0010
0100
0010
0100
0010
0100
0010
0100
,
0001
1000
0001
1000
0001
1000
0001
1000
,
0000
0100
1000
0100
0001
0100
1000
0001
,
1001
0000
0101
0000
,
1000
0010
1000
0001
,
0010
0100
1000
0001
,
0010
0001
0010
0100
,
1000
0000
1001
0000
,
0010
0001
1000
0001
,
0100
0001
0100
0010
,
1000
0100
1000
0100
1000
0100
1000
0100
,
1000
0000
0110
0000
,
0001
1000
0100
1000
,
0010
0100
0010
0100
,
0001
0100
0010
1000
,
1001
0000
0100
0000
,
1010
1000
0001
0010
,
0000
0100
1000
0001
,
2002
0000
3003
0000
,
0101
0000
0101
0000
,
1000
0100
1000
0100
,
0010
0001
1000
0001
,
0010
0100
1000
0010
,
1010
0000
0101
0000
,
0001
1000
0100
1000
,
0001
0010
1000
0010
,
0001
0010
0001
0010
0001
0010
0001
0010
,
0001
1000
0001
1000
,
0010
0100
0010
0100
,
0001
0100
0001
0100
,
0010
1000
0010
1000
,
0001
1000
0001
1000
,
0100
0010
0100
0010
0100
0010
0100
0010
,
0000
0100
1000
0001
1000
0100
0010
0001
,
2002
3003
0000
0000
;

//---------------dance-double - ----------------
#NOTEDATA:;
#CHARTNAME:;
#STEPSTYPE:dance-double;
#DESCRIPTION:;
#CHARTSTYLE:;
#DIFFICULTY:Challenge;
#METER:18;
#RADARVALUES:0.986349,2.293619,0.531883,0.200711,0.060213,688.000000,635.000000,53.000000,20.000000,0.000000,0.000000,0.000000,0.000000,0.000000,0.986349,2.293619,0.531883,0.200711,0.060213,688.000000,635.000000,53.000000,20.000000,0.000000,0.000000,0.000000,0.000000,0.000000;
#CREDIT:led_light;
#NOTES:
// measure 0
00000000
00000000
00000000
00000000
,  // measure 1
00000000
00000000
00000000
00000000
,  // measure 2
00000000
00000000
00000000
00000000
,  // measure 3
00000000
00000000
00000000
00000000
,  // measure 4
00000000
00000000
00000000
00000000
,  // measure 5
00000000
00000000
00000000
00000000
,  // measure 6
00000000
00000000
00000000
00000000
,  // measure 7
00000000
00000000
00000000
00000000
,  // measure 8
00000000
00000000
00000000
00000000
,  // measure 9
00001000
00000000
00001000
00000000
00001000
00010000
01000000
10000000
,  // measure 10
00000000
01000000
00100000
00010000
00100000
00001000
00010000
00001000
,  // measure 11
00010000
00000000
00010000
00000000
00000010
00000100
00000010
00001000
,  // measure 12
00000000
00000001
00000100
00000010
00001000
00000100
00010000
00001000
,  // measure 13
00010000
00000000
00010000
00000000
00010000
00001000
00000010
00000001
,  // measure 14
00000000
00000010
00000100
00001000
00000100
00010000
00001000
00010000
,  // measure 15
00001000
00000000
00001000
00000000
01000000
00100000
01000000
00010000
,  // measure 16
00000000
10000000
00100000
01000000
00010000
00100000
00001000
00010000
,  // measure 17
01000000
00000000
01100000
00000000
10000000
00100000
00010000
00001000
,  // measure 18
00000100
00000000
00000110
00000000
00000001
00000010
00001000
00010000
,  // measure 19
00100000
00000000
01100000
00000000
10000000
01000000
00010000
00001000
,  // measure 20
00000010
00000000
00000110
00000000
00000001
00000100
00001000
00010000
,  // measure 21
00100000
01000000
00100000
01000000
10000000
00010000
10000000
00010000
,  // measure 22
00100000
10000000
00100000
10000000
00010000
01000000
00010000
01000000
,  // measure 23
00001000
00010000
00001000
00010000
00001000
00010000
00001000
00010000
00001000
00010000
00001000
00010000
00001000
00010000
00001000
00010000
,  // measure 24
00002000
00023000
00030100
00000010
00000220
00000000
00000330
00000000
00000110
00000000
00000000
00000000
00000000
00000000
00000000
00000000
,  // measure 25
00001001
00000000
00000001
00001000
,  // measure 26
00000010
00000100
00000001
00000100
,  // measure 27
00001000
00000100
00000010
00010000
,  // measure 28
00001000
00100000
00010000
00000000
,  // measure 29
00011000
00000000
00100000
00001000
,  // measure 30
01000000
00010000
10000000
00100000
,  // measure 31
10000000
01000000
00100000
00010000
,  // measure 32
00100000
01000000
10000000
00000000
,  // measure 33
01100000
00000000
00010000
00100000
,  // measure 34
01000000
10000000
00010000
01000000
,  // measure 35
00010000
01000000
00100000
00010000
,  // measure 36
00001000
00010000
00011000
00000000
,  // measure 37
00000010
00000000
00011000
00010000
,  // measure 38
00000100
00001000
00000000
00000001
,  // measure 39
00000100
00000010
00000220
00000000
,  // measure 40
00000330
00000000
00001100
00000000
,  // measure 41
00001100
00000000
00000001
00000100
,  // measure 42
00000001
00001000
00000010
00000100
,  // measure 43
00000010
00000100
00001000
00010000
,  // measure 44
00100000
01000000
00100000
00000000
,  // measure 45
11000000
00000000
00100000
01000000
,  // measure 46
00010000
10000000
00010000
01000000
,  // measure 47
00010000
01000000
00100000
01000000
,  // measure 48
10000000
01000000
00100000
01000000
,  // measure 49
00100000
01000000
00010000
00100000
,  // measure 50
00010000
00100000
01000000
10000000
,  // measure 51
01000000
10000000
01000000
00010000
,  // measure 52
01000000
00000000
00010000
00000000
00001000
00010000
00001000
00010000
,  // measure 53
00001000
00010000
00001000
00010000
00001000
00010000
00001000
00010000
,  // measure 54
00001000
00010000
00001000
00010000
00000000
00001000
00010000
00000100
,  // measure 55
00001000
00000010
00000100
00000001
00001100
00000000
00000000
00000000
,  // measure 56
00000110
00000000
00000001
00000010
,  // measure 57
00000001
00001000
00000001
00000100
,  // measure 58
00000001
00001000
00000010
00000100
,  // measure 59
00001000
00010000
00100000
00000000
,  // measure 60
01100000
00000000
01000000
00010000
,  // measure 61
10000000
00100000
01000000
00100000
,  // measure 62
10000000
00000000
00010000
00000000
00100000
01000000
00100000
01000000
,  // measure 63
00100000
01000000
00100000
01000000
00100000
00000000
00000000
00000000
,  // measure 64
11000000
00000000
10000000
00010000
,  // measure 65
01000000
00100000
10000000
00010000
,  // measure 66
10000000
00100000
01000000
00010000
,  // measure 67
00100000
00010000
00110000
00000000
,  // measure 68
00001000
00000000
00011000
00010000
,  // measure 69
00000010
00000100
00000000
00000001
,  // measure 70
00001000
00000001
00002002
00000000
,  // measure 71
00003003
00000000
00000110
00000000
,  // measure 72
00000110
00000000
00000001
00001000
,  // measure 73
00000001
00000100
00000010
00010000
,  // measure 74
00001000
00010000
00001000
00100000
,  // measure 75
00010000
00100000
01100000
00000000
,  // measure 76
01100000
00000000
10000000
00010000
,  // measure 77
10000000
00010000
00100000
00001000
,  // measure 78
00010000
00000000
00001000
00000000
01000000
00010000
01000000
00010000
,  // measure 79
01000000
00010000
01000000
00010000
01000000
00000000
00100000
00000000
,  // measure 80
01000000
00100000
00010000
00001000
,  // measure 81
00000100
00000010
00001000
00000010
,  // measure 82
00001000
00000010
00000001
00000010
,  // measure 83
00000100
00000010
00001000
00000100
,  // measure 84
00001000
00000000
00000100
00000000
00010000
00001000
00010000
00001000
,  // measure 85
00010000
00001000
00010000
00001000
00000000
00010000
00001000
00100000
,  // measure 86
00010000
01000000
00100000
10000000
00110000
00000000
00000000
00000000
,  // measure 87
00010000
20000000
00000000
00000000
,  // measure 88
31000000
00000000
01100000
00000000
,  // measure 89
00010000
00002000
00000000
00000000
,  // measure 90
00003100
00000000
00000110
00000000
,  // measure 91
00001000
00000002
00000000
00000000
,  // measure 92
00000103
00000000
00001000
00001000
,  // measure 93
00000000
01002000
00000000
00000000
,  // measure 94
00013000
00000000
00000100
00000000
,  // measure 95
00000010
00000000
00000100
00000000
,  // measure 96
00000010
00000000
00001000
00000000
,  // measure 97
00010000
00000000
00100000
00000000
,  // measure 98
01000000
00000000
00001000
00010000
,  // measure 99
00001000
00010000
01000000
10000000
,  // measure 100
01000000
00000000
00000000
00000000
00100000
00000000
00000000
00000000
00010000
10000000
00010000
10000000
20200000
00000000
30300000
00000000
,  // measure 101
01100000
00000000
01100000
00000000
,  // measure 102
10000000
01000000
00010000
01000000
,  // measure 103
10000000
01000000
10000000
00010000
,  // measure 104
00100000
10000000
00100000
00010000
,  // measure 105
10000000
00000000
10010000
00000000
,  // measure 106
00010000
01000000
00100000
10000000
,  // measure 107
00010000
00100000
00010000
00100000
,  // measure 108
00001000
00010000
00000010
00001000
,  // measure 109
00000010
00000000
00000110
00000000
,  // measure 110
00001000
00000001
00000100
00000010
,  // measure 111
00001000
00000100
00001000
00000100
,  // measure 112
00000010
00000100
00001000
00000100
,  // measure 113
00010100
00000000
00001000
00000000
,  // measure 114
00110000
10000000
01000000
00010000
,  // measure 115
00000000
01000000
00100000
00010000
,  // measure 116
20020000
00000000
30030000
00000000
,  // measure 117
11000000
00000000
11000000
00000000
,  // measure 118
00010000
01000000
00010000
10000000
,  // measure 119
00100000
01000000
00010000
01000000
,  // measure 120
00100000
10000000
01000000
00010000
,  // measure 121
00001000
00000000
00000110
00000000
,  // measure 122
00000100
00000010
00000001
00001000
,  // measure 123
00000100
00001000
00000100
00001000
,  // measure 124
00000001
00000100
00001000
00010000
,  // measure 125
00100000
01000000
00100000
01000000
,  // measure 126
10000000
01000000
10000000
01000000
,  // measure 127
00100000
10000000
00100000
10000000
,  // measure 128
01000000
00100000
01000000
00100000
,  // measure 129
00010000
00100000
00010000
00100000
00010000
00100000
00010000
00100000
,  // measure 130
00001000
00100000
00001000
00100000
00001000
00100000
00001000
00100000
,  // measure 131
00000000
00001000
00010000
00000100
00001000
00000010
00000100
00000010
,  // measure 132
00001010
00000000
00000110
00000000
,  // measure 133
00000001
00000010
00000100
00001000
,  // measure 134
00000100
00000010
00000100
00000010
,  // measure 135
00000001
00000010
00001000
00010000
,  // measure 136
00001000
00000000
00011000
00000000
,  // measure 137
00010000
00001000
00010000
00100000
,  // measure 138
01000000
00100000
01000000
00010000
,  // measure 139
10000000
01000000
10000000
01000000
10000000
01000000
10000000
01000000
,  // measure 140
10000000
00000000
10010000
00000000
,  // measure 141
10000000
01000000
00100000
00010000
,  // measure 142
01000000
00010000
01000000
00100000
,  // measure 143
10000000
01000000
00010000
00001000
,  // measure 144
00011000
00000000
00000010
00000000
,  // measure 145
00011000
00010000
00001000
00010000
,  // measure 146
00000000
00001000
00000010
00000100
,  // measure 147
00000220
00000000
00000330
00000000
,  // measure 148
00001001
00000000
00001001
00000000
,  // measure 149
00000001
00000100
00000010
00001000
,  // measure 150
00010000
01000000
00100000
10000000
,  // measure 151
00010000
00100000
01000000
10000000
,  // measure 152
11000000
00000000
10010000
00000000
,  // measure 153
01000000
00010000
01000000
00010000
,  // measure 154
10000000
00100000
01000000
00001000
,  // measure 155
00010000
00001000
00010000
00001000
00010000
00001000
00010000
00001000
,  // measure 156
00010000
00001000
00100000
00001000
,  // measure 157
00010000
00000100
00001000
00000010
,  // measure 158
00000100
00001000
00010000
00001000
,  // measure 159
00000100
00000010
00010000
00001000
,  // measure 160
00100000
00010000
10000000
00010000
,  // measure 161
01000000
00100000
01000000
00100000
10000000
00100000
10000000
00100000
,  // measure 162
00000000
01000000
00010000
00100000
00010000
10000000
01000000
00010000
,  // measure 163
00022000
00033000
00000000
00000000
;

//---------------dance-double - ----------------
#NOTEDATA:;
#CHARTNAME:;
#STEPSTYPE:dance-double;
#DESCRIPTION:;
#CHARTSTYLE:;
#DIFFICULTY:Hard;
#METER:16;
#RADARVALUES:0.875958,1.474470,0.481705,0.361279,0.000000,611.000000,563.000000,48.000000,36.000000,0.000000,0.000000,0.000000,0.000000,0.000000,0.875958,1.474470,0.481705,0.361279,0.000000,611.000000,563.000000,48.000000,36.000000,0.000000,0.000000,0.000000,0.000000,0.000000;
#CREDIT:led_light;
#NOTES:
00000000
00000000
00000000
00000000
,
00000000
00000000
00000000
00000000
,
00000000
00000000
00000000
00000000
,
00000000
00000000
00000000
00000000
,
00000000
00000000
00000000
00000000
,
00000000
00000000
00000000
00000000
,
00000000
00000000
00000000
00000000
,
00000000
00000000
00000000
00000000
,
00000000
00000000
00000000
00000000
,
00011000
00000000
00001000
00000000
00001000
00000000
00100000
00010000
,
00000000
10000000
01000000
10000000
01000000
00100000
00010000
00000000
,
10000000
00000000
00010000
00000000
00100000
01000000
10000000
01000000
,
00000000
10000000
00100000
00010000
00001000
00000000
00001000
00010000
,
00001000
00000000
00010000
00000000
00010000
00000000
00000010
00001000
,
00000000
00000001
00000100
00000001
00000100
00000010
00001000
00000000
,
00000001
00000000
00001000
00000000
00000010
00000100
00000001
00000100
,
00000000
00000001
00000010
00001000
00010000
00000000
00010000
00001000
,
00010000
00000000
01000000
00000000
10000000
01000000
10000000
01000000
,
10000000
00000000
01000000
00000000
00100000
00010000
00100000
00010000
,
00100000
00000000
00001000
00000000
00000100
00000010
00000100
00000010
,
00000100
00000000
00001000
00000000
01000000
00010000
01000000
00010000
,
00100000
01000000
00100000
01000000
10000000
01000000
10000000
01000000
,
00010000
01000000
00010000
01000000
00010000
00001000
00010000
00001000
,
00000100
00000010
00000100
00000010
00000100
00000010
00000100
00000010
,
00002000
00003001
00000220
00000330
00000110
00000000
00000000
00000000
,
00001001
00000000
00000001
00000100
,
00000010
00001000
00000001
00000100
,
00000001
00001000
00000010
00000100
,
00001000
00010000
00001000
00000000
,
00011000
00000000
00010000
00001000
,
00000010
00000001
00000010
00000100
,
00000010
00000001
00000010
00001000
,
00010000
01000000
10000000
00000000
,
10010000
00000000
00010000
01000000
,
00010000
10000000
00100000
01000000
,
00100000
01000000
00010000
01000000
,
00001000
00010000
00001000
00000000
,
00011000
00000000
00100000
00010000
,
00100000
01000000
00000000
00010000
,
00001000
00000000
00022000
00000000
,
00033000
00000000
00110000
00000000
,
00110000
00000000
00001000
00010000
,
00001000
00000000
01000000
00010000
,
01000000
00001000
00010000
00000100
,
00001000
00000100
00000010
00000000
,
00000110
00000000
00000001
00000000
,
00001100
00000000
00000001
00001000
,
00000100
00001000
00000100
00000000
,
00001001
00000000
00000100
00000001
,
00000100
00000001
00001000
00000010
,
00001000
00000010
00000100
00001000
,
00000100
00001000
00010000
00100000
,
00010000
00100000
01000000
10000000
,
00010000
00100000
10000000
01000000
,
00100000
00000000
00010000
00000000
00000000
00100000
01000000
10000000
,
01000000
10000000
00010000
00000000
10010000
00000000
00000000
00000000
,
01100000
00000000
00010000
00100000
,
10000000
00100000
00010000
10000000
,
01000000
00100000
00010000
00100000
,
01000000
10000000
00100000
00000000
,
01100000
00000000
10000000
00100000
,
10000000
01000000
00100000
01000000
,
00100000
00010000
02000000
03200000
,
00320000
00032000
00003100
00000000
,
00000110
00000000
00000001
00000100
,
00000010
00000100
00000001
00001000
,
00000001
00001000
00000100
00000010
,
00000001
00001000
00000100
00000000
,
00001001
00000000
00000010
00001000
,
00000010
00001000
00000000
00010000
,
00001000
00000000
00022000
00000000
,
00033000
00000000
00001100
00000000
,
00001100
00000000
00010000
00001000
,
00010000
00000000
00000010
00001000
,
00000010
00010000
00001000
00100000
,
00010000
00100000
01000000
00000000
,
01100000
00000000
10000000
00000000
,
11000000
00000000
00010000
01000000
,
00100000
01000000
00200000
20300000
,
30020000
02030000
03100000
01000000
,
00100000
01000000
00010000
00100000
,
00010000
00100000
01000000
10000000
,
01000000
10000000
01000000
00010000
,
01000000
00010000
00001000
00000010
,
00000100
00001000
00000001
00000100
,
00000010
00000000
00001000
00000000
00000000
00000010
00000100
00000010
,
00010000
00001000
00010000
00000000
00011000
00000000
00000000
00000000
,
00001000
00200000
00000000
00000000
,
01300000
00000000
11000000
00000000
,
01000000
00020000
00000000
00000000
,
00031000
00000000
00011000
00000000
,
00010000
00000020
00000000
00000000
,
00000130
00000000
00000100
00000010
,
00000000
00001200
00000000
00000000
,
00000301
00000000
00000010
00000000
,
00001000
00000000
00000010
00000000
,
00001000
00000000
00010000
00000000
,
00100000
00000000
00010000
00000000
,
00100000
00000000
01000000
00010000
,
01000000
00010000
00100000
01000000
,
10000000
00000000
01000000
00000000
00200000
01300000
02200000
03300000
,
10010000
00000000
10010000
00000000
,
00010000
01000000
00100000
10000000
,
00010000
00100000
00010000
00100000
,
01000000
00010000
01000000
00100000
,
00001000
00000000
00011000
00000000
,
01000000
00010000
10000000
00100000
,
01000000
00100000
01000000
00001000
,
00010000
00001000
00010000
00000100
,
00000010
00000000
00000110
00000000
,
00000001
00000010
00000001
00001000
,
00000100
00000010
00000100
00000010
,
00000100
00010000
00001000
01000000
,
00100000
00000000
01100000
00000000
,
01000000
00010000
01000000
00010000
,
00000000
00100000
01000000
10000000
,
20020000
00000000
30030000
00000000
,
01100000
00000000
01100000
00000000
,
10000000
01000000
10000000
00100000
,
01000000
00100000
01000000
00010000
,
01000000
00001000
00010000
00001000
,
00010000
00000000
00101000
00000000
,
00100000
00001000
00010000
00000010
,
00001000
00000001
00000100
00000010
,
00001000
00000001
00001000
00000001
,
00000010
00000100
00000010
00000100
,
00010000
00001000
00010000
00001000
,
01000000
00010000
01000000
00010000
,
01000000
00100000
01000000
00100000
,
10000000
01000000
00100000
00010000
,
00001000
00000100
00000010
00000001
,
00000000
00000010
00000100
00001000
00000100
00010000
00001000
00000000
,
00011000
00000000
00011000
00000000
,
00000100
00010000
00001000
00010000
,
00001000
01000000
00100000
01000000
,
00100000
10000000
00010000
01000000
,
00100000
00000000
01100000
00000000
,
10000000
01000000
10000000
00010000
,
01000000
00010000
01000000
00100000
,
20000000
32000000
03200000
00302000
,
00013000
00000000
00011000
00000000
,
00001000
00010000
00000100
00001000
,
00000010
00000100
00000010
00000100
,
00000001
00000100
00000010
00001000
,
00001001
00000000
00000010
00000000
,
00001100
00000100
00010000
00001000
,
00000000
00010000
00001000
00100000
,
00220000
00000000
00330000
00000000
,
10010000
00000000
10010000
00000000
,
10000000
00010000
01000000
00100000
,
10000000
00100000
10000000
00010000
,
01000000
00100000
10000000
01000000
,
00100000
00000000
01100000
00000000
,
00010000
00100000
01000000
00100000
,
00001000
00010000
00001000
00010000
,
00000200
00002300
00003002
00000203
,
00000310
00001000
00000010
00001000
,
00000001
00000010
00000001
00000010
,
00001000
00010000
00001000
00010000
,
01000000
10000000
01000000
10000000
,
00100000
01000000
00100000
01000000
,
00001000
00010000
00000100
00000010
,
00000000
00001000
00010000
00001000
00010000
01000000
10000000
00000000
,
20020000
30030000
00000000
00000000
;

//---------------dance-double - ----------------
#NOTEDATA:;
#CHARTNAME:;
#STEPSTYPE:dance-double;
#DESCRIPTION:;
#CHARTSTYLE:;
#DIFFICULTY:Medium;
#METER:13;
#RADARVALUES:0.623636,1.392555,0.170604,0.200711,0.000000,435.000000,418.000000,17.000000,20.000000,0.000000,0.000000,0.000000,0.000000,0.000000,0.623636,1.392555,0.170604,0.200711,0.000000,435.000000,418.000000,17.000000,20.000000,0.000000,0.000000,0.000000,0.000000,0.000000;
#CREDIT:led_light;
#NOTES:
00000000
00000000
00000000
00000000
,
00000000
00000000
00000000
00000000
,
00000000
00000000
00000000
00000000
,
00000000
00000000
00000000
00000000
,
00000000
00000000
00000000
00000000
,
00000000
00000000
00000000
00000000
,
00000000
00000000
00000000
00000000
,
00000000
00000000
00000000
00000000
,
00000000
00000000
00000000
00000000
,
01100000
00000000
01000000
00000000
01000000
00000000
00100000
01000000
,
00000000
10000000
01000000
00000000
00010000
00000000
01000000
00000000
,
10000000
00000000
01000000
00000000
00100000
00000000
00010000
01000000
,
00000000
01000000
00100000
00000000
00010000
00001000
00010000
00000000
,
00000010
00000000
00000100
00000000
00000100
00000000
00000010
00000100
,
00000000
00000001
00000100
00000000
00001000
00000000
00000100
00000000
,
00000001
00000000
00000100
00000000
00000010
00000000
00001000
00000100
,
00000000
00000100
00000010
00000000
00001000
00010000
00001000
00000000
,
00100000
00000000
00010000
00000000
01000000
00100000
00010000
00000000
,
00001000
00000000
00000100
00000000
00000010
00001000
00000100
00000000
,
00000100
00000000
00001000
00000000
00000010
00000100
00001000
00000000
,
00010000
00000000
00100000
00000000
01000000
00010000
00100000
00000000
,
01000000
10000000
01000000
00000000
00010000
01000000
00010000
00000000
,
00001000
00010000
00001000
00000000
00000100
00001000
00000100
00000000
,
00000010
00000100
00000010
00001000
00000100
00000010
00001000
00010000
,
00002000
00013000
00022000
00033000
00011000
00000000
00000000
00000000
,
00001000
00000000
00010000
00000000
,
00000100
00000000
00000010
00000000
,
00001000
00000000
00010000
00000000
,
00001000
00100000
00010000
00000000
,
10000000
00000000
01000000
00000000
,
00100000
00010000
00000000
10000000
,
01000000
00000000
10000000
00100000
,
01000000
00000000
00001000
00000000
,
00010000
00000000
01000000
00000000
,
00100000
00000000
00001000
00010000
,
00001000
00000000
00010000
00000000
,
00000100
00000000
00001000
00000000
,
00001000
00000000
00000001
00000100
,
00000000
00000110
00000000
00000010
,
00001000
00000000
00000002
00000000
,
00000000
00000000
00001003
00000000
,
00000100
00000000
00000010
00000100
,
00000010
00000000
00001000
00000000
,
00010000
00000000
00001000
00000000
,
00000010
00000001
00000010
00000000
,
00001000
00000000
00010000
00000000
,
00100000
00000000
01000000
10000000
,
01000000
00000000
00100000
00000000
,
10000000
00000000
00010000
00100000
,
00010000
00000000
10000000
01000000
,
10000000
00000000
01000000
00100000
,
01000000
00000000
00100000
00010000
,
00100000
00000000
00001000
00010000
,
00001000
00010000
00001000
00010000
,
00001000
00010000
00000000
00000000
,
00000000
00000000
00011000
00000000
,
00000100
00000000
00010000
00000000
,
00001000
00000000
00100000
00000000
,
00001000
00000000
00010000
00000000
,
00001000
00000100
00001000
00000000
,
00000100
00000000
00000010
00000000
,
00001000
00000000
00000001
00000010
,
00000001
00000010
00000100
00001000
,
00000100
00001000
00000001
00000000
,
00001000
00000000
00000100
00000000
,
00000010
00000000
00000001
00000000
,
00001000
00000000
00000010
00000000
,
00000100
00001000
00010000
00000000
,
00100000
00000000
00010000
00001000
,
00000000
00011000
00000000
01000000
,
00010000
00000000
00200000
00000000
,
00000000
00000000
01300000
00000000
,
10000000
00000000
00010000
01000000
,
00010000
00000000
01000000
00000000
,
00100000
00000000
10000000
00000000
,
01000000
00100000
01000000
00000000
,
00100000
00000000
00010000
00000000
,
00001000
00000000
00000100
00000010
,
00000001
00000000
00002000
00000000
,
00003002
00000000
00000013
00001000
,
00000010
00000000
00001000
00000000
,
00010000
00000000
00000100
00001000
,
00000100
00000000
00010000
00000000
,
00001000
00000000
00010000
00000000
,
01000000
00000000
10000000
00010000
,
10000000
00010000
00000000
00000000
,
00000000
00000000
00110000
00000000
,
00000000
12000000
00000000
00000000
,
03010000
00000000
00010100
00000000
,
00000000
00012000
00000000
00000000
,
00003100
00000000
00001010
00000000
,
00000000
00000201
00000000
00000000
,
00001300
00000000
01000000
00001000
,
00000000
00021000
00000000
00000000
,
01030000
00000000
10000000
00000000
,
10000000
00000000
00100000
00000000
,
00100000
00000000
00010000
00000000
,
00010000
00000000
00001000
00000000
,
00001000
00000000
00010000
00000100
,
00010000
00001000
00000010
00000100
,
00000010
00000000
00001000
00000000
00020000
00031000
00022000
00033000
,
00100000
00000000
00010000
00000000
,
00100000
00000000
10000000
00000000
,
00100000
00000000
00010000
00000000
,
00100000
00000000
01000000
10000000
,
01000000
00000000
00100000
00000000
,
00010000
00000000
10000000
00000000
,
00100000
01000000
00100000
01000000
,
00100000
00000000
00010000
00000000
,
00100000
00000000
10000000
00000000
,
01000000
00000000
00010000
00000000
,
00001000
00000000
00000100
00000000
,
00000001
00000000
00001000
00000100
,
00000001
00000000
00000100
00000000
,
00001000
00000010
00001000
00000010
,
00000000
00000100
00000001
00000000
,
00002000
00000000
00000000
00000000
,
00003010
00000000
00000100
00000000
,
00000010
00000000
00000100
00000000
,
00001000
00000000
00000100
00000000
,
00000010
00000000
00010000
00001000
,
00010000
00000000
00000100
00000000
,
00010000
00000000
00001000
00000000
,
00010000
01000000
00010000
00000000
,
01000000
00000000
10000000
00000000
,
10000000
01000000
00010000
00000000
,
00001000
00000000
00010000
00000000
,
00001000
00010000
01000000
00000000
,
10000000
00000000
00010000
00000000
,
01000000
00100000
00010000
00001000
,
00010000
00100000
01000000
00001000
,
00000000
00000000
00000000
00000000
,
00011000
00000000
00001000
00000000
,
00010000
00000000
00000100
00000000
,
00010000
00000000
01000000
00000000
,
00010000
00000000
00010000
00001000
,
00010000
00000000
01000000
00000000
,
10000000
00000000
01000000
00000000
,
00100000
00010000
00100000
00010000
,
00100000
01000000
10000000
00010000
,
10000000
00000000
00100000
00000000
,
01000000
00000000
00100000
00000000
,
10000000
00000000
01000000
00000000
,
00010000
00000000
00001000
00000010
,
00001000
00000000
00010000
00000000
,
00000100
00010000
00001000
00011000
,
00000000
00010000
00001000
00000000
,
00000200
00000000
00000000
00000000
,
00000301
00000000
00001000
00000000
,
00000001
00000100
00000001
00000000
,
00000100
00000000
00000010
00000000
,
00001000
00000000
00000100
00001000
,
00000100
00000000
00010000
00000000
,
00001000
00000000
00100000
00000000
,
00010000
10000000
00010000
10000000
,
00020000
00000000
02030000
00000000
,
03100000
10000000
00100000
00000000
,
01000000
00010000
01000000
00000000
,
00001000
00010000
00001000
00000000
,
00000010
00000001
00000010
00000000
,
00000100
00001000
00000001
00000100
,
00000010
00001000
00000100
00000010
,
00000000
00000100
00010000
00000000
00001000
00000000
00010000
00000000
,
00022000
00033000
00000000
00000000
;

//---------------dance-double - ----------------
#NOTEDATA:;
#CHARTNAME:;
#STEPSTYPE:dance-double;
#DESCRIPTION:;
#CHARTSTYLE:;
#DIFFICULTY:Easy;
#METER:11;
#RADARVALUES:0.465935,0.901065,0.130462,0.140497,0.000000,325.000000,312.000000,13.000000,14.000000,0.000000,0.000000,0.000000,0.000000,0.000000,0.465935,0.901065,0.130462,0.140497,0.000000,325.000000,312.000000,13.000000,14.000000,0.000000,0.000000,0.000000,0.000000,0.000000;
#CREDIT:led_light;
#NOTES:
00000000
00000000
00000000
00000000
,
00000000
00000000
00000000
00000000
,
00000000
00000000
00000000
00000000
,
00000000
00000000
00000000
00000000
,
00000000
00000000
00000000
00000000
,
00000000
00000000
00000000
00000000
,
00000000
00000000
00000000
00000000
,
00000000
00000000
00000000
00000000
,
00000000
00000000
00000000
00000000
,
10010000
00000000
01000000
00000000
,
00000000
10000000
01000000
00000000
,
00010000
00000000
00010000
00000000
,
00000000
00001000
00000100
00000000
,
00000001
00000000
00000001
00000000
,
00000000
00000100
00000010
00000000
,
00001000
00000000
00001000
00000000
,
00000000
00000100
00010000
00000000
,
01000000
10000000
01000000
00000000
,
00100000
00010000
00100000
00000000
,
00001000
00010000
00001000
00000000
,
00000100
00000001
00000100
00000000
,
00000010
00000100
00000010
00000100
,
00001000
00010000
00001000
00010000
,
00200000
02300000
03200000
02300000
,
03100000
10000000
10010000
00000000
00010000
00000000
00000000
00000000
,
00100000
00000000
00010000
00000000
,
00100000
00000000
10000000
00000000
,
00100000
00000000
00010000
00000000
,
00100000
00000000
01000000
00000000
,
10000000
00000000
01000000
00000000
,
10000000
00000000
00010000
00000000
,
01000000
00000000
00100000
00000000
,
00100000
00000000
00010000
00000000
,
00001000
00000000
00010000
00000000
,
00001000
00000000
00000100
00000000
,
00001000
00000000
00000100
00000000
,
00001000
00000000
00000100
00000000
,
00000001
00000000
00000010
00000000
,
00000000
00000110
00000000
00000000
,
00000001
00000000
00002000
00000000
,
00000000
00000000
00003001
00000000
,
00000100
00000000
00000001
00000000
,
00000100
00000000
00000010
00000000
,
00001000
00000000
00000010
00000000
,
00000100
00000000
00000001
00000000
,
00000010
00000000
00000001
00000000
,
00000010
00000000
00001000
00000000
,
00010000
00000000
01000000
00000000
,
10000000
00000000
00010000
00000000
,
00010000
00000000
01000000
00000000
,
00100000
00000000
10000000
00000000
,
10000000
00000000
00100000
00000000
,
01000000
00000000
00001000
00000000
,
00001000
00000000
00010000
00000000
,
00000100
00001000
00000000
00000000
,
00000000
00000000
00001000
00000000
,
00000010
00000000
00001000
00000000
,
00000010
00000000
00000001
00000000
,
00000010
00000000
00001000
00000000
,
00000010
00000000
00000100
00000000
,
00000001
00000000
00000100
00000000
,
00000001
00000000
00001000
00000000
,
00000100
00000000
00000020
00000000
,
00000000
00000000
00001030
00000000
,
00010000
00000000
00001000
00000000
,
00010000
00000000
01000000
00000000
,
00010000
00000000
01000000
00000000
,
00010000
00000000
01000000
00000000
,
10000000
00000000
00100000
00000000
,
00000000
01100000
00000000
00000000
,
10000000
00000000
00020000
00000000
,
00000000
00000000
10030000
00000000
,
01000000
00000000
10000000
00000000
,
01000000
00000000
00100000
00000000
,
00010000
00000000
00100000
00000000
,
01000000
00000000
10000000
00000000
,
00100000
00000000
10000000
00000000
,
00100000
00000000
00010000
00000000
,
00001000
00000000
00000100
00000000
,
00000001
00000000
00001000
00000000
,
00001000
00000000
00000100
00000000
,
00000010
00000000
00000001
00000000
,
00000001
00000000
00000010
00000000
,
00000100
00000000
00010000
00000000
,
00010000
00000000
00001000
00000000
,
01000000
00010000
00000000
00000000
,
00000000
00000000
00010000
00000000
,
00000000
11000000
00000000
00000000
,
00000000
00000000
00010000
00000000
,
00000000
00101000
00000000
00000000
,
00000000
00000000
00010000
00000000
,
00000000
00001010
00000000
00000000
,
00000000
00000000
00000100
00000000
,
00000000
00000011
00000000
00000000
,
00000000
00000000
00000100
00000000
,
00001000
00000000
00000100
00000000
,
00001000
00000000
00000010
00000000
,
00000100
00000000
00000010
00000000
,
00000100
00000000
00001000
00000000
,
00010000
00000000
00100000
00000000
,
00010000
00000000
00000000
00000000
00002000
00013000
00011000
00000000
,
00011000
00000000
00001000
00000000
,
01000000
00000000
00001000
00000000
,
00010000
00000000
01000000
00000000
,
10000000
00000000
01000000
00000000
,
00100000
00000000
00010000
00000000
,
10000000
00000000
00010000
00000000
,
10000000
01000000
10000000
00000000
,
01000000
00000000
10000000
00000000
,
00010000
00000000
01000000
00000000
,
00100000
00000000
10000000
00000000
,
00100000
00000000
01000000
00000000
,
00001000
00000000
00010000
00000000
,
00001000
00000000
00010000
00000000
,
00000100
00000000
00000000
00011000
,
00000000
00001000
00010000
00000000
,
00000020
00000000
00000000
00000000
,
00001030
00000000
00000001
00000000
,
00001000
00000000
00000001
00000000
,
00000100
00000000
00000001
00000000
,
00000100
00000000
00000010
00001000
,
00000010
00000000
00001000
00000000
,
00000100
00000000
00000010
00000000
,
00000100
00001000
00000100
00000000
,
00010000
00000000
00001000
00000000
,
00100000
00000000
00100000
00000000
,
00001000
00000000
00010000
00000000
,
00100000
00000000
00100000
00000000
,
10000000
00000000
00010000
00000000
,
00100000
00000000
00100000
00000000
,
01000000
00000000
10000000
00010000
,
00000000
00000000
00000000
00000000
,
10000000
00000000
00010000
00000000
,
01000000
00000000
00010000
00000000
,
10000000
00000000
01000000
00000000
,
00010000
00000000
00001000
00000000
,
00000010
00000000
00000001
00000000
,
00000010
00000000
00000100
00000000
,
00001000
00000100
00001000
00000000
,
00000002
00000000
00000000
00000000
,
00000103
00000000
00000010
00000000
,
00001000
00000000
00000001
00000000
,
00001000
00000000
00000010
00000000
,
00000100
00000000
00001000
00010000
,
00001000
00000000
01000000
00000000
,
00001000
00000000
00000000
00011000
,
00000000
00010000
00001000
00000000
,
00200000
00000000
00000000
00000000
,
00310000
00000000
10000000
00000000
,
00010000
00000000
10000000
00000000
,
01000000
00000000
10000000
00000000
,
01000000
00000000
00100000
00010000
,
00100000
00000000
00010000
00000000
,
01000000
00000000
00100000
00000000
,
01000000
00010000
01000000
00000000
,
00002000
00000000
00000000
00000000
,
00013000
00000000
00010000
00000000
,
01000000
00000000
10000000
00000000
,
00100000
00000000
00100000
00000000
,
00010000
00000000
00001000
00000000
,
00000010
00000000
00000010
00000000
,
00000001
00000000
00001000
00000001
,
00000000
00001000
00000001
00000100
,
00000220
00000330
00000000
00000000
;
