#TITLE:Pull for Your Heart;
#SUBTITLE:;
#ARTIST:Crunchyroll Games ft. NIJISANJI EN's Enna Alouette & Millie Parfait;
#TITLETRANSLIT:;
#SUBTITLETRANSLIT:;
#ARTISTTRANSLIT:;
#GENRE:Variety;
#CREDIT:;
#BANNER:Pull for Your Heart.png;
#BACKGROUND:Pull for Your Heart-bg.png;
#LYRICSPATH:;
#CDTITLE:../cdtitle.png;
#MUSIC:Pull for Your Heart.ogg;
#OFFSET:0.727000;
#SAMPLESTART:69.453003;
#SAMPLELENGTH:15.000000;
#SELECTABLE:YES;
#BPMS:0.000000=165.000000
;
#STOPS:
;
#BGCHANGES:2.500=Pull for Your Heart.avi=1.000=0=0=0=StretchNoLoop====,
99999=-nosongbg-=1.000=0=0=0 // don't automatically add -songbackground-
;
#KEYSOUNDS:;
#ATTACKS:;

//---------------dance-single - ----------------
#NOTES:
     dance-single:
     :
     Challenge:
     14:
     0.710450,0.843494,0.249582,0.415970,0.203363,538.000000,511.000000,27.000000,45.000000,0.000000,0.000000,0.710450,0.843494,0.249582,0.415970,0.203363,538.000000,511.000000,27.000000,45.000000,0.000000,0.000000:
// measure 0
0000
0000
0000
0000
,  // measure 1
0000
0000
0000
0000
,  // measure 2
0000
0000
0000
0000
,  // measure 3
0000
0000
0000
0000
,  // measure 4
0000
0000
0000
0000
,  // measure 5
0002
0000
1003
0100
0000
0100
1000
0002
,  // measure 6
0000
0013
0001
0000
1000
0100
0010
0001
,  // measure 7
1000
0100
1000
0001
0100
0001
1000
0010
,  // measure 8
1000
0000
0100
0000
0001
0000
0100
0000
1000
0010
0100
0001
1000
0000
0001
0000
,  // measure 9
2002
0000
3003
0001
0010
0100
0010
0012
,  // measure 10
0000
1003
0010
0100
0110
0001
1000
0001
,  // measure 11
0201
0000
0300
0010
1000
1000
0100
0020
,  // measure 12
0000
0130
1000
1000
0001
0100
0010
1000
,  // measure 13
2020
0000
3030
0001
1000
0100
1000
0020
,  // measure 14
0000
0130
0002
0003
1001
0000
0001
0010
,  // measure 15
0210
0000
0300
1000
0100
0100
0010
0002
,  // measure 16
0000
0000
1003
0000
0010
1000
0010
0000
0100
0001
1000
0001
1000
0100
0010
0000
,  // measure 17
0022
0000
0000
0000
0000
0000
0033
0000
0000
0000
0000
0000
0001
0000
0100
0000
0010
0000
1000
0000
0000
0200
0000
0000
,  // measure 18
0000
0000
0000
1300
0000
0000
0010
0000
0000
0010
0000
0000
1000
0000
0100
0000
0010
0000
0001
0000
0000
0000
0000
0000
,  // measure 19
2002
0000
0000
0000
3003
0000
0001
0100
0001
0000
1000
0000
0010
0000
0200
0000
,  // measure 20
0000
1300
0100
0100
0001
1000
0001
0000
,  // measure 21
2200
0000
0000
0000
0000
0000
3300
0000
0000
0000
0000
0000
1000
0000
0100
0000
0010
0000
0001
0000
0000
2000
0000
0000
,  // measure 22
0000
3100
1000
1000
0010
0100
0001
0000
,  // measure 23
1000
0010
0001
0010
2000
0000
3001
0010
,  // measure 24
1000
0010
0002
0000
1003
0100
0010
0000
,  // measure 25
0022
0000
0000
0000
0000
0000
0033
0000
0000
0000
0000
0000
1000
0000
0100
0000
0010
0000
0001
0000
0000
2000
0000
0000
,  // measure 26
0000
0000
3100
0000
1000
0001
1000
0000
0010
0000
0100
0000
0001
0000
0000
0000
,  // measure 27
0202
0000
0000
0000
0000
0000
0303
0000
0000
0000
0000
0000
0001
0000
0010
0000
0100
0000
1000
0000
0000
0002
0000
0000
,  // measure 28
0000
0013
0001
0001
0100
0010
1000
0000
,  // measure 29
2200
0000
0000
0000
0000
0000
3300
0000
0000
0000
0000
0000
1000
0000
0100
0000
0010
0000
0001
0000
0000
2000
0000
0000
,  // measure 30
0000
3100
1000
1000
0010
0100
0001
0000
,  // measure 31
1000
0100
0001
0100
1000
0000
0001
0100
,  // measure 32
1000
0000
0100
0000
0002
0000
0000
0000
1003
0100
1000
0100
0010
0001
0010
0001
,  // measure 33
1000
0001
0100
0010
0110
0010
1000
0100
,  // measure 34
0010
0001
0010
0100
1000
0001
0100
0010
,  // measure 35
1010
1000
0001
0010
0011
0001
1000
0010
,  // measure 36
0100
1000
0100
0010
1000
0100
0010
0100
,  // measure 37
1000
0001
0010
0100
0110
0100
1000
0010
,  // measure 38
1000
0100
0010
0001
1000
0001
0100
0010
,  // measure 39
1010
1000
0100
1100
0100
0001
0101
0001
,  // measure 40
0010
0000
0011
0000
0010
0000
1000
0000
0001
0010
0100
1000
0001
0100
0010
1000
,  // measure 41
0010
1000
0100
0010
0110
0100
1000
0001
,  // measure 42
1000
0010
1000
0010
0100
0001
1000
0001
,  // measure 43
0011
0001
1000
0010
1010
0100
0001
0010
,  // measure 44
0100
0001
0100
0010
0001
0100
1000
0100
,  // measure 45
0020
0000
1030
0100
0002
0000
1003
0010
,  // measure 46
0002
0000
0103
1000
0001
0010
1000
0001
,  // measure 47
1000
1000
0100
0100
0010
0010
0001
1000
,  // measure 48
0020
0100
0001
1030
,  // measure 49
1001
0000
0001
0000
0010
0000
0001
0000
0100
0000
0001
0000
1000
0000
0010
0100
,  // measure 50
0010
0000
1000
0000
0001
0000
1000
0000
0010
0000
1000
0000
0100
0000
0010
0001
,  // measure 51
0010
0000
0001
0000
0100
0000
0010
1000
0010
0000
1000
0000
0001
0000
0010
0100
,  // measure 52
0010
0100
1000
0001
0100
0010
2000
0000
,  // measure 53
3001
0000
1000
0000
0010
0000
1000
0000
0100
0000
1000
0000
0001
0000
0010
0100
,  // measure 54
0010
0000
0001
0000
1000
0000
0001
0000
0010
0000
0001
0000
0100
0000
0010
1000
,  // measure 55
0010
0000
1000
0000
0100
0000
0010
0001
0010
0000
0001
0000
1000
0000
0010
0100
,  // measure 56
0010
0100
0001
1000
0100
0010
0002
0000
,  // measure 57
1003
0100
1000
0100
0001
0100
1000
0010
,  // measure 58
0001
0000
0010
0000
0001
0000
0010
0000
1000
0000
0001
0000
0010
0000
0100
1000
,  // measure 59
0001
0000
1000
0000
0100
0000
0010
0001
1000
0000
0001
0000
0100
0000
0010
1000
,  // measure 60
0001
0010
0100
1000
0100
0010
0002
0000
,  // measure 61
1003
0100
1000
0100
0001
0100
1000
0010
,  // measure 62
0100
0001
0100
0001
0010
0100
1000
0010
,  // measure 63
0100
0001
2000
0000
0100
0000
0010
0000
,  // measure 64
3001
0010
0100
0000
0010
0100
1000
0000
0100
1000
0001
0000
1001
0000
0000
0000
,  // measure 65
0012
0000
1000
0000
0103
0001
0010
0100
,  // measure 66
1000
0010
1000
0010
0100
1000
0100
0010
,  // measure 67
1000
0001
0010
0001
1000
0010
1000
0100
,  // measure 68
0010
0001
0010
0001
1000
0010
0100
0001
,  // measure 69
2000
0000
0001
0000
3100
1000
0010
0100
,  // measure 70
0001
0010
0001
0010
0100
0001
0100
0010
,  // measure 71
0001
0100
0001
1000
0010
1000
0001
0010
,  // measure 72
0001
0000
0100
0000
1000
0000
0100
0000
0001
0010
0100
1000
0002
0000
0000
0000
,  // measure 73
0003
0000
0000
0000
;

//---------------dance-single - ----------------
#NOTES:
     dance-single:
     :
     Beginner:
     2:
     0.085835,0.134497,0.027731,0.101681,0.000000,65.000000,62.000000,3.000000,11.000000,0.000000,0.000000,0.085835,0.134497,0.027731,0.101681,0.000000,65.000000,62.000000,3.000000,11.000000,0.000000,0.000000:
0000
0000
0000
0000
,
0000
0000
0000
0000
,
0000
0000
0000
0000
,
0000
0000
0000
0000
,
0000
0000
0000
0000
,
0000
0000
0000
0000
,
0000
0000
0000
0000
,
0000
0000
0000
0000
,
0000
0000
0000
0000
,
0020
0000
0000
0000
,
0030
0000
0000
0000
,
0200
0000
0000
0000
,
0300
0000
0000
0000
,
0002
0000
0000
0000
,
0003
0000
0000
0000
,
2000
0000
0000
0000
,
3000
0000
0000
0000
,
0110
0000
0000
0000
,
0000
0000
0001
0000
,
0001
0000
0000
0000
,
0000
0000
1000
0000
,
1000
0000
0000
0000
,
0000
0000
0100
0000
,
0100
0000
0000
0000
,
0010
0000
0000
0000
,
0110
0000
0000
0000
,
0000
0000
1000
0000
,
1000
0000
0000
0000
,
0000
0000
0001
0000
,
0001
0000
0000
0000
,
0000
0000
0100
0000
,
0100
0000
0000
0000
,
0010
0000
0000
0000
,
1000
0000
0000
0000
,
1000
0000
0000
0000
,
0010
0000
0000
0000
,
0010
0000
0000
0000
,
0001
0000
0000
0000
,
0001
0000
0000
0000
,
1001
0000
0000
0000
,
0000
0000
0000
0000
,
0001
0000
0000
0000
,
0001
0000
0000
0000
,
0100
0000
0000
0000
,
0100
0000
0000
0000
,
2000
0000
3000
0000
,
0020
0000
0030
0000
,
0200
0000
0000
0000
,
0300
0000
0000
0000
,
0020
0000
0000
0000
,
0030
0000
0000
0000
,
1000
0000
1000
0000
,
1000
0000
0000
0000
,
0200
0000
0000
0000
,
0300
0000
0000
0000
,
0001
0000
0001
0000
,
0001
0000
0000
0000
,
0010
0000
0100
0000
,
0010
0000
0000
0000
,
1000
0000
0001
0000
,
1000
0000
0000
0000
,
0100
0000
0000
0000
,
0100
0000
0000
0000
,
0002
0000
0000
0000
,
0003
0000
0000
0000
,
1000
0000
0000
0000
,
1000
0000
0000
0000
,
0100
0000
0000
0000
,
0010
0000
0100
0000
,
0001
0000
0000
0000
,
0001
0000
0000
0000
,
0100
0000
0010
0000
,
0100
0000
2000
3000
;

//---------------dance-single - ----------------
#NOTES:
     dance-single:
     :
     Easy:
     6:
     0.298442,0.337398,0.166388,0.378994,0.000000,226.000000,208.000000,18.000000,41.000000,0.000000,0.000000,0.298442,0.337398,0.166388,0.378994,0.000000,226.000000,208.000000,18.000000,41.000000,0.000000,0.000000:
0000
0000
0000
0000
,
0000
0000
0000
0000
,
0000
0000
0000
0000
,
0000
0000
0000
0000
,
0000
0000
0000
0000
,
2000
0000
3000
0000
,
0002
0000
0003
0000
,
1000
0000
0001
0000
,
0010
0100
0010
0000
,
2002
0000
3003
0000
,
0200
0000
0310
0000
,
2200
0000
3300
0000
,
0002
0000
0013
0000
,
0220
0000
0330
0000
,
2000
0000
3001
0000
,
2020
0000
3030
0000
,
0200
0000
0301
0000
,
2002
3003
0100
0100
,
0000
1000
0010
0100
,
0202
0303
1000
1000
,
0000
0001
0010
0100
,
2200
3300
0001
0001
,
0000
1000
0010
0100
,
0001
0001
0010
0000
,
1000
1000
0010
0000
,
0220
0330
1000
1000
,
0000
0010
0001
1000
,
2200
3300
0010
0010
,
0000
0100
0001
1000
,
2020
3030
0100
0100
,
0000
0010
0001
1000
,
0100
0100
0010
0000
,
0001
0001
1000
0001
,
0100
0100
0100
0000
,
0010
1000
0100
1000
,
0010
0010
0010
0000
,
0100
0001
0010
0110
,
1000
1000
1000
0000
,
0010
0100
0001
1000
,
0100
0000
0000
0100
0000
0000
0010
0000
,
0000
0010
0000
0000
0001
0000
1001
0000
,
0010
0010
0010
0000
,
0100
0001
0010
0001
,
0100
0100
0100
0000
,
0010
1000
0100
0110
,
0002
0000
0103
0000
,
2000
0000
3100
0000
,
0001
1000
0001
1000
,
0020
0000
0000
0030
,
2001
0100
0100
3010
,
0002
0100
0100
0013
,
1000
1000
0010
0010
,
0100
0001
1000
1001
,
0002
0010
0010
0103
,
2000
0010
0010
3100
,
0001
0001
0100
0100
,
0010
1000
0001
1001
,
0001
0010
0001
0010
,
0100
1000
0100
1000
,
0010
0010
0100
0100
,
0001
0001
1000
1001
,
1000
0100
0001
0100
,
1000
0010
0001
0010
,
2000
0002
0000
0000
,
3003
0000
0000
0000
,
2000
0100
0001
3100
,
0002
0010
1000
0013
,
0001
0100
1000
0100
,
0001
0010
0100
1000
,
0002
0010
1000
0013
,
2000
0100
0001
3100
,
1000
0010
0001
0010
,
1000
0100
0010
2002
,
3003
0000
0000
0000
;

//---------------dance-single - ----------------
#NOTES:
     dance-single:
     :
     Medium:
     9:
     0.423893,0.472356,0.175632,0.314288,0.000000,321.000000,302.000000,19.000000,34.000000,0.000000,0.000000,0.423893,0.472356,0.175632,0.314288,0.000000,321.000000,302.000000,19.000000,34.000000,0.000000,0.000000:
// measure 0
0000
0000
0000
0000
,  // measure 1
0000
0000
0000
0000
,  // measure 2
0000
0000
0000
0000
,  // measure 3
0000
0000
0000
0000
,  // measure 4
0000
0000
0000
0000
,  // measure 5
2000
0000
0000
0000
3000
0100
0000
0200
,  // measure 6
0000
0310
0001
1000
,  // measure 7
0001
0000
0100
0001
0000
0001
1000
0000
,  // measure 8
0010
0100
0000
0100
0001
0000
0010
0000
,  // measure 9
0220
0000
0330
0000
1000
0000
0000
0200
,  // measure 10
0000
1300
1010
0000
,  // measure 11
0200
0000
0300
0000
0010
0000
0000
0210
,  // measure 12
0000
0301
1100
0100
,  // measure 13
2002
0000
3003
0000
0010
0000
0000
2000
,  // measure 14
0000
3010
0011
0000
,  // measure 15
2000
0000
3000
0000
0001
0000
0000
2001
,  // measure 16
0000
0000
3100
0000
0010
0100
1000
0000
,  // measure 17
0102
0000
0000
0000
1003
0001
0100
0000
,  // measure 18
0000
0000
0100
0001
1000
0000
0001
0000
,  // measure 19
0021
0000
0000
0000
0130
1000
0001
0000
,  // measure 20
0000
0000
0001
1000
0100
0000
1000
0000
,  // measure 21
1020
0000
0000
0000
0130
0001
1000
0000
,  // measure 22
0000
0000
1000
0001
0100
0000
0001
0000
,  // measure 23
0010
0100
1000
0000
0001
0000
1000
0100
,  // measure 24
0010
0000
0001
0000
0100
0010
1000
0000
,  // measure 25
0012
0000
0000
0000
1003
0001
0010
0000
,  // measure 26
0000
0000
0010
0001
1000
0000
0001
0000
,  // measure 27
0201
0000
0000
0000
0310
1000
0001
0000
,  // measure 28
0000
0000
0001
1000
0010
0000
1000
0000
,  // measure 29
1200
0000
0000
0000
0310
0001
1000
0000
,  // measure 30
0000
0000
1000
0001
0010
0000
0001
0000
,  // measure 31
0100
0010
1000
0000
0001
0000
1000
0010
,  // measure 32
0100
0000
0001
0000
0010
0100
1000
0000
,  // measure 33
0001
0000
1000
0100
1000
0000
0001
0000
,  // measure 34
1000
0010
1000
0000
0001
0000
0100
0000
,  // measure 35
0010
0000
0010
0001
0010
0000
1000
0000
,  // measure 36
0010
0100
0001
0000
1000
0000
0100
0000
,  // measure 37
1000
0000
0001
0010
0001
0000
1000
0000
,  // measure 38
0001
0100
0010
0000
1000
0000
0001
0000
,  // measure 39
0010
0000
0001
0100
0000
0100
1000
0000
,  // measure 40
1000
0010
0000
0010
0001
0000
1001
0000
,  // measure 41
1000
0000
0001
0010
0001
0000
1000
0000
,  // measure 42
0001
0100
0001
0000
1000
0000
0010
0000
,  // measure 43
0100
0000
0100
1000
0100
0000
0001
0000
,  // measure 44
0100
0010
1000
0000
0001
0000
0010
0000
,  // measure 45
0200
0010
2000
3300
,  // measure 46
0002
0010
2003
3001
,  // measure 47
0100
0010
1000
0000
0100
0010
0001
0000
,  // measure 48
2000
0000
0000
3000
,  // measure 49
2100
0000
0001
0000
0100
0000
3001
0010
,  // measure 50
0002
0000
1000
0000
0100
0000
0013
0100
,  // measure 51
1000
0000
0001
0100
0010
0000
0100
0001
,  // measure 52
1000
0000
0100
0010
0001
0000
1001
0000
,  // measure 53
0012
0000
1000
0000
0010
0000
1003
0100
,  // measure 54
2000
0000
0001
0000
0010
0000
3100
0010
,  // measure 55
0001
0000
1000
0010
0100
0000
0010
1000
,  // measure 56
0001
0000
0010
0100
1000
0000
1001
0000
,  // measure 57
1000
0100
0001
0000
0100
0000
1000
0000
,  // measure 58
0001
0100
1000
0000
0100
0000
0001
0100
,  // measure 59
0010
0000
1000
0100
0010
0000
0100
1000
,  // measure 60
0010
0000
0100
0001
0010
0000
0110
0000
,  // measure 61
0100
0010
0001
0000
1000
0000
0010
0000
,  // measure 62
0100
0010
1000
0000
0001
0000
0010
0000
,  // measure 63
0100
2000
0002
0000
0000
0000
0000
0000
,  // measure 64
3003
0000
0000
0000
,  // measure 65
2000
0000
0100
0000
3001
0100
0010
0000
,  // measure 66
2000
0000
0010
0000
3001
0010
0001
0000
,  // measure 67
1000
0000
0001
0000
0010
0100
0010
0000
,  // measure 68
0100
1000
0001
0000
0100
0010
1000
0000
,  // measure 69
0002
0000
0010
0000
1003
0010
0100
0000
,  // measure 70
0002
0000
0100
0000
1003
0100
1000
0000
,  // measure 71
0001
0000
0010
1000
0000
0010
0001
0000
,  // measure 72
0100
1000
0000
0100
0001
1000
0002
0000
,  // measure 73
0003
0000
0000
0000
;

//---------------dance-single - ----------------
#NOTES:
     dance-single:
     :
     Hard:
     12:
     0.540100,0.573576,0.203363,0.360507,0.000000,409.000000,387.000000,22.000000,39.000000,0.000000,0.000000,0.540100,0.573576,0.203363,0.360507,0.000000,409.000000,387.000000,22.000000,39.000000,0.000000,0.000000:
// measure 0
0000
0000
0000
0000
,  // measure 1
0000
0000
0000
0000
,  // measure 2
0000
0000
0000
0000
,  // measure 3
0000
0000
0000
0000
,  // measure 4
0000
0000
0000
0000
,  // measure 5
2000
0000
0000
3001
0000
0100
0010
0200
,  // measure 6
0000
0000
0301
0000
1000
0100
0010
0000
,  // measure 7
0001
0010
0001
1000
0100
1000
0001
0100
,  // measure 8
0001
1000
0010
1000
0100
0010
0001
0000
,  // measure 9
0012
0000
0000
0000
0103
0000
0000
2001
,  // measure 10
0000
3010
0110
1000
,  // measure 11
1200
0000
0000
0000
0310
0000
0000
1020
,  // measure 12
0000
0031
0201
0310
,  // measure 13
2010
0000
0000
0000
3100
0000
0000
1002
,  // measure 14
0000
0013
0110
0001
,  // measure 15
0201
0000
0000
0000
0310
0000
0000
0021
,  // measure 16
0030
0010
1000
1000
0100
0010
0001
0000
,  // measure 17
0012
0000
0003
0000
0100
0010
0100
0000
,  // measure 18
0000
0000
0001
1000
0100
1000
0001
0000
,  // measure 19
0021
0000
0030
0000
0100
1000
0001
0000
,  // measure 20
0000
0000
1000
0100
0001
0100
1000
0000
,  // measure 21
2100
0000
3000
0000
0010
0100
0010
0000
,  // measure 22
0000
0000
1000
0001
0010
0001
1000
0000
,  // measure 23
0001
0010
0100
1000
0001
0000
1000
0100
,  // measure 24
0010
0001
1000
0000
0001
0100
0010
0000
,  // measure 25
2010
0000
3000
0000
0100
0010
0100
0000
,  // measure 26
0000
0000
1000
0001
0100
0001
1000
0000
,  // measure 27
1020
0000
0030
0000
0100
0001
1000
0000
,  // measure 28
0000
0000
0001
0100
1000
0100
0001
0000
,  // measure 29
0102
0000
0003
0000
0010
0100
0010
0000
,  // measure 30
0000
0000
0001
1000
0010
1000
0001
0000
,  // measure 31
1000
0010
0100
0001
1000
0000
0001
0100
,  // measure 32
0010
1000
0001
0000
1000
0100
0010
0001
,  // measure 33
2000
0000
3100
0100
0002
0000
0103
0100
,  // measure 34
1000
0010
1000
0010
0100
0001
0010
0100
,  // measure 35
0010
0000
1000
1000
0010
0000
0001
0001
,  // measure 36
1000
0100
1000
0001
0100
0010
1000
0001
,  // measure 37
2000
0000
3100
1000
0001
0000
0010
0001
,  // measure 38
0100
0010
0100
0010
1000
0001
1000
0000
,  // measure 39
0100
0001
0100
1000
0100
1000
0010
0001
,  // measure 40
0010
1000
0010
1000
0001
0010
0100
1000
,  // measure 41
0002
0000
0013
0010
2000
0000
3010
0010
,  // measure 42
0001
0100
0001
0100
0010
1000
0100
0010
,  // measure 43
0200
0000
0301
0001
0100
0000
1000
1000
,  // measure 44
0001
0010
0001
1000
0010
0100
0001
1000
,  // measure 45
0002
0010
2003
0100
,  // measure 46
3020
0000
0100
0000
1030
0001
0100
0010
,  // measure 47
1000
0100
1000
0100
0010
0001
0010
0001
,  // measure 48
2000
0000
0000
3001
,  // measure 49
2001
0000
0010
0000
3100
0010
0001
1000
,  // measure 50
0002
0000
0100
0000
0013
0100
1000
0001
,  // measure 51
0000
0001
0100
1000
0000
1000
0100
0001
,  // measure 52
0000
0100
0010
1000
0001
0000
1001
0000
,  // measure 53
0002
0000
0010
0000
0103
0010
1000
0001
,  // measure 54
2000
0000
0100
0000
3010
0100
0001
1000
,  // measure 55
0000
1000
0100
0001
0000
0001
0100
1000
,  // measure 56
0000
0100
0010
0001
1000
0000
1001
0000
,  // measure 57
0001
0100
0001
0100
0010
1000
0100
0010
,  // measure 58
0100
1000
0001
1000
0000
0100
0010
0001
,  // measure 59
0000
0100
0010
1000
0000
0010
0100
0001
,  // measure 60
0000
0010
0100
1000
0001
0000
1001
0000
,  // measure 61
1000
0100
1000
0100
0010
0001
0100
0010
,  // measure 62
0100
0001
0100
0001
0010
0100
1000
0010
,  // measure 63
0100
0002
2000
0000
0000
0000
3003
0000
,  // measure 64
0020
0100
0001
1030
,  // measure 65
2010
0000
0100
0000
3001
0100
0010
1000
,  // measure 66
0002
0000
0010
0000
1003
0010
0100
0001
,  // measure 67
0010
0001
0010
0001
1000
0010
1000
0010
,  // measure 68
0100
0001
1000
0100
0001
0100
1000
0010
,  // measure 69
2000
0000
0010
0000
3001
0010
0100
1000
,  // measure 70
0002
0000
0100
0000
1003
0100
0010
0001
,  // measure 71
1000
0100
1000
0001
0010
0001
1000
0010
,  // measure 72
1000
0001
0100
0001
0010
0100
2000
0000
,  // measure 73
3000
0000
0000
0000
;

//---------------dance-double - ----------------
#NOTES:
     dance-double:
     :
     Easy:
     6:
     0.289198,0.337398,0.175632,0.378994,0.000000,219.000000,200.000000,19.000000,41.000000,0.000000,0.000000,0.289198,0.337398,0.175632,0.378994,0.000000,219.000000,200.000000,19.000000,41.000000,0.000000,0.000000:
00000000
00000000
00000000
00000000
,
00000000
00000000
00000000
00000000
,
00000000
00000000
00000000
00000000
,
00000000
00000000
00000000
00000000
,
00000000
00000000
00000000
00000000
,
00000200
00000000
00000300
00000000
,
00000002
00000000
00000003
00000000
,
00001000
00000000
00000010
00000000
,
00010000
00001000
00010000
00000000
,
00022000
00000000
00033000
00000000
,
00002000
00000000
00013000
00000000
,
02200000
00000000
03300000
00000000
,
20000000
00000000
30100000
00000000
,
02020000
00000000
03030000
00000000
,
00002000
00000000
00013000
00000000
,
00002200
00000000
00003300
00000000
,
00000020
00000000
00000031
00000000
,
00002002
00003003
00000010
00000010
,
00000000
00001000
00000100
00010000
,
00022000
00033000
00001000
00001000
,
00000000
01000000
00010000
10000000
,
22000000
33000000
00010000
00010000
,
00000000
00100000
00001000
00010000
,
00100000
00100000
01000000
00000000
,
00010000
00010000
10000000
00000000
,
20020000
30030000
00100000
00100000
,
00000000
00010000
01000000
00001000
,
00022000
00033000
00010000
00010000
,
00000000
00000100
00001000
00000001
,
00000202
00000303
00001000
00001000
,
00000000
00000010
00010000
00001000
,
00000010
00000010
00000100
00000000
,
00001000
00001000
00000001
00001000
,
00000010
00000010
00000010
00000000
,
00010000
00001000
00000100
00001000
,
00010000
00010000
00010000
00000000
,
00001000
00010000
00001000
00011000
,
00100000
00100000
00100000
00000000
,
00001000
00010000
01000000
00010000
,
00001000
00000000
00000000
00001000
00000000
00000000
00010000
00000000
,
00000000
00010000
00000000
00000000
00001000
00000000
00011000
00000000
,
01000000
01000000
01000000
00000000
,
00001000
00010000
00100000
00010000
,
00001000
00001000
00001000
00000000
,
00010000
00001000
00010000
00011000
,
00000200
00000000
00001300
00000000
,
02000000
00000000
03010000
00000000
,
00001000
00010000
00001000
00010000
,
00002000
00000000
00000000
00013000
,
00021000
00000000
00000010
00001000
,
00032000
00000000
01000000
00013000
,
00001000
00001000
00100000
00100000
,
01000000
00010000
00001000
00010000
,
00012000
00000000
00100000
00010000
,
00023000
00000000
00000100
00031000
,
00010000
00010000
00000010
00000010
,
00000100
00001000
00011000
00000000
,
00100000
00010000
00100000
00010000
,
10000000
00100000
10000000
01000000
,
01000000
00010000
00010000
00001000
,
00001000
00000100
00000001
00001001
,
00000001
00000010
00000001
00000010
,
00001000
00010000
00001000
00010000
,
02000000
00200000
00000000
00000000
,
03300000
00000000
00000000
00000000
,
20000000
00000000
31000000
00010000
,
02000000
00000000
13000000
00100000
,
00010000
00010000
00001000
00001000
,
00000010
00000001
00001000
00001001
,
00000002
00000000
00000103
00001000
,
00000200
00000000
00000301
00000010
,
00001000
00001000
00010000
00010000
,
00100000
10000000
00010000
20020000
,
30030000
00000000
00000000
00000000
;

//---------------dance-double - ----------------
#NOTES:
     dance-double:
     :
     Medium:
     10:
     0.430495,0.472356,0.184875,0.360507,0.000000,326.000000,306.000000,20.000000,39.000000,0.000000,0.000000,0.430495,0.472356,0.184875,0.360507,0.000000,326.000000,306.000000,20.000000,39.000000,0.000000,0.000000:
00000000
00000000
00000000
00000000
,
00000000
00000000
00000000
00000000
,
00000000
00000000
00000000
00000000
,
00000000
00000000
00000000
00000000
,
00000000
00000000
00000000
00000000
,
20000000
00000000
00000000
00000000
30000000
00100000
00000000
00200000
,
00000000
01300000
00010000
10000000
,
01000000
00000000
10000000
00100000
00000000
00100000
00010000
00000000
,
00001000
00000010
00000000
00000010
00000001
00000000
00001000
00000000
,
00002002
00000000
00003003
00000000
00000100
00000000
00000000
00000020
,
00000000
00000130
00001100
00000001
,
00000202
00000000
00000303
00000000
00000010
00000000
00000000
00012000
,
00000000
00103000
00110000
10000000
,
20020000
00000000
30030000
00000000
01000000
00000000
00000000
00200000
,
00000000
01300000
01010000
10000000
,
22000000
00000000
33000000
00000000
00100000
00000000
00000000
00021000
,
00000000
00000000
00030010
00000000
00001000
00000100
00000010
00000000
,
00000012
00000000
00000000
00000000
00001003
00000100
00001000
00000000
,
00000000
00000000
00000010
00001000
00000100
00000000
00010000
00000000
,
00012000
00000000
00000000
00000000
01003000
00010000
01000000
00000000
,
00000000
00000000
00010000
00100000
01000000
00000000
10000000
00000000
,
21000000
00000000
00000000
00000000
31000000
00100000
01000000
00000000
,
00000000
00000000
10000000
00010000
01000000
00000000
00100000
00000000
,
10000000
00100000
01000000
00000000
00010000
00000000
00100000
01000000
,
00010000
00000000
00001000
00000000
00010000
01000000
10000000
00000000
,
21000000
00000000
00000000
00000000
30010000
00100000
00010000
00000000
,
00000000
00000000
01000000
00010000
00100000
00000000
00001000
00000000
,
00021000
00000000
00000000
00000000
00030010
00001000
00000010
00000000
,
00000000
00000000
00001000
00000100
00000010
00000000
00000001
00000000
,
00000012
00000000
00000000
00000000
00000013
00000100
00000010
00000000
,
00000000
00000000
00000001
00001000
00000010
00000000
00000100
00000000
,
00000001
00000100
00000010
00000000
00001000
00000000
00000100
00000010
,
00001000
00000000
00010000
00000000
00001000
00000010
00000001
00000000
,
00000110
00000000
00001000
00000100
00001000
00000000
00000001
00000000
,
00000010
00000100
00000010
00000000
00001000
00000000
00010000
00000000
,
00100000
00000000
00100000
01000000
00100000
00000000
10000000
00000000
,
00010000
00100000
01000000
00000000
10000000
00000000
00010000
00000000
,
10000000
00000000
00100000
01000000
00100000
00000000
01000000
00000000
,
00001000
00010000
00001000
00000000
00010000
00000000
00000100
00000000
,
00000010
00000000
00000010
00001000
00000000
00001000
00010000
00000000
,
00010000
00100000
00000000
00100000
10000000
00000000
01000000
00000000
,
01100000
00000000
00010000
00100000
00010000
00000000
10000000
00000000
,
01000000
00100000
01000000
00000000
00010000
00000000
00001000
00000000
,
00000100
00000000
00000100
00000010
00000100
00000000
00000001
00000000
,
00001000
00000100
00000010
00000000
00000001
00000000
00001000
00000000
,
00000020
00000100
00002000
00003030
,
00000200
00001000
00020300
00031000
,
00100000
00010000
01000000
00000000
00100000
10000000
01000000
00000000
,
00200000
00000000
00000000
00300000
,
00020000
00000000
01000000
00000000
10000000
00000000
00130000
00010000
,
00002000
00000000
00000100
00000000
00000001
00000000
00003010
00010000
,
00001000
00000000
01000000
00001000
00010000
00000000
00000100
00010000
,
00001000
00000000
00100000
00001000
00010000
00000000
00001010
00000000
,
00002000
00000000
00000100
00000000
00000001
00000000
00003010
00001000
,
00020000
00000000
01000000
00000000
10000000
00000000
00130000
00001000
,
00010000
00000000
00000100
00010000
00001000
00000000
01000000
00001000
,
00010000
00000000
00000010
00010000
00001000
00000000
00110000
00000000
,
10000000
02000000
00000000
03200000
00000000
00310000
00000000
00001000
,
00000100
00000020
00000000
00000031
00000000
00001000
00000100
00000010
,
00000000
00000001
00000100
00000010
00000000
00001000
00000100
00010000
,
00000000
00001000
00010000
00001000
00010000
00000000
00011000
00000000
,
00001000
01000000
00100000
00000000
00010000
00000000
00001000
00000000
,
00010000
00000100
00000010
00000000
00001000
00000000
00010000
00000000
,
00000010
00002000
00000002
00000000
00000000
00000000
00000000
00000000
,
00003003
00000000
00000000
00000000
,
00000002
00000000
00000010
00000000
00001003
00000010
00000100
00000001
,
00002000
00000000
00000010
00000000
00003100
00010000
00001000
00000000
,
00100000
00000000
00100000
00000000
01000000
10000000
00010000
00000000
,
00100000
00010000
01000000
00000000
00100000
10000000
01000000
00000000
,
20000000
00000000
01000000
00000000
30010000
01000000
00100000
10000000
,
00020000
00000000
01000000
00000000
00130000
00001000
00010000
00000000
,
01000000
00000000
10000000
01000000
00000000
01000000
00010000
00000000
,
00001000
00000100
00000000
00000100
00000001
00001000
00000002
00000000
,
00000003
00000000
00000000
00000000
;

//---------------dance-double - ----------------
#NOTES:
     dance-double:
     :
     Hard:
     13:
     0.567831,0.607316,0.175632,0.406726,0.004622,430.000000,411.000000,19.000000,44.000000,0.000000,0.000000,0.567831,0.607316,0.175632,0.406726,0.004622,430.000000,411.000000,19.000000,44.000000,0.000000,0.000000:
00000000
00000000
00000000
00000000
,
00000000
00000000
00000000
00000000
,
00000000
00000000
00000000
00000000
,
00000000
00000000
00000000
00000000
,
00000000
00000000
00000000
00000000
,
20000000
00000000
00000000
30010000
00000000
01000000
00100000
02000000
,
00000000
00000000
03001000
00000000
00010000
00001000
00010000
00000000
,
00001000
00000010
00001000
00000010
00000001
00000010
00000001
00000100
,
00000001
00000100
00001000
00000100
00001000
00010000
00001000
00000000
,
00021000
00000000
00000000
00000000
01030000
00000000
00000000
21000000
,
00000000
30010000
00110000
10000000
,
10200000
00000000
00000000
00000000
01300000
00000000
00000000
00120000
,
00000000
00000000
00031000
00000000
01000000
00001000
00010000
00000000
,
00012000
00000000
00000000
00000000
00003010
00000000
00000000
00000012
,
00000000
00001003
00001100
00000001
,
00000201
00000000
00000000
00000000
00000310
00000000
00000000
00001200
,
00000300
00000010
00001000
00001000
00000100
00000010
00000001
00000000
,
00000210
00000000
00000300
00000000
00010000
00001000
00010000
00000020
,
00000000
00001030
00000100
00010000
00001000
01000000
00001000
00000000
,
00012000
00000000
00003000
00000000
00100000
00010000
10000000
00020000
,
00000000
00030000
00100000
01000000
10000000
01000000
00100000
00000000
,
01200000
00000000
00300000
00000000
00001000
00010000
00001000
02000000
,
00000000
03100000
01000000
00001000
00010000
00000100
00010000
00000000
,
00001000
00000010
00000100
00000010
00001000
00000000
00010000
00100000
,
01000000
00100000
00010000
00000000
00001000
00010000
00100000
00000000
,
02100000
00000000
03000000
00000000
00001000
00010000
00001000
00200000
,
00000000
00300000
00100000
00001000
00010000
00000100
00010000
00000000
,
00021000
00000000
00030000
00000000
00000010
00001000
00000001
00002000
,
00000000
00003000
00000010
00000100
00000001
00000100
00000010
00000000
,
00000120
00000000
00000030
00000000
00010000
00001000
00010000
00000200
,
00000000
00000310
00000100
00010000
00001000
01000000
00001000
00000000
,
00010000
00100000
01000000
00100000
00010000
00000000
00001000
00000010
,
00000100
00000010
00001000
00000000
00010000
01000000
10000000
00010000
,
20000000
00000000
31000000
01000000
00020000
00000000
01030000
01000000
,
10000000
00100000
10000000
00100000
01000000
00010000
00100000
00001000
,
00100000
00000000
00001000
00010000
00000010
00000000
00010000
00001000
,
00100000
00010000
00100000
00010000
10000000
00100000
01000000
00010000
,
20000000
00000000
31000000
00010000
01000000
00000000
00100000
00001000
,
00010000
00000100
00010000
00001000
00010000
00000010
00001000
00000001
,
00000100
00001000
00001000
00010000
00001000
00001000
00000010
00001000
,
00001000
00000000
00100000
00000000
00001000
00000000
00001000
00000000
00010000
00001000
00010000
00000000
00001000
00000000
00000100
00000000
,
00000002
00000000
00000103
00000100
00002000
00000000
00003100
00000100
,
00000001
00000010
00000001
00000010
00000100
00001000
00000010
00010000
,
00000010
00000000
00010000
00001000
00100000
00000000
00001000
00010000
,
00000010
00001000
00000010
00001000
00000001
00000010
00000100
00001000
,
00000020
00001000
00020030
00001000
,
00030200
00000000
00000010
00000000
00001300
00000001
00000100
00000010
,
00001000
00000100
00001000
00000100
00010000
00001000
00010000
00001000
,
00020000
00000000
00000000
00130000
,
10020000
00000000
01000000
00000000
10030000
01000000
00100000
00010000
,
00002000
00000000
00000100
00000000
00003001
00000100
00000010
00001000
,
00000100
00000010
00000100
00000010
00001000
00010000
00001000
00010000
,
01000000
10000000
00100000
00010000
00001000
00000100
00000001
00000000
,
00002001
00000000
00000100
00000000
00003001
00000100
00000010
00001000
,
00020000
00000000
01000000
00000000
10030000
01000000
00100000
00010000
,
01000000
00100000
01000000
00100000
00010000
00001000
00010000
00001000
,
00000100
00000001
00000010
00001000
00010000
01000000
10000000
00000000
,
00010000
00100000
00010000
00100000
01000000
10000000
00010000
01000000
,
00100000
10000000
00100000
10000000
00010000
00100000
01000000
00010000
,
00001000
00010000
00001000
00000100
00000001
00000100
00000001
00001000
,
00000010
00000100
00000001
00000010
00001000
00010000
00200000
00000000
,
10300000
00010000
10000000
00010000
00100000
01000000
10000000
01000000
,
00100000
00010000
00100000
00001000
00010000
00000010
00001000
00000100
,
00000010
00000002
00002000
00000000
00000000
00000000
00003003
00000000
,
00020000
00000010
00000100
00031000
,
00012000
00000000
00100000
00000000
00013000
00100000
01000000
00100000
,
20000000
00000000
01000000
00000000
30010000
00100000
01000000
10000000
,
00100000
01000000
00100000
01000000
00010000
00100000
00010000
00100000
,
00001000
00010000
01000000
10000000
01000000
00010000
00001000
00000000
,
00020000
00000000
00000100
00000000
00031000
00000100
00000010
00000100
,
00000002
00000000
00000010
00000000
00001003
00000100
00000010
00000001
,
00001000
00000010
00001000
00000100
00000010
00000100
00010000
00001000
,
00010000
00100000
01000000
00100000
10000000
01000000
00020000
00000000
,
00030000
00000000
00000000
00000000
;

//---------------dance-double - ----------------
#NOTES:
     dance-double:
     :
     Challenge:
     14:
     0.697244,0.708535,0.157144,0.434457,0.203363,528.000000,511.000000,17.000000,47.000000,0.000000,0.000000,0.697244,0.708535,0.157144,0.434457,0.203363,528.000000,511.000000,17.000000,47.000000,0.000000,0.000000:
00000000
00000000
00000000
00000000
,
00000000
00000000
00000000
00000000
,
00000000
00000000
00000000
00000000
,
00000000
00000000
00000000
00000000
,
00000000
00000000
00000000
00000000
,
00000012
00000000
00001003
00000010
00000000
00000010
00000100
00002000
,
00000000
00013000
00001000
00000000
01000000
00001000
00010000
01000000
,
00100000
00010000
00100000
00001000
00010000
00001000
00000100
00000010
,
00000100
00000000
00000001
00000000
00000010
00000000
00000001
00000000
00000100
00000010
00000100
00000010
00001000
00000000
00000001
00000000
,
00002002
00000000
00003003
00001000
00000100
00000100
00010000
00002000
,
00000000
00013000
00100000
00010000
00011000
00001000
01000000
00010000
,
20010000
00000000
30000000
01000000
10000000
10000000
00100000
20000000
,
00000000
31000000
00100000
01000000
01100000
00010000
10000000
00100000
,
02020000
00000000
03030000
00010000
00100000
00100000
00001000
00020000
,
00000000
00031000
00000200
00000300
00000110
00000000
00000010
00001000
,
00001002
00000000
00000003
00000100
00000001
00000001
00000010
00000002
,
00000000
00000000
00000103
00000000
00000010
00000100
00000010
00000000
00001000
00000100
00001000
00000100
00010000
00001000
00010000
00000000
,
00022000
00000000
00000000
00000000
00000000
00000000
00033000
00000000
00000000
00000000
00000000
00000000
00001000
00000000
00010000
00000000
01000000
00000000
10000000
00000000
00000000
00200000
00000000
00000000
,
00000000
00000000
00000000
10300000
00000000
00000000
01000000
00000000
00000000
01000000
00000000
00000000
00100000
00000000
00010000
00000000
10000000
00000000
00010000
00000000
00000000
00000000
00000000
00000000
,
20020000
00000000
00000000
00000000
30030000
00000000
00010000
01000000
00010000
00000000
10000000
00000000
00100000
00000000
02000000
00000000
,
00000000
03001000
00010000
00010000
00001000
00100000
00010000
00000000
,
00202000
00000000
00000000
00000000
00000000
00000000
00303000
00000000
00000000
00000000
00000000
00000000
00100000
00000000
00001000
00000000
00000010
00000000
00000001
00000000
00000000
00002000
00000000
00000000
,
00000000
00003001
00000010
00000010
00000100
00001000
00000020
00000000
,
00010030
00001000
00000100
00001000
00020000
00000000
00031000
00010000
,
01000000
00010000
00002000
00000000
00103000
00010000
10000000
00000000
,
20020000
00000000
00000000
00000000
00000000
00000000
30030000
00000000
00000000
00000000
00000000
00000000
00010000
00000000
01000000
00000000
00100000
00000000
10000000
00000000
00000000
02000000
00000000
00000000
,
00000000
00000000
03100000
00000000
00010000
10000000
00010000
00000000
00100000
00000000
00001000
00000000
00010000
00000000
00000000
00000000
,
00020200
00000000
00000000
00000000
00000000
00000000
00030300
00000000
00000000
00000000
00000000
00000000
00010000
00000000
00001000
00000000
00000100
00000000
00000001
00000000
00000000
00000020
00000000
00000000
,
00000000
00000031
00000100
00000100
00000010
00001000
00000001
00000000
,
00000220
00000000
00000000
00000000
00000000
00000000
00000330
00000000
00000000
00000000
00000000
00000000
00000001
00000000
00000010
00000000
00000100
00000000
00001000
00000000
00000000
00000020
00000000
00000000
,
00000000
00001030
00000100
00000100
00010000
00001000
00020000
00000000
,
00031000
00010000
00100000
00010000
00001000
00000000
00010000
00001000
,
00000010
00000000
00001000
00000000
00020000
00000000
00000000
00000000
00030100
00001000
00000100
00001000
00000001
00000100
00000010
00001000
,
00000001
00000001
00000010
00000100
00001000
00001000
00000100
00000010
,
00000001
00000100
00000001
00000100
00000010
00001000
00000100
00010000
,
00000010
00000010
00010000
00001000
00100000
00100000
00001000
00010000
,
00100000
01000000
10000000
01000000
00010000
10000000
01000000
00100000
,
01000000
01000000
10000000
00010000
01000000
01000000
00100000
10000000
,
00010000
00100000
00010000
00100000
01000000
10000000
01000000
00010000
,
00001000
00001000
00000100
00001000
00001000
00010000
00001000
00001000
,
00000010
00000000
00001000
00000000
00001000
00000000
00010000
00000000
00100000
10000000
00100000
10000000
00010000
00100000
01000000
10000000
,
00010000
00010000
10000000
01000000
00100000
00100000
00010000
10000000
,
00100000
00010000
00100000
00010000
00001000
01000000
00100000
00010000
,
00001000
00001000
00010000
00001000
00000010
00000010
00000100
00001000
,
00000001
00000100
00000001
00000100
00000010
00001000
00000100
00010000
,
00002000
00000000
00103000
00001000
00020000
00000000
00030100
00010000
,
00002000
00000000
01003000
00001000
00010000
00001000
00010000
00000010
,
00001000
00001000
00000100
00000100
00000010
00000010
00000001
00001000
,
00000020
00000100
00001000
00010030
,
00011000
00000000
00001000
00000000
01000000
00000000
00001000
00000000
00010000
00000000
00001000
00000000
00100000
00000000
00010000
10000000
,
00010000
00000000
10000000
00000000
01000000
00000000
10000000
00000000
00100000
00000000
10000000
00000000
00010000
00000000
10000000
01000000
,
10000000
00000000
01000000
00000000
00100000
00000000
00010000
01000000
00010000
00000000
01000000
00000000
00100000
00000000
00010000
00001000
,
00010000
00001000
00000100
00000001
00000010
00001000
00020000
00000000
,
00031000
00000000
00010000
00000000
00000100
00000000
00010000
00000000
00001000
00000000
00010000
00000000
00000010
00000000
00001000
00000001
,
00001000
00000000
00000001
00000000
00000100
00000000
00000001
00000000
00000010
00000000
00000001
00000000
00001000
00000000
00000001
00000100
,
00000001
00000000
00000100
00000000
00000010
00000000
00001000
00000100
00001000
00000000
00000100
00000000
00000010
00000000
00001000
00010000
,
00001000
00010000
01000000
10000000
00100000
00010000
00002000
00000000
,
01003000
00010000
01000000
00010000
10000000
01000000
00100000
00010000
,
10000000
00000000
00100000
00000000
10000000
00000000
00100000
00000000
01000000
00000000
00010000
00000000
00100000
00000000
00001000
00010000
,
00001000
00000000
00100000
00000000
00010000
00000000
10000000
00100000
10000000
00000000
00010000
00000000
00100000
00000000
01000000
10000000
,
01000000
00010000
00001000
00010000
00001000
00000100
00000002
00000000
,
00001003
00000010
00001000
00000010
00000100
00000001
00000010
00000100
,
00010000
00001000
00010000
00001000
01000000
00010000
00100000
00010000
,
10000000
00100000
02000000
00000000
10000000
00000000
00100000
00000000
,
03010000
10000000
01000000
00000000
10000000
01000000
00010000
00000000
01000000
00010000
00001000
00000000
00011000
00000000
00000000
00000000
,
00002010
00000000
00000100
00000000
00003001
00000100
00000010
00001000
,
00010000
01000000
00010000
01000000
00100000
10000000
01000000
00100000
,
01000000
10000000
00010000
00100000
00010000
10000000
00100000
10000000
,
01000000
00010000
01000000
00010000
00001000
00010000
00100000
10000000
,
00020000
00000000
01000000
00000000
10030000
01000000
00100000
00010000
,
00001000
00000100
00001000
00000100
00000010
00000001
00000100
00000010
,
00000100
00001000
00000100
00000010
00001000
00000010
00010000
00001000
,
00010000
00000000
01000000
00000000
00100000
00000000
01000000
00000000
10000000
00010000
10000000
00010000
20000000
00000000
00000000
00000000
,
30000000
00000000
00000000
00000000
;
