#TITLE:Pretty Baby;
#SUBTITLE:;
#ARTIST:Redondo vs. Rockefeller;
#TITLETRANSLIT:;
#SUBTITLETRANSLIT:;
#ARTISTTRANSLIT:;
#GENRE:Spinnin' Records;
#CREDIT:;
#BANNER:Pretty Baby.png;
#BACKGROUND:Pretty Baby-bg.png;
#LYRICSPATH:;
#CDTITLE:../cdtitle.png;
#MUSIC:Pretty Baby.ogg;
#OFFSET:1.287000;
#SAMPLESTART:53.912998;
#SAMPLELENGTH:15.000000;
#LASTBEATHINT:0.597917;
#SELECTABLE:YES;
#BPMS:0.000000=124.999992
;
#STOPS:
;
#BGCHANGES:2.750=Pretty Baby.avi=1.000=0=0=0=StretchNoLoop====,
99999=-nosongbg-=1.000=0=0=0 // don't automatically add -songbackground-
;
#KEYSOUNDS:;
#ATTACKS:;

//---------------dance-single - ----------------
#NOTES:
     dance-single:
     :
     Hard:
     9:
     0.390294,0.424411,0.339152,0.000000,0.000000,290.000000,254.000000,36.000000,0.000000,0.000000,0.000000,0.390294,0.424411,0.339152,0.000000,0.000000,290.000000,254.000000,36.000000,0.000000,0.000000,0.000000:
0000
0000
0000
0000
,
0000
0000
0000
0000
,
0000
0000
0000
0000
,
0000
0000
0000
0000
,
0000
0000
0000
0000
,
1100
0101
1100
0101
,
1010
0011
1010
0011
,
1000
0010
0001
0010
1000
0100
0001
0100
,
0010
0010
0010
0010
0010
0010
0010
0000
,
0100
1000
0001
0000
1000
0000
0000
0000
,
0001
0100
0010
1000
0001
0000
0000
0000
,
0010
0100
1000
0100
0010
0000
0010
0000
,
0001
1000
0010
0000
0000
0000
0010
0000
,
0100
0001
1000
0000
0001
0000
0000
0000
,
1000
0100
0010
0001
1000
0000
0000
0000
,
0010
0100
0001
0100
0010
0000
0010
0000
,
1000
0000
0001
0010
0100
0000
0000
0000
,
0010
0001
1000
0000
0001
0000
0000
0000
,
1000
0010
0100
0010
1000
0000
0000
0000
,
0100
0001
0100
1000
0100
0000
0001
0000
,
0100
1000
0010
0000
0000
0000
0010
0000
,
0100
0001
1000
0000
0001
0000
0000
0000
,
1000
0100
0010
0100
1000
0000
0000
0000
,
0010
0001
0010
1000
0010
0000
0001
0000
,
0010
0000
1000
0100
0010
0000
0100
0010
,
0100
0101
1000
1001
,
0010
0011
0010
1010
,
1001
1100
0011
0110
,
1000
0001
1000
0001
1000
0001
0100
0000
,
0110
0000
0001
1000
0100
0000
0110
0000
,
0001
1000
0100
1000
0010
0000
1010
0000
,
0100
0001
0010
0000
0100
1000
0010
0000
,
0001
0010
1000
0000
0001
0000
1001
0000
,
0100
0001
0010
0000
1000
0000
0110
0000
,
0001
1000
0010
0100
0010
0000
0110
0000
,
1000
0100
0001
0000
0001
0010
1000
0000
,
0001
0001
1000
0000
,
1001
0000
1000
0100
0001
0000
0011
0000
,
1000
0010
0001
0100
1000
0000
1100
0000
,
0010
0100
0001
0000
0010
0100
0010
0000
,
0001
1000
0010
0000
0100
0000
0110
0000
,
1001
0000
0001
0010
1000
0000
1100
0000
,
0001
0100
1000
0010
0001
0000
0011
0000
,
0100
0010
1000
0000
0100
0010
0100
0000
,
1000
0000
1000
0000
1000
0010
1000
0010
,
0100
0001
0010
0100
0010
0000
0100
1000
,
0010
1100
0010
0101
,
1000
0010
0100
0001
0010
0000
0100
0010
,
1000
1010
0001
0011
,
0010
0001
0100
0010
0100
0000
0010
1000
,
0100
1010
0100
0011
,
1000
0100
0010
0001
0100
0000
0010
0100
,
1000
0000
1100
0000
0100
0001
0010
1000
,
0001
0000
0000
0000
;

//---------------dance-single - ----------------
#NOTES:
     dance-single:
     :
     Medium:
     8:
     0.331077,0.424411,0.244943,0.000000,0.000000,246.000000,220.000000,26.000000,0.000000,0.000000,0.000000,0.331077,0.424411,0.244943,0.000000,0.000000,246.000000,220.000000,26.000000,0.000000,0.000000,0.000000:
0000
0000
0000
0000
,
0000
0000
0000
0000
,
0000
0000
0000
0000
,
0000
0000
0000
0000
,
0000
0000
0000
0000
,
0010
0010
0010
0010
,
0010
0010
0010
0010
,
0100
0010
0100
0010
0100
0010
0100
0010
,
1000
0100
0001
1000
0010
0001
0011
0000
,
0100
0100
0110
0000
,
0001
0100
0010
0000
1000
0000
0000
0000
,
0100
0010
0100
0000
0100
0000
0010
0000
,
0001
1000
0000
0001
,
1000
1000
1100
0000
,
1000
0001
0100
0000
0010
0000
0000
0000
,
0100
0001
1000
0000
0100
0000
0100
0000
,
1000
1000
0001
0000
,
0100
0100
0110
0000
,
1000
0100
0010
0000
0001
0000
0000
0000
,
0100
0010
0100
0000
0100
0000
0010
0000
,
1000
0001
0000
1000
,
0001
0001
0101
0000
,
0001
1000
0100
0000
0010
0000
0000
0000
,
0100
1000
0001
0000
0100
0000
0100
0000
,
0001
0001
1000
0001
,
1000
1100
1000
1001
,
1000
1100
1000
1010
,
0011
0001
0101
0001
,
1001
0000
0110
0000
1000
0100
0001
0000
,
1010
0100
1010
0001
,
0010
0100
0001
0100
0010
0000
0001
0000
,
1000
0100
1000
0000
0001
0000
1000
0000
,
0010
0100
0010
0000
0000
0000
0010
0000
,
1100
0010
1100
0001
,
0100
0010
0001
0010
0100
0000
0001
0000
,
1000
0100
0001
0000
0100
1000
0010
0000
,
0001
0001
1000
0000
,
0110
0001
0110
1000
,
0100
0001
0100
1000
0100
0000
0110
0000
,
1000
0010
0001
0000
0010
0000
0010
0000
,
1000
0100
0001
0000
0000
0000
0100
0000
,
0110
1000
0110
0001
,
0010
1000
0010
0001
0010
0000
0110
0000
,
0001
0010
0100
0000
1000
0010
0001
0000
,
0010
0000
0010
0000
0010
0010
0100
0010
,
1000
0001
0010
0000
0100
1000
0001
0000
,
0010
0010
1010
0000
,
1000
0100
1000
0000
0010
0001
0010
0000
,
0100
0100
0101
0000
,
0001
1000
0010
0000
0100
0001
1000
0000
,
0010
0010
0011
0000
,
0001
0100
0001
0000
0010
1000
0010
0000
,
0100
0000
0100
0000
1000
0010
0001
0100
,
1000
0000
0000
0000
;

//---------------dance-single - ----------------
#NOTES:
     dance-single:
     :
     Easy:
     6:
     0.259748,0.399446,0.263785,0.000000,0.000000,193.000000,165.000000,28.000000,0.000000,0.000000,0.000000,0.259748,0.399446,0.263785,0.000000,0.000000,193.000000,165.000000,28.000000,0.000000,0.000000,0.000000:
0000
0000
0000
0000
,
0000
0000
0000
0000
,
0000
0000
0000
0000
,
0000
0000
0000
0000
,
0000
0000
0000
0000
,
1000
0100
0001
0100
,
1000
0010
0001
0010
,
1000
1000
1000
1000
,
0010
0010
0010
0010
,
0100
0000
0100
0000
,
0010
1000
0001
0000
,
0001
0010
1000
0100
,
0001
1000
0000
1000
,
0010
0000
0010
0000
,
0100
0001
1000
0000
,
1000
0100
0001
0010
,
1000
0100
0001
0100
,
1001
0001
1000
0000
,
0001
0100
1000
0000
,
0001
0100
1000
0100
,
0001
0100
0000
0001
,
0001
1000
0001
0000
,
1000
0010
0001
0000
,
1000
0010
0001
0010
,
1000
0010
0001
0010
,
1000
0000
1000
0000
,
1000
0000
1000
0000
,
1000
0100
0001
0010
,
1000
1000
1000
0000
,
0110
1001
0110
0000
,
0010
0010
0001
0000
,
1000
0010
0100
0001
,
1000
0001
0000
0001
,
0101
1100
0110
0000
,
0010
0010
0100
0000
,
0100
0010
1000
0001
,
0100
0100
0100
0000
,
0110
1001
0110
0000
,
0100
0100
0001
0000
,
1000
0100
0010
0001
,
1000
0001
0000
0001
,
0011
1010
0110
0000
,
0100
0100
0010
0000
,
0010
0100
1000
0001
,
0010
0010
0010
0010
,
0110
0011
1100
0101
,
1001
0100
0110
0010
,
0110
0100
0001
1000
,
0010
0010
0101
0010
,
1100
0101
1001
1010
,
0011
0010
1001
0100
,
0110
0010
1000
0001
,
0010
0010
1000
0100
,
0001
0000
0000
0000
;

//---------------dance-single - ----------------
#NOTES:
     dance-single:
     :
     Beginner:
     3:
     0.111705,0.174758,0.037684,0.000000,0.000000,83.000000,79.000000,4.000000,0.000000,0.000000,0.000000,0.111705,0.174758,0.037684,0.000000,0.000000,83.000000,79.000000,4.000000,0.000000,0.000000,0.000000:
0000
0000
0000
0000
,
0000
0000
0000
0000
,
0000
0000
0000
0000
,
0000
0000
0000
0000
,
0000
0000
0000
0000
,
1000
0000
0001
0000
,
1000
0000
0001
0000
,
0100
0100
0100
0000
,
0010
0010
0010
0010
,
0000
0000
0000
0000
,
0000
0000
0000
0000
,
0000
0000
0000
0000
,
0000
0000
0000
0000
,
0000
0000
0000
0000
,
0000
0000
0000
0000
,
0000
0000
0000
0000
,
0000
0000
0000
0000
,
0000
1000
1000
0000
,
0001
0000
1000
0000
,
0001
0000
0010
0000
,
0100
0000
0000
0000
,
0000
0001
0001
0000
,
1000
0000
0001
0000
,
1000
0000
0010
0000
,
0100
0000
0000
0000
,
1000
0000
1000
0000
,
1000
0000
1000
0000
,
0001
0000
0001
0000
,
0100
0100
0100
0000
,
0110
0000
0010
0000
,
1000
0000
0001
0000
,
1000
0000
0100
0000
,
0001
0000
0000
0000
,
1001
0000
0001
0000
,
0100
0000
0010
0000
,
0100
0000
1000
0000
,
0010
0000
0000
0000
,
0110
0000
0100
0000
,
0001
0000
1000
0000
,
0001
0000
0010
0000
,
1000
0000
0000
0000
,
1001
0000
1000
0000
,
0010
0000
0100
0000
,
0010
0000
0001
0000
,
0100
0000
0000
0000
,
0001
0000
0001
0000
,
1000
0000
0001
0000
,
0010
0000
0010
0000
,
0100
0000
1000
0000
,
0010
0000
0010
0000
,
0100
0000
0001
0000
,
1000
0000
1000
0000
,
0001
0000
1000
0000
,
0001
0000
0000
0000
;

//---------------dance-single - ----------------
#NOTES:
     dance-single:
     :
     Challenge:
     10:
     0.386257,0.424411,0.226102,0.131893,0.000000,287.000000,263.000000,24.000000,14.000000,128.000000,0.000000,0.386257,0.424411,0.226102,0.131893,0.000000,287.000000,263.000000,24.000000,14.000000,128.000000,0.000000:
0000
0000
0000
0000
,
0000
0000
0000
0000
,
0000
0000
0000
0000
,
0000
0000
0000
0000
,
0000
0000
0000
0000
,
2010
3000
0102
0003
2100
3000
0012
0003
,
0210
0300
2001
3000
0120
0030
1002
0003
,
1000
0100
0001
0100
1000
0010
0001
0010
,
1000
1000
0001
0001
0100
0010
MMMM
0000
,
1001
0000
1000
0100
0010
0000
MMMM
0000
,
1000
0100
0001
0100
1000
0000
MMMM
0000
,
1000
0001
0100
0000
0010
1000
0100
0000
,
0001
0100
0010
0000
MMMM
0000
0100
0000
,
1001
0000
0001
0010
0100
0000
MMMM
0000
,
0001
0010
1000
0010
0001
0000
MMMM
0000
,
0001
1000
0010
0000
0100
0001
0010
0000
,
1000
0000
0010
0100
0010
0000
MMMM
0000
,
0110
0000
0001
1000
0010
0000
MMMM
0000
,
0001
1000
0100
1000
0001
0000
MMMM
0100
,
1000
0010
0100
0001
0100
0010
1000
0001
,
0010
0100
1000
0000
0001
0000
MMMM
0000
,
0110
0000
1000
0001
0100
0000
MMMM
0000
,
1000
0001
0010
0001
1000
0000
MMMM
0010
,
0001
0100
0010
1000
0010
0100
0001
1000
,
0100
0000
0100
0010
0001
0000
1000
0100
,
MMMM
0000
1001
0100
1000
0000
1001
0100
,
0001
0000
1001
0100
1000
0000
0101
0001
,
1000
MMMM
0001
MMMM
1000
MMMM
0001
MMMM
,
0010
0100
0100
0010
0010
0100
MMMM
0000
,
1001
0000
0100
1000
0010
0000
MMMM
0001
,
1000
0100
0010
0100
1000
0000
MMMM
0100
,
0001
0010
0100
1000
0100
0010
0001
1000
,
0010
0100
0001
0000
MMMM
0000
0100
0000
,
1001
0000
0100
0001
0010
0000
MMMM
1000
,
0001
0100
0010
0100
0001
0000
MMMM
0100
,
1000
0010
0100
0001
0100
0010
1000
0001
,
1000
0000
2000
0000
0002
3003
MMMM
0000
,
1100
0000
0001
0100
1000
0000
MMMM
0010
,
1000
0100
0001
0100
0010
0000
MMMM
1000
,
0001
0100
0010
1000
0001
1000
0010
0100
,
0001
1000
0100
0000
0010
0000
MMMM
0000
,
0011
0000
1000
0010
0001
0000
MMMM
0100
,
0001
0010
1000
0010
0100
0000
MMMM
0001
,
1000
0010
0100
0001
1000
0001
0100
0010
,
1000
0000
1000
0000
0100
0010
0100
0010
,
1001
0010
0100
0010
1000
0000
0001
0100
,
0020
1000
0031
MMMM
,
0110
1000
0001
1000
0100
0000
0010
0001
,
2000
0100
3010
MMMM
,
1001
0100
0010
0100
0001
0000
1000
0010
,
0200
0001
1300
MMMM
,
0110
0001
1000
0001
0010
0000
0100
1000
,
0002
0000
0010
0000
0103
0010
1000
0000
,
0001
0000
0000
0000
;

//---------------dance-double - ----------------
#NOTES:
     dance-double:
     :
     Hard:
     9:
     0.374144,0.424411,0.263785,0.000000,0.000000,278.000000,250.000000,28.000000,0.000000,0.000000,0.000000,0.374144,0.424411,0.263785,0.000000,0.000000,278.000000,250.000000,28.000000,0.000000,0.000000,0.000000:
// measure 0
00000000
00000000
00000000
00000000
,  // measure 1
00000000
00000000
00000000
00000000
,  // measure 2
00000000
00000000
00000000
00000000
,  // measure 3
00000000
00000000
00000000
00000000
,  // measure 4
00000000
00000000
00000000
00000000
,  // measure 5
00101000
00011000
00010010
00011000
,  // measure 6
01001000
00011000
00010100
00011000
,  // measure 7
00010000
01000000
10000000
01000000
00010000
00001000
00000100
00000001
,  // measure 8
00000010
00000010
00000010
00000010
00000010
00001000
00010000
00000000
,  // measure 9
00100000
10000000
00100000
00000000
01000000
00000000
00000000
00000000
,  // measure 10
00001000
00010000
01000000
00000000
00010000
00000000
00000000
00000000
,  // measure 11
00001000
00010000
00000100
00000000
00010000
00001000
00000100
00000000
,  // measure 12
00001000
00010000
00000010
00000000
00000000
00000000
00000010
00000000
,  // measure 13
00000100
00000001
00000100
00000000
00000010
00000000
00000000
00000000
,  // measure 14
00010000
00001000
00000010
00000000
00001000
00000000
00000000
00000000
,  // measure 15
00010000
00001000
00100000
00000000
00001000
00010000
00100000
00000000
,  // measure 16
00010000
00000000
00010000
00001000
01000000
00000000
00000000
00000000
,  // measure 17
10010000
00000000
01000000
10000000
00010000
00000000
00000000
00000000
,  // measure 18
00010000
00100000
01000000
00100000
00010000
00000000
10000000
00000000
,  // measure 19
00100000
01000000
00010000
00000000
01000000
00001000
00010000
00000000
,  // measure 20
00001000
00010000
00000100
00000000
00000000
00000000
00000100
00000000
,  // measure 21
00001001
00000000
00000100
00000001
00001000
00000000
00000000
00000000
,  // measure 22
00001000
00000010
00000100
00000010
00001000
00000000
00000001
00000000
,  // measure 23
00000010
00000100
00001000
00000000
00000100
00010000
00001000
00000000
,  // measure 24
00010000
00000000
00010000
00001000
01000000
00000000
00001000
00000000
,  // measure 25
00011000
00000100
00000000
01000000
,  // measure 26
00000000
00000010
00000000
00100000
,  // measure 27
00001000
00010000
00001000
00010000
,  // measure 28
00000010
00000100
00000010
00000100
00000010
00000100
00000010
00000000
,  // measure 29
00001001
00000000
00000010
00001000
00010000
00000000
01100000
00000000
,  // measure 30
00010000
10000000
01000000
10000000
00010000
00000000
00100000
00000000
,  // measure 31
01000000
10000000
00100000
00000000
01000000
00010000
00100000
00000000
,  // measure 32
01000000
00010000
00001000
00000000
00000010
00000000
00000001
00000000
,  // measure 33
00001001
00000000
00000100
00000010
00001000
00000000
00010100
00000000
,  // measure 34
00001000
00010000
00100000
01000000
10000000
00000000
01100000
00000000
,  // measure 35
00010000
10000000
00100000
00000000
01000000
00010000
10000000
00000000
,  // measure 36
01000000
01000000
00100000
00000000
,  // measure 37
10010000
00000000
00100000
00010000
00001000
00000000
00000110
00000000
,  // measure 38
00001000
00000001
00000100
00000001
00001000
00000000
00000010
00000000
,  // measure 39
00000100
00000001
00000010
00000000
00000100
00001000
00000010
00000000
,  // measure 40
00000100
00001000
00010000
00000000
00100000
00000000
10000000
00000000
,  // measure 41
10010000
00000000
01000000
00100000
00010000
00000000
01001000
00000000
,  // measure 42
00010000
00001000
00000010
00000100
00000001
00000000
00000110
00000000
,  // measure 43
00001000
00000001
00000010
00000000
00000100
00001000
00000001
00000000
,  // measure 44
00000100
00000000
00000100
00000000
00000100
00000010
00000100
00000010
,  // measure 45
00001000
00000001
00000100
00000010
00001000
00000000
00000100
00010000
,  // measure 46
00001000
00001010
00010000
00011000
,  // measure 47
00001000
00100000
00010000
01000000
00001000
00000000
00010000
01000000
,  // measure 48
00100000
11000000
00100000
01010000
,  // measure 49
00010000
10000000
01000000
00100000
00010000
00000000
01000000
00001000
,  // measure 50
00010000
00110000
00001000
00011000
,  // measure 51
00010000
00000010
00001000
00000100
00010000
00000000
00001000
00000100
,  // measure 52
00000010
00000000
00000101
00000000
00001000
00000100
00000001
00000010
,  // measure 53
00001000
00000000
00000000
00000000
;

//---------------dance-double - ----------------
#NOTES:
     dance-double:
     :
     Medium:
     8:
     0.323002,0.399446,0.235522,0.000000,0.000000,240.000000,215.000000,25.000000,0.000000,0.000000,0.000000,0.323002,0.399446,0.235522,0.000000,0.000000,240.000000,215.000000,25.000000,0.000000,0.000000,0.000000:
// measure 0
00000000
00000000
00000000
00000000
,  // measure 1
00000000
00000000
00000000
00000000
,  // measure 2
00000000
00000000
00000000
00000000
,  // measure 3
00000000
00000000
00000000
00000000
,  // measure 4
00000000
00000000
00000000
00000000
,  // measure 5
00010000
00010000
00001000
00001000
,  // measure 6
00010000
00010000
00001000
00001000
,  // measure 7
00100000
00001000
00010000
00000000
00000100
00010000
00001000
00000000
,  // measure 8
00000100
00000010
00000100
00000010
00000100
00000001
00001000
00000000
,  // measure 9
00000100
00000010
00000110
00000000
,  // measure 10
00001000
00010000
00001000
00000000
00010000
00000000
00000000
00000000
,  // measure 11
01000000
00100000
01000000
00000000
01000000
00000000
10000000
00000000
,  // measure 12
00010000
01000000
00000000
01000000
,  // measure 13
00100000
01000000
01100000
00000000
,  // measure 14
00010000
00001000
00010000
00000000
00001000
00000000
00000000
00000000
,  // measure 15
00000010
00000100
00000010
00000000
00000010
00000000
00000001
00000000
,  // measure 16
00001000
00001000
00000010
00000000
,  // measure 17
00000100
00000001
00001001
00000000
,  // measure 18
00000100
00001000
00000100
00000000
00010000
00000000
00000000
00000000
,  // measure 19
00001000
00010000
00001000
00000000
00100000
00000000
00010000
00000000
,  // measure 20
01000000
00100000
00000000
10000000
,  // measure 21
01000000
10000000
10010000
00000000
,  // measure 22
01000000
00010000
01000000
00000000
00001000
00000000
00000000
00000000
,  // measure 23
00010000
00001000
00010000
00000000
00000010
00000000
00001000
00000000
,  // measure 24
00000100
00000100
00000010
00000001
,  // measure 25
00001000
00001000
00000100
00000100
,  // measure 26
00010000
00010000
00001000
00001000
,  // measure 27
00110000
00110000
00011000
00011000
,  // measure 28
00001010
00001100
00011000
00000000
,  // measure 29
00110000
10000000
01010000
10000000
,  // measure 30
01000000
00010000
01000000
10000000
01000000
00000000
00100000
00000000
,  // measure 31
00001000
00000010
00001000
00000000
00010000
00000000
00001000
00000000
,  // measure 32
00000100
00000010
00000100
00000000
00000000
00000000
00000100
00000000
,  // measure 33
00001010
00000001
00001100
00000001
,  // measure 34
00000100
00001000
00000100
00000001
00000100
00000000
00000010
00000000
,  // measure 35
00010000
00100000
00010000
00000000
00001000
00000000
00010000
00000000
,  // measure 36
01000000
01000000
00100000
00000000
,  // measure 37
10010000
01100000
10010000
01000000
,  // measure 38
00100000
00010000
00001000
00010000
00100000
00000000
00010000
00000000
,  // measure 39
00001000
00000010
00001000
00000000
00000010
00000001
00000010
00000000
,  // measure 40
00000001
00000100
00000010
00000000
00001000
00000000
00000001
00000000
,  // measure 41
00001001
00000110
00001001
00000100
,  // measure 42
00000010
00001000
00010000
00001000
00000010
00000000
00001000
00000000
,  // measure 43
00010000
00100000
00010000
00000000
00100000
10000000
00100000
00000000
,  // measure 44
01000000
00000000
01000000
00000000
01000000
01000000
00010000
00000000
,  // measure 45
10010000
00000000
01000000
00000000
10000000
00010000
01000000
00000000
,  // measure 46
00001000
00100000
00001000
00011000
,  // measure 47
00010000
00000000
00000100
00000000
00010000
00000010
00001000
00000000
,  // measure 48
00000001
00000010
00000001
00001001
,  // measure 49
00000001
00000000
00000010
00000000
00000001
00001000
00000010
00000000
,  // measure 50
00010000
00000100
00010000
00011000
,  // measure 51
00001000
00000000
00100000
00000000
00001000
01000000
00010000
00000000
,  // measure 52
10000000
00000000
01000000
00000000
10000000
00100000
01000000
00001000
,  // measure 53
00010000
00000000
00000000
00000000
;

//---------------dance-double - ----------------
#NOTES:
     dance-double:
     :
     Easy:
     6:
     0.251673,0.324550,0.226102,0.000000,0.000000,187.000000,163.000000,24.000000,0.000000,0.000000,0.000000,0.251673,0.324550,0.226102,0.000000,0.000000,187.000000,163.000000,24.000000,0.000000,0.000000,0.000000:
// measure 0
00000000
00000000
00000000
00000000
,  // measure 1
00000000
00000000
00000000
00000000
,  // measure 2
00000000
00000000
00000000
00000000
,  // measure 3
00000000
00000000
00000000
00000000
,  // measure 4
00000000
00000000
00000000
00000000
,  // measure 5
00100000
00010000
00100000
00010000
,  // measure 6
01000000
00001000
01000000
00001000
,  // measure 7
00010000
00010000
00000010
00000010
,  // measure 8
00000100
00000100
00000100
00000000
,  // measure 9
00000001
00000000
00000001
00000000
,  // measure 10
00000010
00000100
00000010
00000000
,  // measure 11
00000001
00000001
00000100
00001000
,  // measure 12
00010000
00010000
00000000
01000000
,  // measure 13
10000000
00000000
10000000
00000000
,  // measure 14
00100000
01000000
00100000
00000000
,  // measure 15
10000000
10000000
01000000
00010000
,  // measure 16
00001000
00001000
00010000
00000000
,  // measure 17
00011000
00010000
00001000
00000000
,  // measure 18
00100000
00010000
01000000
00000000
,  // measure 19
00001000
00010000
01000000
00010000
,  // measure 20
00001000
00010000
00000000
00010000
,  // measure 21
00011000
00001000
00010000
00000000
,  // measure 22
00000010
00001000
00000100
00000000
,  // measure 23
00010000
00001000
00000100
00001000
,  // measure 24
00010000
00010000
00001000
00010000
,  // measure 25
00011000
00000000
00000100
00000000
,  // measure 26
01000000
00000000
00000100
00000000
,  // measure 27
00010000
00001000
00010000
00001000
,  // measure 28
00100000
00100000
00100000
00000000
,  // measure 29
10010000
01100000
10010000
00000000
,  // measure 30
01000000
10000000
00100000
00000000
,  // measure 31
01000000
00010000
00100000
00010000
,  // measure 32
01000000
00001000
00000000
00010000
,  // measure 33
00011000
00010100
00001100
00000000
,  // measure 34
00000010
00000001
00000100
00000000
,  // measure 35
00000010
00001000
00000100
00001000
,  // measure 36
00000001
00000001
00001000
00000000
,  // measure 37
00001001
00000110
00001001
00000000
,  // measure 38
00000100
00000001
00000010
00000000
,  // measure 39
00000100
00001000
00000010
00001000
,  // measure 40
00000100
00010000
00000000
00001000
,  // measure 41
00011000
01001000
01010000
00000000
,  // measure 42
00100000
10000000
01000000
00000000
,  // measure 43
00100000
00010000
01000000
00010000
,  // measure 44
10000000
10000000
00010000
00010000
,  // measure 45
11000000
00100000
00110000
00001000
,  // measure 46
00000100
00000100
00001010
00000011
,  // measure 47
00000100
00000100
00001000
00000001
,  // measure 48
00000100
00000100
00001010
00000001
,  // measure 49
00000011
00000100
00001100
00010000
,  // measure 50
00100000
00100000
01010000
11000000
,  // measure 51
00100000
00100000
00010000
10000000
,  // measure 52
00100000
00100000
01000000
00001000
,  // measure 53
00010000
00000000
00000000
00000000
;

//---------------dance-double - ----------------
#NOTES:
     dance-double:
     :
     Challenge:
     10:
     0.391640,0.449377,0.226102,0.056525,0.000000,291.000000,267.000000,24.000000,6.000000,236.000000,0.000000,0.391640,0.449377,0.226102,0.056525,0.000000,291.000000,267.000000,24.000000,6.000000,236.000000,0.000000:
// measure 0
00000000
00000000
00000000
00000000
,  // measure 1
00000000
00000000
00000000
00000000
,  // measure 2
00000000
00000000
00000000
00000000
,  // measure 3
00000000
00000000
00000000
00000000
,  // measure 4
00000000
00000000
00000000
00000000
,  // measure 5
01100000
10010000
00011000
00001100
,  // measure 6
00000011
00001100
00011000
01100000
,  // measure 7
10000000
01000000
00010000
01000000
00010000
00001000
00000100
00001000
,  // measure 8
00010000
00010000
00001000
00001000
00000010
00000001
MMMMMMMM
00000000
,  // measure 9
00001001
00000000
00001000
00000100
00000010
00000000
MMMMMMMM
00000000
,  // measure 10
00000100
00000001
00000010
00001000
00010000
00000000
MMMMMMMM
00000000
,  // measure 11
00010000
00001000
01000000
00000000
00100000
10000000
01000000
00000000
,  // measure 12
00010000
01000000
10000000
00000000
MMMMMMMM
00000000
00100000
00000000
,  // measure 13
10010000
00000000
00010000
01000000
00100000
00000000
MMMMMMMM
00000000
,  // measure 14
01000000
10000000
00100000
00010000
00001000
00000000
MMMMMMMM
00000000
,  // measure 15
00001000
00010000
00000010
00000000
00000100
00000001
00000010
00000000
,  // measure 16
00000100
00000000
00000100
00001000
00000001
00000000
MMMMMMMM
00000000
,  // measure 17
00000110
00000000
00001000
00000001
00000100
00000000
MMMMMMMM
00000000
,  // measure 18
00001000
00000100
00010000
00000010
00001000
00000000
MMMMMMMM
00010000
,  // measure 19
00001000
00100000
00010000
01000000
00001000
00010000
00000010
00001000
,  // measure 20
00000100
00010000
00001000
00000000
00100000
00000000
MMMMMMMM
00000000
,  // measure 21
01100000
00000000
00010000
10000000
00100000
00000000
MMMMMMMM
00000000
,  // measure 22
00010000
00100000
00001000
01000000
00010000
00000000
MMMMMMMM
00001000
,  // measure 23
00010000
00000100
00001000
00000010
00010000
00001000
01000000
00010000
,  // measure 24
00100000
00000000
00001000
00010000
00001000
00000000
00000010
00001000
,  // measure 25
MMMMMMMM
00000000
01000000
00010000
00001000
00000000
00000100
00001000
,  // measure 26
00010000
00000000
01000000
00010000
00001000
00000000
00000100
00001000
,  // measure 27
01000000
MMMMMMMM
00000100
MMMMMMMM
01000000
MMMMMMMM
00000100
MMMMMMMM
,  // measure 28
00010000
00010000
00001000
00001000
00010000
00001000
MMMMMMMM
00000000
,  // measure 29
00011000
00000000
00100000
00010000
10000000
00000000
1100MMMM
10000000
,  // measure 30
00100000
00010000
00001000
00000100
00000001
00000000
MMMM1001
00000001
,  // measure 31
00000100
00000010
00001000
00010000
01000000
00001000
00010000
01000000
,  // measure 32
10000000
01000000
00100000
00000000
MMMMMMMM
00000000
01000000
00000000
,  // measure 33
00011000
00000000
00000100
00001000
00000001
00000000
MMMM0011
00000001
,  // measure 34
00000100
00001000
00010000
00100000
10000000
00000000
1001MMMM
10000000
,  // measure 35
00100000
01000000
00010000
00001000
00000010
00010000
00001000
00000010
,  // measure 36
00000001
00000002
00002000
MMMM3003
,  // measure 37
00001001
00000000
00000001
00000100
00001000
00000000
MMMMMMMM
00000010
,  // measure 38
00001000
00000100
00010000
00000010
00001000
00000000
MMMMMMMM
00000010
,  // measure 39
00001000
00010000
00100000
00010000
00001000
00010000
01000000
10000000
,  // measure 40
00100000
00010000
00001000
00000000
MMMMMMMM
00000000
00010000
00000000
,  // measure 41
10010000
00000000
10000000
01000000
00010000
00000000
MMMMMMMM
00100000
,  // measure 42
00010000
01000000
00001000
00100000
00010000
00000000
MMMMMMMM
00100000
,  // measure 43
00010000
00001000
00000010
00001000
00010000
00001000
00000100
00000001
,  // measure 44
00001000
00000000
00001000
00000000
00000100
00000100
00000010
00000100
,  // measure 45
00001001
00000001
00000100
00000010
00001000
00000000
00010000
01000000
,  // measure 46
00200000
10000000
00310000
MMMMMMMM
,  // measure 47
00011000
01000000
00010000
10000000
01000000
00000000
00100000
00010000
,  // measure 48
20000000
01000000
30100000
MMMMMMMM
,  // measure 49
10010000
10000000
01000000
00100000
00010000
00000000
00001000
00000100
,  // measure 50
00000020
00000001
00001030
MMMMMMMM
,  // measure 51
00011000
00000100
00001000
00000001
00000100
00000000
00000010
00001000
,  // measure 52
00000002
00000000
00000100
00000000
00000013
00000100
00010000
00000000
,  // measure 53
00001000
00000000
00000000
00000000
;
