#TITLE:Prelude;
#SUBTITLE:(Op. 38 No.2);
#ARTIST:Dmitry Kabalevsky;
#TITLETRANSLIT:;
#SUBTITLETRANSLIT:;
#ARTISTTRANSLIT:;
#GENRE:Variety;
#CREDIT:;
#BANNER:Prelude (Op. 38 No.2).png;
#BACKGROUND:Prelude (Op. 38 No.2)-bg.png;
#LYRICSPATH:;
#CDTITLE:../cdtitle.png;
#MUSIC:Prelude (Op. 38 No.2).ogg;
#OFFSET:-0.469456;
#SAMPLESTART:0.418000;
#SAMPLELENGTH:15.000000;
#SELECTABLE:YES;
#BPMS:0.000000=172.343994
,1.000000=153.533997
,2.000000=159.830994
,3.000000=146.203995
,4.000000=159.397995
,5.000000=151.235001
,6.000000=165.447006
,7.000000=130.802002
,8.000000=126.524002
,9.000000=158.681000
,10.000000=135.033997
,11.000000=122.761002
,12.000000=137.091003
,13.000000=144.828003
,14.000000=123.754990
,15.000000=130.796005
,16.000000=158.225006
,17.000000=133.630005
,18.000000=162.841003
,19.000000=159.445999
,20.000000=135.380005
,21.000000=126.233994
,22.000000=151.572006
,23.000000=167.669998
,24.000000=153.533997
,25.000000=164.531998
,26.000000=156.207993
,27.000000=173.360001
,28.000000=160.684998
,29.000000=144.164993
,30.000000=126.282990
,31.000000=159.830994
,32.000000=136.589005
,33.000000=131.923996
,34.000000=140.244995
,35.000000=136.942001
,36.000000=126.011993
,37.000000=136.822006
,38.000000=154.276993
,39.000000=139.029007
,40.000000=150.897995
,41.000000=162.720993
,42.000000=137.404999
,43.000000=134.807007
,44.000000=158.235001
,45.000000=164.921005
,46.000000=153.533997
,47.000000=173.145004
,48.000000=158.235001
,49.000000=165.914001
,50.000000=173.292007
,51.000000=172.714996
,52.000000=168.074997
,53.000000=169.518005
,54.000000=146.212006
,55.000000=186.759003
,56.000000=169.942001
,57.000000=172.276993
,58.000000=159.608994
,59.000000=124.237000
,60.000000=159.445999
,61.000000=157.800995
,62.000000=156.966995
,63.000000=155.537003
,64.000000=153.470993
,65.000000=160.684998
,66.000000=157.809998
,67.000000=151.677002
,68.000000=128.080002
,69.000000=149.373001
,70.000000=133.886993
,71.000000=128.602997
,72.000000=144.653000
,73.000000=137.768997
,74.000000=143.561996
,75.000000=134.807007
,76.000000=149.423996
,77.000000=146.934998
,78.000000=153.524994
,79.000000=139.962997
,80.000000=136.272003
;
#STOPS:
;
#BGCHANGES:-99.000=../bg.avi=1.000=0=0=1=====,
99999=-nosongbg-=1.000=0=0=0 // don't automatically add -songbackground-
;
#KEYSOUNDS:;
#ATTACKS:;

//---------------dance-single - ----------------
#NOTES:
     dance-single:
     :
     Beginner:
     3:
     0.150146,0.152023,0.025024,0.000000,0.000000,42.000000,41.000000,1.000000,0.000000,0.000000,0.000000,0.150146,0.152023,0.025024,0.000000,0.000000,42.000000,41.000000,1.000000,0.000000,0.000000,0.000000:
0100
0000
0010
0000
,
0100
0000
0010
0000
,
1000
0000
1000
0000
,
1000
0000
0000
0001
,
0000
0001
0000
0001
,
0000
0000
1000
0000
,
0001
0000
1000
0000
,
0001
0000
0010
0000
,
0010
0000
0010
0000
,
0000
0100
0000
0100
,
0000
0100
0000
0000
,
0010
0000
0001
0000
,
1000
1000
1000
0000
,
0100
0000
1000
0000
,
0001
0001
0001
0000
,
0100
0000
0010
0000
,
0100
0000
0010
0000
,
1000
0000
1000
0000
,
1000
0000
0000
0001
,
0000
0001
0000
0001
,
0000
1001
0000
0000
;

//---------------dance-single - ----------------
#NOTES:
     dance-single:
     :
     Challenge:
     16:
     0.861554,0.861465,0.600586,1.376342,1.076049,241.000000,217.000000,24.000000,55.000000,0.000000,0.000000,0.861554,0.861465,0.600586,1.376342,1.076049,241.000000,217.000000,24.000000,55.000000,0.000000,0.000000:
// measure 0
1000
0100
1000
0100
1000
0000
0001
0000
0100
0010
0100
0010
0100
0000
0001
0000
,  // measure 1
0010
0100
0010
0001
0010
0000
0001
0000
1000
0010
1000
0100
1000
0000
0001
0000
,  // measure 2
2200
0000
0000
3300
0000
0000
0202
0000
0000
0303
0100
0001
0020
0000
0000
0000
0000
0000
0130
0000
0000
1000
0000
0000
,  // measure 3
2002
0000
0000
3003
0001
1000
0020
0000
0000
0030
0000
0000
0220
0000
0000
0330
0000
0000
0202
0000
0000
0303
0000
0000
,  // measure 4
2200
0000
0000
3300
0100
1000
0010
0000
0000
0100
0000
0000
0001
0000
0000
1000
0000
0000
2002
0000
0000
3003
1000
0001
,  // measure 5
0020
0000
0030
0000
0220
0000
0330
0000
1000
0100
1000
0100
1000
0001
1000
0010
,  // measure 6
0100
0010
0100
0010
0100
0001
0100
0010
1000
0100
1000
0001
1000
0010
0100
0001
,  // measure 7
0010
0000
0000
0100
0000
0000
0010
0000
0000
0100
0000
0000
1000
0000
0000
0100
0000
0000
1000
0000
0000
0001
0000
0000
0202
0000
0000
0000
0000
0000
0303
0000
0000
0000
0000
0000
2200
0000
0000
0000
0000
0000
3300
0000
0100
0000
1000
0000
,  // measure 8
0020
0000
0000
0000
0000
0000
0130
0000
0000
0001
0000
0000
2002
0000
0000
3003
1000
0001
0020
0000
0000
0030
0000
0000
,  // measure 9
0220
0000
0000
0330
0000
0000
2200
0000
0000
3300
0000
0000
0202
0000
0000
0303
0100
0001
0010
0000
0000
0100
0000
0000
,  // measure 10
1000
0000
0000
0001
0000
0000
2002
0000
0000
3003
0001
1000
0020
0000
0000
0030
0000
0000
0220
0000
0000
0330
0000
0000
,  // measure 11
1000
0100
0010
0001
0010
0100
1000
0001
1000
0100
0010
0001
0010
0100
1000
0001
,  // measure 12
1000
0001
0100
0001
1000
0001
0100
0001
1000
0100
1000
0000
0001
0100
0010
1000
,  // measure 13
0001
0010
0100
1000
0100
0010
0001
1000
0001
0010
0100
1000
0100
0010
0001
1000
,  // measure 14
0001
1000
0010
1000
0001
1000
0010
1000
0001
0010
0001
0000
1000
0010
0100
0001
,  // measure 15
1000
0100
1000
0100
1000
0000
0001
0000
0100
0010
0100
0010
0100
0000
0001
0000
,  // measure 16
0010
0100
0010
0001
0010
0000
0001
0000
1000
0010
1000
0100
1000
0000
0001
0000
,  // measure 17
2200
0000
0000
3300
0000
0000
0202
0000
0000
0303
0100
0001
0020
0000
0000
0000
0000
0000
0130
0000
0000
1000
0000
0000
,  // measure 18
2002
0000
0000
3003
0001
1000
0020
0000
0000
0030
0000
0000
0220
0000
0000
0330
0000
0000
0202
0000
0000
0303
0000
0000
,  // measure 19
2200
0000
0000
3300
0100
1000
0010
0000
0000
0100
0000
0000
0001
0000
0000
1000
0000
0000
2002
0000
0000
3003
1000
0001
,  // measure 20
0020
0030
0110
0000
0000
0000
0000
0000
;

//---------------dance-single - ----------------
#NOTES:
     dance-single:
     :
     Easy:
     8:
     0.400390,0.405395,0.750732,0.300293,0.000000,112.000000,82.000000,30.000000,12.000000,0.000000,0.000000,0.400390,0.405395,0.750732,0.300293,0.000000,112.000000,82.000000,30.000000,12.000000,0.000000,0.000000:
1000
1000
0100
0010
,
0001
0001
0010
0100
,
1001
1001
0102
0013
,
2010
3100
0110
1001
,
1001
2100
3010
0012
,
0103
0110
0001
0001
,
1000
1000
0100
0001
,
0010
1000
1010
1010
,
0021
0130
1200
0310
,
0011
1100
1100
0201
,
0310
1020
0130
0101
,
1000
0100
0001
0100
,
1000
0100
0001
0010
,
1000
0010
0001
0010
,
1000
0010
0001
0100
,
1000
1000
0100
0010
,
0001
0001
0010
0100
,
1001
1001
0102
0013
,
2010
3100
0110
1001
,
1001
2100
3010
0012
,
0103
0110
0000
0000
;

//---------------dance-single - ----------------
#NOTES:
     dance-single:
     :
     Medium:
     11:
     0.511213,0.430732,0.450439,0.075073,0.000000,143.000000,125.000000,18.000000,3.000000,0.000000,0.000000,0.511213,0.430732,0.450439,0.075073,0.000000,143.000000,125.000000,18.000000,3.000000,0.000000,0.000000:
1000
0100
1000
0000
0001
0100
0001
0000
,
1000
0100
1000
0000
0001
0100
0010
0100
,
0001
0000
0001
0000
2100
0000
3010
0100
,
0010
1010
0101
1000
,
1000
0000
0101
0001
0010
0100
0010
0000
,
0011
0000
1100
0000
1000
0001
1000
0001
,
0010
0001
0010
0001
1000
0010
1000
0010
,
0100
0010
0100
0010
1000
0000
1000
0000
,
1002
0000
0103
0010
1000
0000
1010
0000
,
0011
0000
0001
0000
0001
0000
1001
1000
,
0010
0100
0001
0000
0101
0000
1100
0000
,
1000
0100
1000
0100
0001
0100
0001
0100
,
1000
0010
1000
0010
0100
0001
0010
0100
,
1000
0010
1000
0010
0001
0010
0001
0010
,
1000
0100
1000
0100
0010
0001
0100
0010
,
1000
0100
1000
0000
0001
0100
0001
0000
,
1000
0100
1000
0000
0001
0100
0010
0100
,
0001
0000
0001
0000
2100
0000
3010
0100
,
0010
1010
0101
1000
,
1000
0000
0101
0001
0010
0100
0010
0000
,
0011
1100
0000
0000
;

//---------------dance-single - ----------------
#NOTES:
     dance-single:
     :
     Hard:
     14:
     0.654209,0.633430,0.350342,0.975952,0.475464,183.000000,169.000000,14.000000,39.000000,0.000000,0.000000,0.654209,0.633430,0.350342,0.975952,0.475464,183.000000,169.000000,14.000000,39.000000,0.000000,0.000000:
1000
0100
1000
0000
0001
0000
1000
0000
0001
0100
0001
0000
0100
0000
0010
0000
,
1000
0010
1000
0000
0001
0000
0010
0000
0100
0000
0100
0000
1000
0000
0001
0000
,
0020
0000
0000
0030
0000
0000
2001
0000
0000
3000
0001
0000
0200
0000
0000
0000
0000
0000
1300
0000
0000
0100
0000
0000
,
0002
0000
0000
0003
1000
0000
0020
0000
0000
0030
0000
0000
0220
0000
0000
0330
0000
0000
0202
0000
0000
0303
0000
0000
,
1002
0000
0000
0003
1000
0000
0100
0000
0000
0001
0000
0000
0100
0000
0000
1000
0000
0000
0002
0000
0000
0003
0010
0000
,
0200
0000
0300
0000
2002
0000
3003
0000
1000
0100
1000
0100
1000
0000
0001
0000
,
0100
0010
0100
0010
0100
0000
0001
0000
1000
0100
1000
0000
0001
0010
0001
0000
,
1000
0000
0000
0010
0000
0000
1000
0000
0000
0010
0000
0000
0100
0000
0000
0000
0000
0000
0001
0000
0000
0000
0000
0000
0020
0000
0000
0000
0000
0000
0030
0000
0000
0000
0000
0000
1002
0000
0000
0000
0000
0000
0003
0000
1000
0000
0000
0000
,
0020
0000
0000
0000
0000
0000
0031
0000
0000
0010
0000
0000
0200
0000
0000
0300
0001
0000
2000
0000
0000
3000
0000
0000
,
2200
0000
0000
3300
0000
0000
0200
0000
0000
0300
0000
0000
2001
0000
0000
3000
0001
0000
0100
0000
0000
1000
0000
0000
,
0100
0000
0000
0010
0000
0000
2000
0000
0000
3000
0001
0000
0020
0000
0000
0030
0000
0000
0220
0000
0000
0330
0000
0000
,
1000
0000
0001
0000
0010
0100
1000
0000
0100
0000
0010
0000
0001
1000
0001
0000
,
1000
0000
0010
0000
0100
0001
0100
0000
0010
1000
0010
0000
1000
0100
1000
0000
,
0001
0000
1000
0000
0010
0100
0001
0000
0100
0000
0010
0000
1000
0001
1000
0000
,
0100
1000
0100
0000
0010
0001
0010
0000
0001
1000
0001
0000
0100
0010
1000
0010
,
1000
0100
1000
0000
0001
0000
1000
0000
0001
0100
0001
0000
0100
0000
0010
0000
,
1000
0010
1000
0000
0001
0000
0010
0000
0100
0000
0100
0000
1000
0000
0001
0000
,
0020
0000
0000
0030
0000
0000
2001
0000
0000
3000
0001
0000
0200
0000
0000
0000
0000
0000
1300
0000
0000
0100
0000
0000
,
0002
0000
0000
0003
1000
0000
0020
0000
0000
0030
0000
0000
0220
0000
0000
0330
0000
0000
0202
0000
0000
0303
0000
0000
,
1002
0000
0000
0003
1000
0000
0100
0000
0000
0001
0000
0000
0100
0000
0000
1000
0000
0000
0002
0000
0000
0003
0010
0000
,
0200
0300
1001
0000
0000
0000
0000
0000
;
