#VERSION:0.83;
#TITLE:Pico;
#SUBTITLE:;
#ARTIST:Kawai Sprite;
#TITLETRANSLIT:;
#SUBTITLETRANSLIT:;
#ARTISTTRANSLIT:;
#GENRE:Friday Night Funkin';
#ORIGIN:;
#CREDIT:;
#BANNER:Pico.png;
#BACKGROUND:../bg.png;
#PREVIEWVID:;
#JACKET:Pico-jacket.png;
#CDIMAGE:;
#DISCIMAGE:;
#LYRICSPATH:;
#CDTITLE:../cdtitle.png;
#MUSIC:Pico.ogg;
#OFFSET:1.396000;
#SAMPLESTART:16.201000;
#SAMPLELENGTH:15.000000;
#SELECTABLE:YES;
#BPMS:0.000=150.000;
#STOPS:;
#DELAYS:;
#WARPS:;
#TIMESIGNATURES:0.000=4=4;
#TICKCOUNTS:0.000=4;
#COMBOS:0.000=1;
#SPEEDS:0.000=1.000=0.000=0;
#SCROLLS:0.000=1.000;
#FAKES:;
#LABELS:0.000=Song Start;
#BGCHANGES: -1.000=Pico.avi=1.000=0=0=0=StretchNoLoop====,
99999=-nosongbg-=1.000=0=0=0 // don't automatically add -songbackground-
;
#KEYSOUNDS:;
#ATTACKS:
;

//---------------dance-single - ----------------
#NOTEDATA:;
#CHARTNAME:;
#STEPSTYPE:dance-single;
#DESCRIPTION:;
#CHARTSTYLE:;
#DIFFICULTY:Hard;
#METER:12;
#RADARVALUES:0.531092,0.507500,0.200000,0.000000,0.000000,316.000000,299.000000,17.000000,0.000000,0.000000,0.000000,0.000000,0.000000,0.000000,0.531092,0.507500,0.200000,0.000000,0.000000,316.000000,299.000000,17.000000,0.000000,0.000000,0.000000,0.000000,0.000000,0.000000;
#CREDIT:led_light;
#NOTES:
0000
0000
0000
0000
,
0000
0000
0000
0000
,
0000
0000
0000
0000
,
1010
0000
0000
0100
0001
0010
0000
0100
,
0000
0100
0000
0100
0001
0100
0000
0100
,
0011
0000
0000
0100
1000
0010
0000
0100
,
0000
0100
0000
0100
1000
0100
0000
0100
,
1010
0000
0010
0001
0010
1000
0000
0100
,
0000
0100
0000
0010
0100
1000
0000
0010
,
1100
0000
0100
0001
0100
1000
0000
0010
,
0000
0010
0000
0100
0010
1000
0000
0100
,
0010
0001
0100
0001
0100
0001
0100
0000
,
0000
0010
1000
0010
1000
0010
1000
0000
,
0000
1000
0100
1000
0100
1000
0100
0000
,
0000
0010
0001
0010
0001
0010
0001
0000
,
0000
1000
0001
0100
0010
0100
0010
0000
,
0000
1000
0001
0010
0100
0010
0100
0000
,
0000
1000
0100
0010
0001
0010
0001
0000
,
0000
0001
0100
0010
1000
0010
1000
0000
,
1001
0100
1000
0100
0001
0100
1000
0100
,
0010
0100
0010
0100
0010
0000
0010
0000
,
1001
0010
1000
0010
0001
0010
1000
0010
,
0100
0010
0100
0010
0100
0000
0100
0000
,
1010
0001
0010
0100
0010
0010
0010
0001
,
1000
0001
0100
0010
1000
0000
1000
0000
,
0011
1000
0010
0100
0010
0010
0010
1000
,
0001
1000
0100
0010
0001
0000
0001
0000
,
1100
0001
0100
0010
0100
0010
1000
0000
,
0000
1000
0010
0100
0010
0100
0001
0000
,
1010
0001
0010
0100
0010
0100
1000
0000
,
0000
1000
0100
0010
0100
0010
0001
0000
,
0000
1000
0100
0010
0100
1000
0001
0000
,
0000
0001
0100
0010
0100
0001
1000
0000
,
0000
0100
0010
0100
0001
0100
1000
0000
,
0000
0010
0100
0010
0001
0010
1000
0000
,
0011
0000
0000
0100
1000
0000
1000
0000
,
0001
0100
0001
1000
1100
0000
1000
0000
,
1010
0000
0000
0100
0001
0000
0001
0000
,
1000
0100
1000
0010
0100
0010
0100
0001
,
0000
1000
0100
1000
0100
0001
0100
0000
,
0000
1000
0010
1000
0010
1000
1000
0000
,
0000
0001
0010
0001
0010
1000
0010
0000
,
0000
0001
0100
0001
0100
0001
0001
0000
,
1000
0010
1000
0010
1000
0100
1000
0100
,
0010
0001
0100
0010
1000
0000
1001
0000
,
0001
0010
0001
0010
0001
0100
0001
0100
,
0010
1000
0100
0010
0001
0000
1001
0000
,
1000
0010
1000
0010
0100
0010
0100
0010
,
1000
0100
0001
0100
1000
0000
0011
0000
,
0001
0100
0001
0100
0010
0100
0010
0100
,
0001
0010
1000
0010
0001
0000
1100
0000
;

//---------------dance-single - ----------------
#NOTEDATA:;
#CHARTNAME:;
#STEPSTYPE:dance-single;
#DESCRIPTION:;
#CHARTSTYLE:;
#DIFFICULTY:Medium;
#METER:9;
#RADARVALUES:0.394958,0.417941,0.164706,0.000000,0.000000,235.000000,221.000000,14.000000,0.000000,0.000000,0.000000,0.000000,0.000000,0.000000,0.394958,0.417941,0.164706,0.000000,0.000000,235.000000,221.000000,14.000000,0.000000,0.000000,0.000000,0.000000,0.000000,0.000000;
#CREDIT:led_light;
#NOTES:
0000
0000
0000
0000
,
0000
0000
0000
0000
,
0000
0000
0000
0000
,
0011
0000
0000
1000
0010
0000
0000
1000
,
0000
1000
0000
0001
0100
0000
0010
0000
,
1010
0000
0000
0001
0010
0000
0000
0001
,
0000
0001
0000
1000
0100
0000
0010
0000
,
0101
0000
0000
1000
0010
0000
0000
1000
,
0000
1000
0000
0100
0010
0000
0001
0000
,
1100
0000
0000
0001
0010
0000
0000
0001
,
0000
0001
0000
0100
0010
0000
1000
0000
,
1000
0100
1000
0000
1000
0000
1000
0000
,
0000
0001
0100
0000
0100
0000
0100
0000
,
0000
0010
1000
0000
1000
0000
1000
0000
,
0000
0001
0010
0000
0010
0000
0010
0000
,
0000
0100
1000
0000
0001
0000
0001
0000
,
0000
0100
0010
0000
1000
0000
1000
0000
,
0000
0010
1000
0000
0001
0000
0001
0000
,
0000
0010
0100
0000
1000
0000
1000
0000
,
0001
0010
0001
0000
0100
0010
0100
0000
,
0010
1000
0010
0000
1000
0000
1100
0000
,
1000
0100
1000
0000
0010
0100
0010
0000
,
0100
0001
0100
0000
0001
0000
0011
0000
,
0001
0010
0001
0000
1000
0100
1000
0000
,
0001
0100
0001
0000
0100
0000
0110
0000
,
1000
0010
1000
0000
0001
0100
0001
0000
,
1000
0100
1000
0000
0100
0000
0110
0000
,
0000
0001
1000
0000
1000
0000
0100
0000
,
0000
1000
0001
0000
0001
0000
0100
0000
,
0000
0010
1000
0000
1000
0000
0100
0000
,
0000
0010
0001
0000
0001
0000
0100
0000
,
0000
0010
1000
0000
0100
0000
0001
0000
,
0000
0100
1000
0000
0010
0000
0001
0000
,
0000
0010
1000
0000
0100
0000
0001
0000
,
0000
0100
1000
0000
0010
0000
0001
0000
,
0010
0000
0000
1000
0010
0000
0010
0000
,
1000
0001
0010
0000
1100
0000
0000
0000
,
0110
0000
0000
0001
0010
0000
0010
0000
,
0001
1000
0010
0000
0100
0010
0100
0000
,
0000
0001
1000
0000
0100
0000
0010
0000
,
0000
0001
1000
0000
0100
0010
0001
0000
,
0000
0001
1000
0000
0010
0000
0100
0000
,
0000
0001
1000
0000
0010
0100
0001
0000
,
1000
0100
1000
0000
0100
0010
0100
0000
,
1000
0100
1000
0000
0001
0000
0110
0000
,
0001
0100
0001
0000
0100
0010
0100
0000
,
0001
0100
0001
0000
1000
0000
0110
0000
,
0001
0100
0001
0000
0100
0010
1000
0000
,
0100
0010
0100
0000
1000
0000
0101
0000
,
1000
0010
1000
0000
0010
0100
0001
0000
,
0010
0100
0010
0000
0001
0000
1010
0000
;

//---------------dance-single - ----------------
#NOTEDATA:;
#CHARTNAME:;
#STEPSTYPE:dance-single;
#DESCRIPTION:;
#CHARTSTYLE:;
#DIFFICULTY:Easy;
#METER:6;
#RADARVALUES:0.290756,0.328382,0.164706,0.047059,0.000000,173.000000,159.000000,14.000000,4.000000,0.000000,0.000000,0.000000,0.000000,0.000000,0.290756,0.328382,0.164706,0.047059,0.000000,173.000000,159.000000,14.000000,4.000000,0.000000,0.000000,0.000000,0.000000,0.000000;
#CREDIT:led_light;
#NOTES:
0000
0000
0000
0000
,
0000
0000
0000
0000
,
0000
0000
0000
0000
,
1001
0000
0100
0000
,
1000
1000
1000
0000
,
0110
0000
1000
0000
,
0010
0010
0010
0000
,
1001
0000
0010
0000
,
0001
0001
0001
0000
,
0110
0000
0001
0000
,
0100
0100
0100
0000
,
0002
0100
0100
0103
,
0000
0100
0100
0100
,
2000
0010
0010
3010
,
0000
0010
0010
0010
,
0000
1000
1000
1000
,
0000
1000
1000
1000
,
0000
0001
0001
0001
,
0000
0001
0001
0001
,
1000
0100
1000
0001
,
1000
0100
1000
1010
,
0001
0100
0001
1000
,
0001
0100
0001
0011
,
0100
0100
0010
0010
,
0100
1000
0001
1010
,
0100
0100
0010
0010
,
0100
0001
1000
0011
,
2000
0100
0100
3100
,
0000
0100
0100
0100
,
0002
0010
0010
0013
,
0000
0010
0010
0010
,
0000
0100
0100
0001
,
0000
0100
0100
1000
,
0000
0010
0010
0001
,
0000
0010
0010
1000
,
1001
0000
0100
0000
,
1000
1000
0001
0000
,
0110
0000
1000
0000
,
0010
0010
0100
0100
,
0000
0001
0001
0001
,
0000
0001
0001
0001
,
0000
1000
1000
1000
,
0000
1000
1000
1000
,
0001
0010
0001
1000
,
0001
0010
0001
0101
,
1000
0010
1000
0001
,
1000
0010
1000
1100
,
0010
0010
0100
0100
,
0010
0001
1000
0101
,
0010
0010
0100
0100
,
0010
1000
0001
1100
;

//---------------dance-single - ----------------
#NOTEDATA:;
#CHARTNAME:;
#STEPSTYPE:dance-single;
#DESCRIPTION:;
#CHARTSTYLE:;
#DIFFICULTY:Beginner;
#METER:3;
#RADARVALUES:0.131092,0.179118,0.047059,0.105882,0.000000,78.000000,74.000000,4.000000,9.000000,0.000000,0.000000,0.000000,0.000000,0.000000,0.131092,0.179118,0.047059,0.105882,0.000000,78.000000,74.000000,4.000000,9.000000,0.000000,0.000000,0.000000,0.000000,0.000000;
#CREDIT:led_light;
#NOTES:
0000
0000
0000
0000
,
0000
0000
0000
0000
,
0000
0000
0000
0000
,
1001
0000
0000
0000
,
1000
0000
0000
0000
,
1001
0000
0000
0000
,
0001
0000
0000
0000
,
0110
0000
0000
0000
,
0100
0000
0000
0000
,
0110
0000
0000
0000
,
0010
0000
0000
0000
,
2000
0000
0000
0000
,
3000
0000
0000
0000
,
0200
0000
0000
0000
,
0300
0000
0000
0000
,
0002
0000
0000
0000
,
0003
0000
0000
0000
,
0020
0000
0000
0000
,
0030
0000
0000
0000
,
1000
0000
1000
0000
,
1000
1000
1000
0000
,
0001
0000
0001
0000
,
0001
0001
0001
0000
,
0010
0000
0100
0000
,
0010
0010
0010
0000
,
0100
0000
0010
0000
,
0100
0100
0100
0000
,
2000
0000
0000
0000
,
3000
0000
0000
0000
,
0020
0000
0000
0000
,
0030
0000
0000
0000
,
0002
0000
0000
0000
,
0003
0000
0000
0000
,
0200
0000
0000
0000
,
0300
0000
0000
0000
,
1000
0000
0100
0000
,
0001
0001
0001
0000
,
0001
0000
0010
0000
,
1000
1000
1000
0000
,
0000
0010
0010
0000
,
0000
0010
0010
0000
,
0000
0100
0100
0000
,
0000
0100
0100
0000
,
0001
0000
0001
0000
,
0001
0001
0001
0000
,
1000
0000
1000
0000
,
1000
1000
1000
0000
,
0100
0000
0010
0000
,
0100
0100
0100
0000
,
0010
0000
0100
0000
,
0010
0010
0020
0030
;

//---------------dance-single - FNF Hard----------------
#NOTEDATA:;
#CHARTNAME:;
#STEPSTYPE:dance-single;
#DESCRIPTION:FNF Hard;
#CHARTSTYLE:;
#DIFFICULTY:Edit;
#METER:12;
#RADARVALUES:0.502521,0.509375,0.000000,0.223529,0.094118,299.000000,299.000000,0.000000,19.000000,0.000000,0.000000,0.000000,0.000000,0.000000,0.502521,0.509375,0.000000,0.223529,0.094118,299.000000,299.000000,0.000000,19.000000,0.000000,0.000000,0.000000,0.000000,0.000000;
#CREDIT:led_light (FNF Hard);
#NOTES:
// measure 0
0000
0000
0000
0000
,  // measure 1
0000
0000
0000
0000
,  // measure 2
0000
0000
0000
0000
,  // measure 3
0000
0000
0000
0010
0001
0010
0000
1000
,  // measure 4
0000
1000
0000
0010
0001
0010
0000
1000
,  // measure 5
0000
0000
0000
0010
0001
0010
0000
1000
,  // measure 6
0000
1000
0000
0010
0001
0010
0000
1000
,  // measure 7
0000
0000
0000
0010
0001
0010
0000
1000
,  // measure 8
0000
1000
0000
0010
0001
0010
0000
1000
,  // measure 9
0000
0000
0000
0010
0001
0010
0000
1000
,  // measure 10
0000
1000
0000
0010
0001
0010
0000
1000
,  // measure 11
0000
0010
0001
1000
0001
1000
0100
0000
,  // measure 12
0000
0001
1000
0010
0001
1000
0100
0000
,  // measure 13
0000
0001
1000
0001
0010
1000
0100
0000
,  // measure 14
0000
0010
0001
1000
0001
1000
0100
0000
,  // measure 15
0000
0010
0001
1000
0001
1000
0100
0000
,  // measure 16
0000
0001
1000
0010
0001
1000
0100
0000
,  // measure 17
0000
0001
1000
0001
0010
1000
0100
0000
,  // measure 18
0000
0010
0001
1000
0001
1000
0100
0000
,  // measure 19
0000
1000
0001
0010
0010
0001
0100
0001
,  // measure 20
0010
0000
0001
1000
0001
0000
0010
0000
2000
0000
0000
3000
0200
0000
0300
0000
,  // measure 21
0000
0001
0100
0010
0001
0100
0010
0001
,  // measure 22
1000
0000
1000
0000
0001
0000
0001
0000
0020
0000
0000
0030
0200
0000
0000
0300
,  // measure 23
0000
1000
0001
0010
0010
0001
0100
0001
,  // measure 24
0010
0000
0001
1000
0001
0000
0010
0000
2000
0000
0000
3000
0200
0000
0300
0000
,  // measure 25
0010
0001
0100
0010
0001
0100
0010
0001
,  // measure 26
1000
0000
1000
0000
0001
0000
0001
0000
0020
0000
0000
0030
0200
0000
0000
0300
,  // measure 27
0000
0000
0010
0000
0001
0000
1000
0000
0001
0000
1000
0001
0100
0000
0000
0000
,  // measure 28
0000
0000
0010
0000
1000
0000
0001
0000
0001
0000
1000
0001
0100
0000
0000
0000
,  // measure 29
0000
0000
0001
0000
1000
0000
1000
0000
0010
0000
1000
0001
0100
0000
0000
0000
,  // measure 30
0000
0000
0010
0000
0001
0000
1000
0000
0001
0000
1000
0001
0100
0000
0000
0000
,  // measure 31
0000
0000
0010
0000
0001
0000
1000
0000
0001
0000
1000
0001
0100
0000
0000
0000
,  // measure 32
0000
0000
0010
0000
1000
0000
0001
0000
0001
0000
1000
0001
0100
0000
0000
0000
,  // measure 33
0000
0000
0001
0000
1000
0000
1000
0000
0010
0000
1000
0001
0100
0000
0000
0000
,  // measure 34
0000
0000
0010
0000
0001
0000
1000
0000
0001
0000
1000
0001
0100
0000
0000
0000
,  // measure 35
0020
0030
0000
0001
0100
0000
0001
0000
,  // measure 36
1000
0010
1000
0001
0200
0300
0000
0000
,  // measure 37
0020
0030
0000
0001
0100
0000
0001
0000
,  // measure 38
1000
0010
1000
0001
0010
0010
1000
1000
,  // measure 39
0000
0000
0010
0000
0001
0000
1000
0000
0001
0000
1000
0001
0100
0000
0000
0000
,  // measure 40
0000
0000
0010
0000
1000
0000
0001
0000
0001
0000
1000
0001
0100
0000
0000
0000
,  // measure 41
0000
0000
0001
0000
1000
0000
1000
0000
0010
0000
1000
0001
0100
0000
0000
0000
,  // measure 42
0000
0000
0010
0000
0001
0000
1000
0000
0001
0000
1000
1000
0100
0000
0000
0000
,  // measure 43
0000
1000
0001
0010
0010
0001
0100
0001
,  // measure 44
0010
0000
0001
1000
0001
0000
0010
0000
2000
0000
0000
3000
0200
0000
0300
0000
,  // measure 45
0000
0001
0100
0010
0001
0100
0010
0001
,  // measure 46
1000
0000
1000
0000
0001
0000
0001
0000
0020
0000
0000
0030
0200
0000
0000
0300
,  // measure 47
0000
1000
0001
0010
0010
0001
0100
0001
,  // measure 48
0010
0000
0001
1000
0001
0000
0010
0000
2000
0000
0000
3000
0200
0000
0300
0000
,  // measure 49
0010
0001
0100
0010
0001
0100
0010
0001
,  // measure 50
1000
0000
1000
0000
0001
0000
0001
0000
0020
0000
0000
0030
0200
0000
0000
0300
;
