#TITLE:Pico;
#SUBTITLE:[B-Side Remix];
#ARTIST:JADS;
#TITLETRANSLIT:;
#SUBTITLETRANSLIT:;
#ARTISTTRANSLIT:;
#GENRE:Friday Night Funkin';
#CREDIT:;
#BANNER:Pico [B-Side Remix].png;
#BACKGROUND:../bg.png;
#LYRICSPATH:;
#CDTITLE:../cdtitle.png;
#MUSIC:Pico [B-Side Remix].ogg;
#OFFSET:1.444000;
#SAMPLESTART:14.751000;
#SAMPLELENGTH:15.000000;
#LASTBEATHINT:1.206200;
#SELECTABLE:YES;
#BPMS:0.000000=163.000000
;
#STOPS:
;
#BGCHANGES: -1.000=Pico [B-Side Remix].avi=1.000=0=0=0=StretchNoLoop====,
99999=-nosongbg-=1.000=0=0=0 // don't automatically add -songbackground-
;
#KEYSOUNDS:;
#ATTACKS:;

//---------------dance-single - FNF Hard----------------
#NOTES:
     dance-single:
     :
     Edit:
     17:
     0.820080,0.860613,0.000000,0.000000,0.891859,457.000000,457.000000,0.000000,0.000000,0.000000,0.000000,0.820080,0.860613,0.000000,0.000000,0.891859,457.000000,457.000000,0.000000,0.000000,0.000000,0.000000:
0000
0000
0000
0000
,
0000
0000
0000
0000
,
0000
0000
0000
0000
,
0000
0000
0000
0000
0000
0000
0001
0001
1000
0000
0100
0000
0000
0000
0001
0000
,
0001
0010
0000
0001
1000
0001
0001
1000
,
0000
0000
0000
0000
0000
0000
0001
0000
1000
0000
0100
0000
0010
0010
0010
0010
,
0100
0000
0010
0000
0000
0000
1000
1000
0001
0000
0010
0000
0000
0000
0100
0000
,
0000
0000
0000
0000
0000
0000
1000
1000
0001
0000
0010
0000
0000
0000
1000
0000
,
1000
0100
0000
1000
0001
1000
1000
0001
,
0000
0000
0000
0000
0000
0000
1000
0000
0001
0000
0010
0000
0100
0100
0100
0100
,
0010
0000
0100
0000
0000
0000
0001
0001
1000
0000
0100
0000
0000
0000
0010
0000
,
0001
0000
0001
0000
1000
0000
0001
0001
0100
0000
0000
0010
1000
0000
0000
1000
,
0100
0000
0001
0001
1000
0000
0001
0000
0100
0100
0001
0000
1000
1000
0001
0001
,
0000
0000
0100
0000
0010
0000
0100
0010
0000
0010
0100
0000
1000
0000
0000
1000
,
0000
0000
0100
0100
1000
0000
0001
0000
1000
0001
1000
0001
1000
0001
1000
0001
,
1000
0000
1000
0000
0001
0000
1000
1000
0010
0000
0000
0100
0001
0000
0000
0001
,
0010
0000
1000
1000
0001
0000
1000
0000
0010
0010
1000
0000
0001
0001
1000
1000
,
0000
0000
0010
0000
0100
0000
0010
0100
0000
0100
0010
0000
0001
0000
0000
0001
,
0000
0000
0010
0010
0001
0000
1000
0000
0001
1000
0001
1000
0001
1000
0001
1000
,
0010
0000
0010
0100
0100
0001
0100
0000
0001
0001
0000
0001
1000
1000
0001
0000
,
0010
0000
0100
0001
0010
0000
0100
0001
1000
1000
0000
1000
0001
0000
0001
0000
,
0000
0000
0010
0000
0100
0000
0001
0001
1000
0000
0010
1000
0000
0010
1000
0000
,
1000
1000
0001
0001
1000
0000
1000
0001
0010
0000
0000
0000
0100
0000
0000
0000
,
0100
0000
0100
0010
0010
1000
0010
0000
1000
1000
0000
1000
0001
0001
1000
0000
,
0100
0000
0010
1000
0100
0000
0010
1000
0001
0001
0000
0001
1000
0000
1000
0000
,
0000
0000
0100
0000
0010
0000
1000
1000
0001
0000
0100
0001
0000
0100
0001
0000
,
0001
0001
1000
1000
0001
0000
0001
1000
0100
0000
0000
0000
0010
0000
0000
0000
,
0000
0000
0001
0001
1000
0000
0001
0000
0100
0000
0001
0010
0100
0000
0001
0010
,
0100
0000
0001
0000
1000
1000
0001
0000
0100
0000
0001
0010
0100
0000
0001
0010
,
0100
0000
0001
0001
1000
0000
0010
0000
0100
0000
0001
0010
0100
0000
0001
0010
,
1000
0000
0001
0000
0100
0100
0010
0000
0100
0000
1000
1000
0001
0001
0001
0001
,
0000
0000
1000
1000
0001
0000
1000
0000
0010
0000
1000
0100
0010
0000
1000
0100
,
0010
0000
1000
0000
0001
0001
1000
0000
0010
0000
1000
0100
0010
0000
1000
0100
,
0010
0000
1000
1000
0001
0000
0100
0000
0010
0000
1000
0100
0010
0000
1000
0100
,
0001
0000
1000
0000
0010
0010
0100
0000
0010
0000
0001
0001
1000
1000
1000
1000
,
0100
0000
0010
0100
0100
0001
0100
0000
,
1000
0000
1000
0000
0010
0010
0100
0000
0001
0000
0000
0000
0000
0000
0000
0000
,
0100
0000
0010
0100
0100
0001
0100
0000
,
0001
0000
0001
0000
0010
0000
0100
0000
1000
0000
0100
0000
0001
0100
0100
0000
,
0000
0000
1000
1000
0001
0001
1000
0000
0010
0000
0100
1000
0001
0000
1000
0100
,
0000
0000
1000
1000
0001
0001
1000
0000
0010
0000
0100
1000
0001
0000
1000
0100
,
0000
0000
1000
1000
0001
0001
1000
0000
0010
0000
0100
1000
0001
0000
1000
0100
,
0000
0000
1000
1000
0001
0001
1000
0000
0010
0000
0100
1000
0001
0000
1000
0100
,
0010
0000
0010
0100
0100
0001
0100
0000
0001
0001
0000
0001
1000
1000
0001
0000
,
0010
0000
0100
0001
0010
0000
0100
0001
1000
1000
0000
1000
0001
0000
0001
0000
,
0000
0000
0010
0000
0100
0000
0001
0001
1000
0000
0010
1000
0000
0010
1000
0000
,
1000
1000
0001
0001
1000
0000
1000
0001
0010
0000
0000
0000
0100
0000
0000
0000
,
0100
0000
0100
0010
0010
1000
0010
0000
1000
1000
0000
1000
0001
0001
1000
0000
,
0100
0000
0010
1000
0100
0000
0010
1000
0001
0001
0000
0001
1000
0000
1000
0000
,
0000
0000
0100
0000
0010
0000
1000
1000
0001
0000
0100
0001
0000
0100
0001
0000
,
0001
0001
1000
1000
0001
0000
0001
1000
0100
0000
0000
0000
0010
0000
0000
0000
;

//---------------dance-single - ----------------
#NOTES:
     dance-single:
     :
     Hard:
     13:
     0.617303,0.599178,0.113053,0.062807,0.087930,344.000000,335.000000,9.000000,5.000000,0.000000,0.000000,0.617303,0.599178,0.113053,0.062807,0.087930,344.000000,335.000000,9.000000,5.000000,0.000000,0.000000:
0000
0000
0000
0000
,
0000
0000
0000
0000
,
0000
0000
0000
0000
,
0110
0000
0000
0001
1000
0100
0000
0100
,
1000
0001
0000
0001
0100
0010
1000
0010
,
0110
0000
0000
0010
1000
0001
0010
0100
,
0010
0010
0000
1000
0010
0100
0010
0001
,
1001
0000
0000
0010
0100
0001
0000
0001
,
0100
0010
0000
0010
1000
0001
0100
0001
,
1001
0000
0000
0001
0100
0010
1000
0001
,
0010
0010
0000
1000
0001
1000
0010
0001
,
1000
0000
0100
0000
0010
0000
0001
0000
0000
0000
0001
0000
0100
0000
0000
0100
,
0001
0100
0010
1000
0010
0010
0100
0100
,
0001
0100
0010
1000
0000
1000
0100
0000
,
1000
0001
0100
0010
0000
0010
0100
0010
,
1000
0000
0100
0000
0010
0000
0010
0000
0100
0000
0100
0000
1000
0000
0000
0100
,
1000
0000
0100
0000
0001
0000
0100
0000
0001
0000
0100
0000
2000
0000
0000
3001
,
0000
0000
0001
0000
0100
0000
1000
0000
0100
0000
1000
0000
0100
0000
0000
0100
,
0000
0001
1000
0001
0100
0010
1000
0000
,
1100
0000
1000
0001
0000
0001
0100
0001
,
0110
0000
0000
0000
0010
0000
0001
0000
0010
0000
1000
0010
1000
0000
0001
0000
,
0010
0100
0010
0100
0001
1000
0010
0100
,
1000
0001
1000
0001
0100
0010
1000
0000
,
1000
1000
0100
0100
0001
0100
1000
0001
,
0010
0000
1000
0000
0010
0000
0001
0000
0010
0100
0000
0100
0010
0000
0100
0000
,
1000
1000
0100
0010
0100
0100
1000
1000
,
0001
0100
0010
1000
0002
0000
0013
0000
,
0200
0000
0000
0000
,
0000
0000
0000
0000
0000
1300
0001
0000
,
1000
0100
0010
0001
0000
0001
0100
0000
,
0001
0010
0100
1000
0000
1000
0010
0100
,
0010
1000
0100
1000
0001
0001
0100
0100
,
0001
1000
0010
0100
0010
0010
1000
1000
,
0100
1000
0010
1000
0001
0001
0010
0010
,
0001
1000
0100
0010
0100
0100
1000
0000
,
1001
0000
0001
0100
0010
0001
0010
0000
,
0100
1000
0100
0010
1000
0000
1000
0000
,
1001
0000
1000
0100
0010
1000
0010
0000
,
0100
0001
0100
0010
0001
0100
0001
1000
,
0000
0000
0010
0000
0100
0000
0010
0000
0100
0000
0001
0000
1000
0000
0000
0100
,
0000
0000
0100
0000
0010
0000
0100
0000
0001
0000
0100
0000
1000
0000
0000
1000
,
0000
0000
0100
0000
0010
0000
0100
0000
0010
0000
0001
0000
1000
0000
0000
0010
,
0000
0000
0010
0000
0100
0000
0010
0000
0001
0000
0010
0000
1000
0000
0000
1000
,
0100
0000
1000
0001
0000
0001
0100
0001
,
0110
0000
0000
0000
0010
0000
0001
0000
0010
0000
1000
0010
1000
0000
0001
0000
,
0010
0100
0010
0100
0001
1000
0010
0100
,
1000
0001
1000
0001
0100
0010
1000
0000
,
1000
1000
0100
0100
0001
0100
1000
0001
,
0010
0000
1000
0000
0010
0000
0001
0000
0010
0100
0000
0100
0010
0000
0100
0000
,
1000
1000
0100
0010
0100
0100
1000
1000
,
0001
0100
0010
1000
0002
0000
0013
0000
,
0100
1000
0001
0100
0000
0010
0100
0020
,
0000
0000
0000
0000
,
0030
0000
0000
0000
;

//---------------dance-single - ----------------
#NOTES:
     dance-single:
     :
     Medium:
     10:
     0.448621,0.532603,0.238666,0.062807,0.000000,250.000000,231.000000,19.000000,5.000000,0.000000,0.000000,0.448621,0.532603,0.238666,0.062807,0.000000,250.000000,231.000000,19.000000,5.000000,0.000000,0.000000:
0000
0000
0000
0000
,
0000
0000
0000
0000
,
0000
0000
0000
0000
,
1100
0000
0000
0001
0100
0001
0000
0010
,
0100
0010
0000
0001
0100
0000
0001
0000
,
1100
0000
0000
0010
0100
0010
0100
0000
,
1000
1000
0000
0010
0100
0000
0100
0000
,
0011
0000
0000
1000
0010
1000
0000
0100
,
0010
0100
0000
1000
0010
0000
1000
0000
,
0011
0000
0000
0100
0010
0100
0010
0000
,
0001
0001
0000
0100
0010
0000
0010
0000
,
1001
0000
0100
0001
0000
0100
1000
0000
,
0100
0000
0010
0001
0000
0010
1000
0000
,
0110
0000
1000
0100
0000
1000
0010
0000
,
1000
0000
0001
0100
0000
0001
0010
0000
,
0100
0010
0100
0000
1000
0000
1000
0000
,
0001
0100
0001
0000
0010
0000
0200
0000
,
0300
0010
0001
0001
,
1000
0010
1000
0000
0100
0000
0010
0000
,
0110
0000
1000
0001
0000
0100
0001
0000
,
0101
0000
0100
0000
0001
0100
0010
0000
,
0100
0000
0100
0000
0001
1000
0100
0000
,
0010
0000
0100
1000
0000
1000
0010
0000
,
0100
0010
0100
0000
0001
0000
0001
0000
,
0100
0000
0100
0000
0010
1000
0100
0000
,
0010
0100
0010
0000
0001
0000
0001
0000
,
0010
0100
0010
0000
0002
0000
0103
0000
,
0020
0000
0000
0000
,
0000
0000
0000
0000
0000
0130
0010
0000
,
1000
0000
0100
0010
0000
1000
0001
0000
,
1000
0000
0010
0100
0000
1000
0001
0000
,
1000
0100
0010
0000
0100
0000
1100
0000
,
0110
0000
0001
0100
0010
0000
0101
0000
,
0011
0000
0100
0001
0010
0000
1100
0000
,
0110
0000
0010
1000
0100
0000
0011
0000
,
0110
0000
0000
1000
0010
0000
0010
0000
,
0100
0001
0010
0000
0100
0000
0000
0000
,
0110
0000
0000
1000
0010
0000
0010
0000
,
0100
0001
0010
0000
0100
0010
0100
0000
,
0000
0010
0001
0000
0100
0000
0100
0000
,
0000
0010
1000
0000
0100
0000
0100
0000
,
0000
1000
0010
0000
0100
0000
0100
0000
,
0000
0001
0010
0000
0100
0000
0100
0000
,
0110
0000
0001
1000
0000
0010
1000
0000
,
1010
0000
0010
0000
1000
0010
0100
0000
,
0010
0000
0010
0000
1000
0001
0010
0000
,
0100
0000
0010
0001
0000
0001
0100
0000
,
0010
0100
0010
0000
1000
0000
1000
0000
,
0010
0000
0010
0000
0100
0001
0010
0000
,
0100
0010
0100
0000
1000
0000
1000
0000
,
0100
0010
0100
0000
2000
0000
3010
0000
,
0100
0000
0010
1000
0000
0100
0010
0200
,
0000
0000
0000
0000
,
0300
0000
0000
0000
;

//---------------dance-single - ----------------
#NOTES:
     dance-single:
     :
     Easy:
     6:
     0.299679,0.332877,0.150737,0.100491,0.000000,167.000000,155.000000,12.000000,8.000000,0.000000,0.000000,0.299679,0.332877,0.150737,0.100491,0.000000,167.000000,155.000000,12.000000,8.000000,0.000000,0.000000:
// measure 0
0000
0000
0000
0000
,  // measure 1
0000
0000
0000
0000
,  // measure 2
0000
0000
0000
0000
,  // measure 3
0110
0000
0010
0000
,  // measure 4
0010
0000
1000
1000
,  // measure 5
0011
0000
0100
0100
,  // measure 6
0100
0000
1000
1000
,  // measure 7
0110
0000
0100
0000
,  // measure 8
0100
0000
0001
0001
,  // measure 9
1100
0000
0010
0010
,  // measure 10
0010
0000
0001
0001
,  // measure 11
1000
0100
0001
0000
,  // measure 12
1000
0100
0001
0001
,  // measure 13
0000
1000
0010
0001
,  // measure 14
0000
1000
0010
0001
,  // measure 15
0010
0100
0010
0100
,  // measure 16
0100
0010
0100
2000
,  // measure 17
3000
0010
0100
0020
,  // measure 18
0030
0001
0010
0010
,  // measure 19
1001
0000
0100
0100
,  // measure 20
1001
0000
0010
0100
,  // measure 21
0010
0010
1000
1000
,  // measure 22
0100
0010
0200
0300
,  // measure 23
1000
1000
0001
0001
,  // measure 24
0100
0010
1000
0011
,  // measure 25
0000
0010
0100
0010
,  // measure 26
0100
0100
2000
3010
,  // measure 27
0200
0000
0000
0000
,  // measure 28
0000
0000
0000
0310
,  // measure 29
1000
0100
0001
0000
,  // measure 30
0001
0100
1000
0000
,  // measure 31
0100
0010
0001
0001
,  // measure 32
0001
0100
1000
1000
,  // measure 33
1000
0100
0001
0001
,  // measure 34
0001
0010
0100
0100
,  // measure 35
0110
0000
0010
0010
,  // measure 36
0001
1000
0100
0000
,  // measure 37
0110
0000
0100
0100
,  // measure 38
1000
0001
0100
0010
,  // measure 39
0000
0100
0100
0100
,  // measure 40
0000
1000
1000
1000
,  // measure 41
0000
0001
0001
0001
,  // measure 42
0000
0010
0010
0010
,  // measure 43
1001
0000
0010
0010
,  // measure 44
1001
0000
0100
0010
,  // measure 45
0100
0100
1000
1000
,  // measure 46
0010
0100
0020
0030
,  // measure 47
1000
1000
0001
0001
,  // measure 48
0010
0100
1000
0101
,  // measure 49
0000
0100
0010
0100
,  // measure 50
0010
0010
2000
3100
,  // measure 51
0020
0000
0000
0000
,  // measure 52
0000
0000
0000
0000
,  // measure 53
0030
0000
0000
0000
;

//---------------dance-single - ----------------
#NOTES:
     dance-single:
     :
     Beginner:
     2:
     0.114847,0.199726,0.125614,0.025123,0.000000,64.000000,54.000000,10.000000,2.000000,0.000000,0.000000,0.114847,0.199726,0.125614,0.025123,0.000000,64.000000,54.000000,10.000000,2.000000,0.000000,0.000000:
0000
0000
0000
0000
,
0000
0000
0000
0000
,
0000
0000
0000
0000
,
1001
0000
0000
0000
,
1000
0000
0000
0000
,
0001
0000
0000
0000
,
0001
0000
0001
0000
,
1001
0000
0000
0000
,
0001
0000
0000
0000
,
1000
0000
0000
0000
,
1000
0000
1000
0000
,
1000
0000
0000
0000
,
1000
0000
0000
0000
,
0100
0000
0000
0000
,
0100
0000
0000
0000
,
0001
0000
0000
0000
,
0001
0000
0000
0000
,
0010
0000
0000
0000
,
0010
0000
0000
0000
,
0110
0000
0000
0000
,
0110
0000
0000
0000
,
1001
0000
0000
0000
,
1001
0000
0000
0000
,
0001
0000
0001
0000
,
0001
0000
0000
0000
,
1000
0000
1000
0000
,
1000
0000
0000
0000
,
0002
0000
0000
0000
,
0000
0000
0003
0000
,
0001
0000
0000
0000
,
0001
0000
0000
0000
,
0100
0000
0000
0000
,
0100
0000
0000
0000
,
0100
0000
0000
0000
,
0100
0000
0000
0000
,
0010
0000
0000
0000
,
0001
0000
0000
0000
,
0100
0000
0000
0000
,
1000
0000
0000
0000
,
0010
0000
0000
0000
,
0010
0000
0000
0000
,
0010
0000
0000
0000
,
0010
0000
0000
0000
,
0110
0000
0000
0000
,
0110
0000
0000
0000
,
1001
0000
0000
0000
,
1001
0000
0000
0000
,
0001
0000
0001
0000
,
0001
0000
0000
0000
,
1000
0000
1000
0000
,
1000
0000
0000
0000
,
0002
0000
0000
0000
,
0000
0000
0000
0000
,
0003
0000
0000
0000
;
