#TITLE:Phoenix;
#SUBTITLE:;
#ARTIST:Hommarju;
#TITLETRANSLIT:;
#SUBTITLETRANSLIT:;
#ARTISTTRANSLIT:;
#GENRE:BEMANI;
#CREDIT:;
#BANNER:Phoenix.png;
#BACKGROUND:Phoenix-bg.png;
#LYRICSPATH:;
#CDTITLE:../cdtitle.png;
#MUSIC:Phoenix.ogg;
#OFFSET:1.017000;
#SAMPLESTART:87.615997;
#SAMPLELENGTH:15.000000;
#LASTBEATHINT:0.049867;
#SELECTABLE:YES;
#DISPLAYBPM:176.000000;
#BPMS:0.000000=176.000000
,31.000000=352.000000
,32.000000=176.000000
,131.000000=352.000000
,132.000000=176.000000
;
#STOPS:31.000000=0.170000,
131.000000=0.170000
;
#BGCHANGES:-99.000=../bg.avi=1.000=0=0=1=====,
99999=-nosongbg-=1.000=0=0=0 // don't automatically add -songbackground-
;
#KEYSOUNDS:;
#ATTACKS:;

//---------------dance-single - ----------------
#NOTES:
     dance-single:
     :
     Beginner:
     4:
     0.176617,0.245102,0.077810,0.000000,0.000000,143.000000,134.000000,9.000000,0.000000,0.000000,0.000000,0.176617,0.245102,0.077810,0.000000,0.000000,143.000000,134.000000,9.000000,0.000000,0.000000,0.000000:
0000
0000
0000
0000
,
0000
0000
0000
0000
,
0000
0000
0000
0000
,
0000
0000
0000
0000
,
0000
0000
0000
0000
,
0000
0000
0000
0000
,
0000
0000
0000
0000
,
0000
0000
0000
0000
,
0000
0000
0000
0000
,
1001
0000
0001
0000
,
1000
1000
1000
0000
,
0001
0000
1000
0000
,
0001
0001
0001
0000
,
0100
0000
0010
0000
,
0100
0100
0100
0000
,
0010
0000
0100
0000
,
0010
0010
0010
0000
,
0001
0000
0100
0000
,
1000
1000
1000
0000
,
1000
0000
0010
0000
,
0001
0001
0001
0000
,
0001
0000
1000
0000
,
0100
0100
0100
0000
,
1000
0000
0001
0000
,
0010
0010
0010
0010
,
0010
0000
0000
0000
,
0000
0000
0000
0000
,
0000
0000
0000
0000
,
0000
0000
0000
0000
,
0000
0000
0000
0000
,
0000
0000
0000
0000
,
0000
0000
0000
0000
,
0000
0000
0000
0000
,
0001
0000
0001
0000
,
0001
0000
0000
0000
,
0010
0000
0010
0000
,
0010
0000
0000
0000
,
1000
0000
1000
0000
,
1000
0000
0000
0000
,
0100
0000
0100
0000
,
0100
0000
0000
0000
,
0110
0000
0000
0000
,
0100
0000
0000
0000
,
0100
0000
0000
0000
,
0100
0000
0000
0000
,
1000
0000
0000
0000
,
1000
0000
0000
0000
,
1000
0000
0000
0000
,
1001
0000
0000
0000
,
0110
0000
0000
0000
,
0010
0000
0001
0000
,
0001
0000
0000
0000
,
0100
0000
1000
0000
,
1000
0000
0000
0000
,
0010
0000
1000
0000
,
1000
0000
0000
0000
,
0100
0100
0100
0000
,
1001
0000
1000
0000
,
0001
0001
0001
0000
,
1000
0000
0001
0000
,
1000
1000
1000
0000
,
0100
0000
0010
0000
,
0100
0100
0100
0000
,
0010
0000
0100
0000
,
0110
0000
0000
0000
,
1001
0000
0001
0000
,
0100
0100
0100
0000
,
0010
0000
1000
0000
,
0001
0001
0001
0000
,
0010
0000
0100
0000
,
1000
1000
1000
0000
,
0001
0000
0100
0000
,
0010
0010
0010
0000
,
1001
0000
1000
0000
,
0100
0100
0100
0000
,
0010
0000
0001
0000
,
1000
1000
1000
0000
,
0010
0000
0100
0000
,
0001
0001
0001
0000
,
1000
0000
0100
0000
,
0010
0010
0010
0000
,
1001
0000
0000
0000
;

//---------------dance-single - ----------------
#NOTES:
     dance-single:
     :
     Hard:
     13:
     0.592840,0.735307,0.095101,0.224785,0.345823,480.000000,469.000000,11.000000,26.000000,0.000000,0.000000,0.592840,0.735307,0.095101,0.224785,0.345823,480.000000,469.000000,11.000000,26.000000,0.000000,0.000000:
// measure 0
0000
0000
0000
0000
,  // measure 1
0000
0000
0000
0000
,  // measure 2
0000
0000
0000
0000
,  // measure 3
0000
0000
0000
0000
,  // measure 4
0000
0000
0000
0000
,  // measure 5
0000
0000
0000
0000
,  // measure 6
0000
0000
0000
0000
,  // measure 7
0000
0000
0000
0000
,  // measure 8
0010
0000
0000
0010
0000
0000
0100
0000
0000
0100
0000
0000
1000
0000
0001
0000
,  // measure 9
1001
0100
1000
0000
0010
1000
0100
0001
,  // measure 10
0100
0010
0001
0000
1000
0010
0100
0001
,  // measure 11
1000
0100
0001
0000
0010
0001
0100
1000
,  // measure 12
0100
0010
1000
0000
0001
0010
0100
1000
,  // measure 13
0001
0100
0010
0000
0001
0100
0010
1000
,  // measure 14
0100
0010
0001
0000
0100
1000
0100
0001
,  // measure 15
1000
0100
0010
0000
1000
0100
0010
0001
,  // measure 16
0100
0010
1000
0000
0100
0001
0100
1000
,  // measure 17
0001
0000
0100
0000
0010
0000
1000
0000
0000
1000
0000
0000
0100
0000
0010
0000
,  // measure 18
0001
0000
0100
0000
0010
0000
0000
1000
0000
0000
1000
0000
0100
0000
0100
0000
,  // measure 19
1000
0000
0010
0000
0100
0000
0001
0000
0000
0001
0000
0000
0010
0000
0100
0000
,  // measure 20
1000
0000
0010
0000
0100
0000
0000
0001
0000
0000
0001
0000
0010
0000
0001
0000
,  // measure 21
0100
0001
0000
0000
1000
0000
0100
0000
0010
0001
0000
0000
1000
0000
0010
0000
,  // measure 22
0100
0001
0000
0000
1000
0000
0100
0000
0010
0001
0000
0000
1000
0000
0010
0000
,  // measure 23
0100
0001
1000
0100
0001
1000
0010
0001
,  // measure 24
1000
0010
0100
1000
0001
0010
1000
0100
,  // measure 25
0220
0000
0000
0000
,  // measure 26
0000
0000
0000
0000
,  // measure 27
0000
0000
0000
0000
,  // measure 28
0000
0000
0000
0000
,  // measure 29
0000
0000
0000
0000
,  // measure 30
0000
0000
0000
0000
,  // measure 31
0000
0000
0000
0000
,  // measure 32
0000
0000
0000
0330
,  // measure 33
0100
0000
0000
0010
0000
0000
0010
0000
1000
0000
0000
0100
0000
0000
0100
0000
,  // measure 34
0010
0000
0001
0000
1000
0000
0001
0000
0100
0000
0000
0010
0000
0000
0010
0000
,  // measure 35
1000
0000
0000
0010
0000
0000
0001
0000
1000
0000
0000
0100
0000
0000
0001
0000
,  // measure 36
1000
0000
0100
0000
0010
0000
0001
0000
0100
0000
0000
0010
0000
0000
1000
0000
,  // measure 37
0010
0000
0000
0100
0000
0000
0100
0000
0001
0000
0000
0010
0000
0000
0010
0000
,  // measure 38
0100
0000
1000
0000
0001
0000
1000
0000
0010
0000
0000
0100
0000
0000
0100
0000
,  // measure 39
0001
0000
0000
0100
0000
0000
1000
0000
0001
0000
0000
0010
0000
0000
1000
0000
,  // measure 40
0001
0000
0010
0000
0100
0000
1000
0000
0010
0000
0000
0100
0000
0000
0001
0000
,  // measure 41
1000
0000
0000
1000
0000
0000
1000
0000
0100
0000
0000
0100
0000
0000
0100
0000
,  // measure 42
0010
0000
0001
0000
1000
0000
1000
0000
0100
0000
0000
1000
0000
0000
0001
0000
,  // measure 43
0100
0000
0000
0100
0000
0000
0100
0000
0010
0000
0000
0010
0000
0000
0010
0000
,  // measure 44
0100
0000
0001
0000
1000
0000
1000
0000
0100
0000
0000
0010
0000
0000
0010
0000
,  // measure 45
0001
0000
0000
0001
0000
0000
0001
0000
0010
0000
0000
0010
0000
0000
0010
0000
,  // measure 46
0100
0000
1000
0000
0001
0000
0001
0000
0010
0000
0000
0001
0000
0000
1000
0000
,  // measure 47
0010
0000
0000
0010
0000
0000
0010
0000
0100
0000
0000
0100
0000
0000
0100
0000
,  // measure 48
1000
0000
0000
1010
0000
0000
0001
0000
0000
0011
0000
0000
0100
0000
1000
0000
,  // measure 49
2001
0000
0000
3002
0000
0000
0203
0000
0000
0320
0000
0000
1030
0000
0001
0000
,  // measure 50
0010
0000
0100
0000
1000
0000
1000
0000
0002
0000
0000
0203
0000
0000
0310
0000
,  // measure 51
2000
0000
0000
3200
0000
0000
2300
0000
0000
3002
0000
0000
0013
0000
0100
0000
,  // measure 52
1000
0000
0001
0000
0100
0000
0010
0000
2000
0000
0000
3002
0000
0000
0103
0000
,  // measure 53
0002
0000
0000
2003
0000
0000
3200
0000
0000
0320
0000
0000
0031
0000
1000
0000
,  // measure 54
0010
0000
0100
0000
0001
0000
0001
0000
2000
0000
0000
3200
0000
0000
0310
0000
,  // measure 55
0002
0000
0000
0203
0000
0000
0302
0000
0000
2003
0000
0000
3010
0000
0100
0000
,  // measure 56
0001
0000
0000
0010
0000
0000
1000
0000
0000
0100
0000
0000
0001
0000
0001
0000
,  // measure 57
1000
0010
1000
0010
1000
0100
1000
0100
,  // measure 58
0010
0001
0010
0001
0100
0001
0100
0001
,  // measure 59
1000
0010
0001
0010
1000
0010
0001
0010
,  // measure 60
1000
0100
0001
0100
1000
0100
0010
0010
,  // measure 61
0001
0010
0001
0010
0001
0100
0001
0100
,  // measure 62
0010
1000
0010
1000
0100
1000
0100
1000
,  // measure 63
0001
0010
0100
1000
0001
0100
0010
1000
,  // measure 64
2002
0000
0000
3003
,  // measure 65
0001
0000
0000
0001
0100
0000
1000
0000
0001
0000
0000
0001
0100
0000
1000
0000
,  // measure 66
0010
0000
0001
0000
1000
0000
0100
0000
0001
0000
0000
1000
0100
0000
0010
0000
,  // measure 67
0001
0000
0000
1000
0010
0000
0100
0000
0001
0000
0000
1000
0100
0000
0010
0000
,  // measure 68
0001
0000
0100
0000
1000
0000
0010
0000
0001
0000
0000
0100
0000
0000
1000
0000
,  // measure 69
0001
0000
0000
0001
0010
0000
1000
0000
0001
0000
0000
0001
0010
0000
1000
0000
,  // measure 70
0100
0000
0001
0000
1000
0000
0010
0000
0001
0000
0000
1000
0010
0000
0100
0000
,  // measure 71
0001
0000
0000
1000
0100
0000
0010
0000
0001
0000
0000
1000
0010
0000
0100
0000
,  // measure 72
0001
0000
0010
0000
1000
0000
0100
0000
1001
0000
0000
0011
0000
0000
1010
0000
,  // measure 73
0110
0000
0000
1000
0001
0000
1000
0000
0010
0000
0000
0100
0001
0000
1000
0000
,  // measure 74
0001
0010
0000
0001
0010
0000
0100
1000
0000
0100
1000
0000
0001
0000
0100
0000
,  // measure 75
0010
0000
0000
0100
0001
0000
1000
0000
0100
0000
0000
0100
1000
0000
0001
0000
,  // measure 76
0010
0001
0000
1000
0010
0000
0100
0001
0000
1000
0100
0000
0010
0000
0001
0000
,  // measure 77
0100
0001
1000
0001
0010
0100
1000
0001
,  // measure 78
1000
0100
0000
1000
0100
0000
0010
0001
0000
0010
0001
0000
1000
0000
0010
0000
,  // measure 79
0100
0010
1000
0001
0010
0100
1000
0010
,  // measure 80
0100
0001
0000
1000
0100
0000
0010
0001
0000
1000
0010
0000
0100
0000
0001
0000
,  // measure 81
1001
0000
0000
0000
;

//---------------dance-single - ----------------
#NOTES:
     dance-single:
     :
     Challenge:
     16:
     0.786748,1.190497,0.138329,0.060519,0.920755,637.000000,621.000000,16.000000,7.000000,0.000000,0.000000,0.786748,1.190497,0.138329,0.060519,0.920755,637.000000,621.000000,16.000000,7.000000,0.000000,0.000000:
// measure 0
0000
0000
0000
0000
,  // measure 1
0000
0000
0000
0000
,  // measure 2
0000
0000
0000
0000
,  // measure 3
0000
0000
0000
0000
,  // measure 4
0000
0000
0000
0000
,  // measure 5
0000
0000
0000
0000
,  // measure 6
0000
0000
0000
0000
,  // measure 7
0000
0000
0000
0000
,  // measure 8
1000
0100
0000
0001
0100
0000
1000
0100
0000
0001
0100
0000
0010
1000
0001
0000
,  // measure 9
1001
0000
0100
0000
0001
0000
0100
0010
0000
0010
0000
0010
0001
1000
0001
0000
,  // measure 10
0100
0010
0000
1000
0100
0000
0010
0100
0000
1000
0010
0000
0100
0000
0010
0000
,  // measure 11
1000
0000
0001
0000
0010
0000
0100
0010
0000
1000
0010
0000
0100
0000
0010
0000
,  // measure 12
0001
1000
0000
0010
1000
0000
0001
1000
0000
0010
1000
0000
0100
0000
0010
0000
,  // measure 13
0001
0000
0100
0000
1000
0000
0100
0010
0000
0010
0000
0010
1000
0001
1000
0000
,  // measure 14
0100
0010
0000
0001
0100
0000
0010
0100
0000
0001
0010
0000
0100
0000
0010
0000
,  // measure 15
0001
0000
1000
0000
0010
0000
0100
0010
0000
0001
0010
0000
0100
0000
0010
0000
,  // measure 16
1000
0001
0000
0010
0001
0000
1000
0001
0000
0010
0001
0000
0100
0000
0010
0000
,  // measure 17
1000
0010
1000
0000
0001
0000
0010
0001
0000
1000
0000
0001
0100
0001
0100
0000
,  // measure 18
0010
1000
0000
0010
1000
0000
0100
1000
0000
0100
1000
0000
0100
0010
0001
0000
,  // measure 19
1000
0100
1000
0000
0001
0000
0100
0001
0000
1000
0000
0001
0010
0001
0010
0000
,  // measure 20
0100
1000
0000
0100
1000
0000
0010
1000
0000
0010
1000
0000
0010
0100
0001
0000
,  // measure 21
0100
1000
0100
0000
0001
0000
1000
0000
0100
0001
0100
0000
1000
0000
0001
0000
,  // measure 22
0100
1000
0100
0000
0001
0000
1000
0000
0100
0001
0100
0000
1000
0000
0001
0000
,  // measure 23
0100
0010
0100
0010
1000
0100
1000
0100
0010
0100
0010
0100
0010
0001
0010
0001
,  // measure 24
1000
0010
1000
0001
0100
0001
1000
0100
1000
0001
0010
0001
1000
0010
0100
0001
,  // measure 25
2002
0000
0000
0000
,  // measure 26
0000
0000
0000
0000
,  // measure 27
0000
0000
0000
0000
,  // measure 28
0000
0000
0000
0000
,  // measure 29
0000
0000
0000
0000
,  // measure 30
0000
0000
0000
0000
,  // measure 31
0000
0000
0000
0000
,  // measure 32
0000
0000
0000
3003
,  // measure 33
0110
0000
0010
0001
0000
0000
1000
0000
0010
0000
0010
1000
0000
0000
0001
0000
,  // measure 34
0010
0100
0000
0010
0100
0000
1000
0000
0001
0000
0100
0001
0000
0100
0001
0000
,  // measure 35
1000
0000
1000
0100
0000
0000
0010
0000
0001
0000
0001
0100
0000
0000
0010
0000
,  // measure 36
1000
0001
0000
1000
0001
0000
1000
0000
0100
0000
0000
1000
0000
0000
0010
0000
,  // measure 37
0100
0000
0100
0001
0000
0000
1000
0000
0100
0000
0100
1000
0000
0000
0001
0000
,  // measure 38
0100
0010
0000
0100
0010
0000
1000
0000
0001
0000
0010
0001
0000
0010
0001
0000
,  // measure 39
1000
0000
1000
0010
0000
0000
0100
0000
0001
0000
0001
0010
0000
0000
0100
0000
,  // measure 40
1000
0001
0000
1000
0001
0000
1000
0000
0010
0000
0000
1000
0000
0000
0100
0000
,  // measure 41
0001
0000
0000
0001
0000
0000
0100
0000
1000
0000
0000
1000
0000
0000
0100
0000
,  // measure 42
0010
0001
0000
0001
0010
0000
0100
0000
1000
0000
0000
1000
0000
0000
0010
0000
,  // measure 43
0001
0000
0000
0001
0000
0000
0010
0000
1000
0000
0000
1000
0000
0000
0010
0000
,  // measure 44
0100
0001
0000
0001
0100
0000
0010
0000
1000
0000
0000
0001
0000
0000
0010
0000
,  // measure 45
1000
0000
0000
1000
0000
0000
0010
0000
0001
0000
0000
0001
0000
0000
0010
0000
,  // measure 46
0100
1000
0000
1000
0100
0000
0010
0000
0001
0000
0000
0001
0000
0000
0100
0000
,  // measure 47
1000
0000
0000
1000
0000
0000
0100
0000
0001
0000
0000
0001
0000
0000
0100
0000
,  // measure 48
0110
0000
0000
0011
0000
0000
1010
0000
0000
0110
0000
0000
0101
0000
1100
0000
,  // measure 49
1001
0000
0001
0000
0100
0000
0000
0010
0000
0010
0100
0000
0001
0000
1000
0000
,  // measure 50
0100
0010
0100
0000
1000
0000
0001
0000
0200
0000
0000
0010
0000
0000
0310
0000
,  // measure 51
0100
0000
0001
0000
1000
0000
0000
0100
0000
0100
1000
0000
0001
0000
0001
0000
,  // measure 52
1000
0100
0010
0000
0001
0000
1000
0000
0020
0000
0000
0100
0000
0000
0130
0000
,  // measure 53
0001
0000
1000
0000
0010
0000
0000
0100
0000
0100
0010
0000
1000
0000
0001
0000
,  // measure 54
0010
0100
0010
0000
0001
0000
1000
0000
0020
0000
0000
0100
0000
0000
0130
0000
,  // measure 55
0010
0000
1000
0000
0001
0000
0000
0010
0000
0010
0001
0000
1000
0000
1000
0000
,  // measure 56
0001
0100
0000
1000
0010
0000
1000
0100
0000
0001
0010
0000
0100
0000
0100
0000
,  // measure 57
0010
0001
0100
0001
0010
0001
1000
0001
,  // measure 58
0100
0010
0001
0010
0100
0010
1000
0010
,  // measure 59
0100
1000
0010
1000
0100
1000
0001
1000
,  // measure 60
0010
0100
1000
0100
0010
0100
0001
0100
,  // measure 61
1000
0000
0001
0010
0001
0010
0000
0001
0000
0001
1000
0000
0100
1000
0001
1000
,  // measure 62
0001
0000
1000
0010
1000
0010
0000
1000
0000
1000
0001
0000
0100
0001
1000
0001
,  // measure 63
1000
0010
0100
0001
1000
0010
0100
0001
1000
0100
0010
0001
0100
0010
1000
0100
,  // measure 64
0220
0000
0000
0330
,  // measure 65
1001
0000
0100
0001
0010
0000
0001
0000
0100
0000
0010
1000
0100
0000
0010
0000
,  // measure 66
0001
1000
0000
0010
1000
0000
0100
0000
0010
0000
0001
0100
1000
0000
1000
0000
,  // measure 67
0100
0000
0010
1000
0100
0000
1000
0000
0010
0000
0100
0001
0010
0000
0100
0000
,  // measure 68
1000
0001
0000
0100
0001
0000
0010
0000
0100
0000
1000
0010
0001
0000
0001
0000
,  // measure 69
1000
0000
0100
0001
0010
0000
0001
0000
0100
0000
0010
1000
0100
0000
0010
0000
,  // measure 70
0001
1000
0000
0010
1000
0000
0100
0000
0010
0000
0001
0100
1000
0000
1000
0000
,  // measure 71
0100
0000
0010
1000
0100
0000
1000
0000
0010
0000
0100
0001
0010
0000
0100
0000
,  // measure 72
1000
0001
0000
0100
0001
0000
0010
0100
1000
0000
0000
1010
0000
0000
0101
0000
,  // measure 73
0011
0000
0010
0100
1000
0000
0010
0000
0001
1000
0000
1000
0100
0000
0001
0000
,  // measure 74
1000
0100
0000
0010
0001
0000
1000
0100
0000
0010
0001
1000
0001
1000
0001
0000
,  // measure 75
0100
0000
0100
0010
1000
0000
0100
0000
0001
1000
0000
1000
0010
0000
0001
0000
,  // measure 76
1000
0100
0000
0001
0010
0000
1000
0100
0000
0001
0010
0000
0100
0010
0100
0000
,  // measure 77
1000
0001
1000
0001
1000
0000
0001
0100
0001
0100
0001
0100
0010
0000
1000
0100
,  // measure 78
0001
0100
0000
1000
0100
0000
0001
0100
0000
1000
0100
0000
0010
0001
1000
0000
,  // measure 79
0001
1000
0001
1000
0001
0000
1000
0010
1000
0010
1000
0010
0100
0001
0010
0100
,  // measure 80
1000
0010
0000
0001
0010
0000
1000
0010
0000
0001
0010
0000
0100
1000
0001
0000
,  // measure 81
1001
0000
0000
0000
;

//---------------dance-single - ----------------
#NOTES:
     dance-single:
     :
     Easy:
     7:
     0.319887,0.560234,0.293950,0.155621,0.000000,259.000000,225.000000,34.000000,18.000000,0.000000,0.000000,0.319887,0.560234,0.293950,0.155621,0.000000,259.000000,225.000000,34.000000,18.000000,0.000000,0.000000:
0000
0000
0000
0000
,
0000
0000
0000
0000
,
0000
0000
0000
0000
,
0000
0000
0000
0000
,
0000
0000
0000
0000
,
0000
0000
0000
0000
,
0000
0000
0000
0000
,
0000
0000
0000
0000
,
0100
0000
0000
0010
0000
0000
0100
0000
,
1001
0010
0010
0000
,
0100
1000
0010
0001
,
0100
0100
0010
0000
,
0100
0001
0010
1000
,
0001
0100
0100
0000
,
0010
0001
0100
1000
,
0010
0010
0100
0000
,
0010
1000
0100
0001
,
1000
0010
0001
0010
,
1000
0010
0001
0010
,
1000
0100
0001
0100
,
1000
0100
0001
0100
,
1000
1000
0001
0001
,
1000
1000
0001
0001
,
0100
1000
0010
0001
,
1000
0010
0001
0100
,
0020
0000
0000
0000
,
0000
0000
0000
0000
,
0000
0000
0000
0000
,
0000
0000
0000
0000
,
0000
0000
0000
0000
,
0000
0000
0000
0000
,
0000
0000
0000
0000
,
0000
0000
0000
0030
,
0002
0000
2003
0000
,
3001
0001
0100
0000
,
2000
0000
3002
0000
,
1003
1000
0100
0000
,
0002
0000
2003
0000
,
3001
0001
0010
0000
,
2000
0000
3002
0000
,
1003
1000
0010
0000
,
2001
0000
3200
0000
,
0301
0001
0100
1000
,
0020
0000
0230
0000
,
1300
1000
0100
0001
,
0002
0000
0023
0000
,
1030
1000
0010
0001
,
0200
0000
0320
0000
,
0130
0000
0000
0100
0000
0000
0100
0000
,
1001
0010
0000
0010
,
0100
0100
0001
0010
,
1000
0100
0000
0100
,
1000
1000
0010
0100
,
0001
0100
0000
0100
,
0010
0010
1000
0100
,
0001
0010
0000
0010
,
1000
0000
0000
0001
0000
0000
1000
0000
,
0110
0010
0001
0100
,
1000
1000
0001
0001
,
0100
1000
0010
0001
,
0100
0100
0010
0010
,
0001
0100
1000
0010
,
0001
0001
1000
1000
,
0010
1000
0100
0001
,
0020
0000
0000
0030
,
0110
0001
0110
1000
,
0010
0001
1000
0100
,
0110
0001
0110
1000
,
0100
0001
1000
0010
,
0001
1100
1000
0101
,
0001
1000
0010
0100
,
1000
0101
0001
1100
,
1001
0000
0110
1001
,
0110
1000
0110
0001
,
0010
1000
0001
0100
,
0110
1000
0110
0001
,
1010
0000
0000
0011
0000
0000
1100
0000
,
1000
0101
0001
1100
,
0011
0000
0000
1010
0000
0000
0101
0000
,
0001
1100
1000
0101
,
1001
1001
0110
1001
,
0110
0000
0000
0000
;

//---------------dance-single - ----------------
#NOTES:
     dance-single:
     :
     Medium:
     10:
     0.400167,0.525219,0.077810,0.060519,0.034582,324.000000,315.000000,9.000000,7.000000,0.000000,0.000000,0.400167,0.525219,0.077810,0.060519,0.034582,324.000000,315.000000,9.000000,7.000000,0.000000,0.000000:
0000
0000
0000
0000
,
0000
0000
0000
0000
,
0000
0000
0000
0000
,
0000
0000
0000
0000
,
0000
0000
0000
0000
,
0000
0000
0000
0000
,
0000
0000
0000
0000
,
0000
0000
0000
0000
,
0010
0000
0000
0100
0000
0000
0010
0000
0000
0100
0000
0000
0010
0000
0000
0000
,
1001
0000
0010
0000
0100
0001
1000
0000
,
0100
0000
0010
0000
0001
0010
1000
0000
,
0100
0000
1000
0000
0010
0001
1000
0000
,
0001
0000
0100
0000
1000
0010
0100
0000
,
0001
0000
0010
0000
0100
1000
0001
0000
,
0100
0000
0010
0000
1000
0010
0001
0000
,
0100
0000
0001
0000
0010
1000
0001
0000
,
1000
0000
0100
0000
0001
0010
0100
0000
,
1000
0100
0010
0000
0001
0000
0001
0000
,
1000
0100
0010
0000
0001
0000
0100
0000
,
0001
0100
0010
0000
1000
0000
1000
0000
,
0001
0100
0010
0000
1000
0000
0100
0000
,
0010
0010
0001
0001
,
1000
1000
0010
0010
,
0100
0001
0100
0000
0001
0010
0001
0000
,
1000
0001
1000
0001
1000
0001
1000
0000
,
0220
0000
0000
0000
,
0000
0000
0000
0000
,
0000
0000
0000
0000
,
0000
0000
0000
0000
,
0000
0000
0000
0000
,
0000
0000
0000
0000
,
0000
0000
0000
0000
,
0000
0000
0000
0330
,
1000
0100
0001
0100
,
0010
0100
0010
0000
1000
0000
0100
0000
,
0001
0100
1000
0100
,
0010
0100
0010
0000
0001
0000
0100
0000
,
1000
0100
0001
0100
,
0010
0100
0010
0000
1000
0000
0100
0000
,
0001
0100
1000
0100
,
0010
0100
0010
0000
0001
0000
0100
0000
,
1000
0010
0001
0010
,
0100
0010
0100
0000
1000
0000
0010
0000
,
0001
0010
1000
0010
,
0100
0010
0100
0000
0001
0000
0010
0000
,
1000
0010
0001
0010
,
0100
0010
0100
0000
1000
0000
0010
0000
,
0001
0010
1000
0010
,
0100
0000
0000
0010
0000
0000
0100
0000
0000
0010
0000
0000
0100
0000
0000
0000
,
2001
0100
0001
3100
,
0001
0000
0010
0000
0100
1000
0010
0000
,
0002
0010
0100
0013
,
0100
0000
0001
0000
1000
0100
0010
0000
,
0002
0100
1000
0103
,
1000
0000
0010
0000
0100
0001
0010
0000
,
2000
0010
0100
3010
,
0001
0000
0000
1000
0000
0000
0001
0000
0000
1000
0000
0000
0001
0000
0000
0000
,
0110
0100
0001
0010
,
0100
0001
0010
1000
,
0001
0010
1000
0100
,
0010
1000
0100
0001
,
0010
1000
0010
0000
1000
0100
1000
0000
,
0100
0001
0100
0000
0001
0010
0001
0000
,
0100
0010
0100
0010
0100
0010
0100
0010
,
0200
0000
0000
0300
,
0110
0000
1000
0100
0001
0000
1000
0100
,
0001
0010
0100
1000
,
0010
0000
0001
0100
1000
0000
0001
0100
,
1000
0100
0010
0001
,
0100
0000
1000
0010
0001
0000
1000
0010
,
0001
0100
0010
1000
,
0100
0000
0001
0010
1000
0000
0001
0010
,
1000
0100
1001
1001
,
0110
0000
0001
0100
1000
0000
0001
0100
,
1000
0010
0100
0001
,
0010
0000
1000
0100
0001
0000
1000
0100
,
0001
0100
0010
1000
,
0100
0000
0001
0010
1000
0000
0001
0010
,
1000
0100
0010
0001
,
0100
0000
1000
0010
0001
0000
1000
0010
,
0001
0000
0000
0100
0000
0000
1000
0000
0000
0010
0000
0000
0001
0000
1000
0000
,
1001
0000
0000
0000
;
