#TITLE:Philly Nice;
#SUBTITLE:;
#ARTIST:Kawai Sprite;
#TITLETRANSLIT:;
#SUBTITLETRANSLIT:;
#ARTISTTRANSLIT:;
#GENRE:Friday Night Funkin';
#CREDIT:;
#BANNER:Philly Nice.png;
#BACKGROUND:../bg.png;
#LYRICSPATH:;
#CDTITLE:../cdtitle.png;
#MUSIC:Philly Nice.ogg;
#OFFSET:-1.373000;
#SAMPLESTART:35.659000;
#SAMPLELENGTH:15.000000;
#SELECTABLE:YES;
#BPMS:0.000000=175.000000
;
#STOPS:
;
#BGCHANGES: -9.000=Philly Nice.avi=1.000=0=0=0=StretchNoLoop====,
99999=-nosongbg-=1.000=0=0=0 // don't automatically add -songbackground-
;
#KEYSOUNDS:;
#ATTACKS:;

//---------------dance-single - ----------------
#NOTES:
     dance-single:
     :
     Hard:
     13:
     0.672865,0.645908,0.295610,0.197073,0.034488,478.000000,448.000000,30.000000,20.000000,0.000000,0.000000,0.672865,0.645908,0.295610,0.197073,0.034488,478.000000,448.000000,30.000000,20.000000,0.000000,0.000000:
0000
0000
0000
0000
,
0110
1000
0100
0000
2000
0000
3010
0000
,
0000
1000
0100
0000
2000
0000
3010
0000
,
0110
0001
0010
0000
0002
0000
0103
0000
,
0010
0001
0010
0000
0200
0000
0310
0000
,
0110
0100
1000
0000
0100
0000
0100
0000
,
0000
0010
1000
0000
0100
0000
0100
0000
,
0110
0001
1000
0000
0010
0000
0010
0000
,
0110
1000
1100
0000
0011
0000
0110
0000
,
1001
1000
0100
1000
0020
0000
0130
0001
,
0010
0010
1000
0010
0002
0000
1003
0100
,
1000
0000
1000
0000
0001
0000
0001
0000
0100
0000
0100
0000
0010
0000
0010
0100
,
0010
1000
0001
0000
0011
0000
0100
1000
,
0001
1000
0010
0000
1100
0000
0010
1000
,
0001
1000
0100
0000
0011
0000
0100
1000
,
0010
0000
0010
0000
1000
0000
1000
0000
0100
0000
0100
0000
0010
0000
0010
0001
,
0010
0100
1000
0000
1001
0000
0001
0100
,
0010
0010
0010
0000
1100
0000
1000
0100
,
0010
0010
0010
0000
0101
0000
0001
1000
,
0010
0000
0010
0000
0001
0010
0001
0000
0010
0000
0010
0000
1000
0000
0100
1000
,
0100
0010
0001
0000
1001
0000
1000
0001
,
0010
0010
1000
0000
1100
0000
0001
1000
,
0010
0010
0001
0000
0011
0000
0001
0100
,
0010
0000
0010
0000
1000
0000
1000
0000
0001
0000
0001
0000
0010
0000
0100
0010
,
0100
1000
0100
0000
0011
0000
0010
0100
,
1000
0010
1000
0100
0001
0100
1000
0001
,
1000
0010
1000
0100
0001
0100
1000
0001
,
1000
0010
0100
0010
1000
0100
1000
0100
,
0010
0001
1000
0010
0001
0010
1000
0001
,
0010
0100
0010
0100
0001
0100
1000
0001
,
0010
0100
0001
0100
0010
0001
1000
0010
,
0100
0010
0100
0010
0001
0010
1000
0001
,
0100
0010
0001
0010
0100
0010
1000
0001
,
1000
0100
1000
0010
0001
0010
1000
0001
,
1000
0100
1000
0010
0001
0010
1000
0001
,
1000
0100
0010
0100
1000
0010
1000
0010
,
0100
0001
1000
0100
0001
0100
1000
0001
,
0100
0010
0100
0010
0001
0010
1000
0001
,
0100
0010
0001
0010
0100
0001
1000
0100
,
0010
0100
0010
0100
0001
0100
1000
0001
,
0010
0100
0001
0100
0010
0001
1000
0010
,
1100
0000
0010
2010
0000
0000
3100
0000
,
0101
0000
0010
0012
0000
0000
0103
0000
,
1100
0000
0001
0201
0000
0000
0310
0000
,
1010
0000
0001
0021
0000
0000
0130
0000
,
0010
0001
0100
0001
0010
0010
0000
0100
,
1000
0000
1000
0010
1000
0000
0100
0000
0010
0000
0010
0000
0000
0000
0001
0000
,
1000
0000
0100
0010
0100
0000
1000
0000
0010
0000
0010
0000
0000
0000
0100
0000
,
1000
0100
0001
1000
0010
0000
0100
0010
,
1010
0000
0001
0001
0200
0000
0301
0001
,
1000
0010
0100
0010
2000
0000
3100
0100
,
0010
0100
0010
0100
2000
0000
3100
0010
,
0001
0100
0001
0100
0020
0000
0130
0001
,
1000
0000
0100
0100
0001
0000
0100
0100
,
1000
1000
0010
0010
0001
0000
0010
0010
,
1000
1000
0100
0100
0001
0000
0100
0100
,
1000
1000
0010
0010
1000
0001
0100
0010
,
1000
0010
1000
0100
0001
0100
1000
0001
,
1000
0010
1000
0100
0001
0100
1000
0001
,
1000
0010
0100
0010
1000
0100
1000
0100
,
0010
0001
1000
0010
0001
0010
1000
0001
,
0010
0100
0010
0100
0001
0100
1000
0001
,
0010
0100
0001
0100
0010
0001
1000
0010
,
0100
0010
0100
0010
0001
0010
1000
0001
,
0100
0010
0001
0010
0100
0010
1000
0001
,
0012
0000
0003
0200
0000
0000
0300
0020
,
0000
0000
0000
0000
0000
0000
0000
0030
,
2100
0000
3000
0002
0000
0000
0003
0200
,
0000
0000
0000
0000
,
0300
0000
0000
0000
;

//---------------dance-single - ----------------
#NOTES:
     dance-single:
     :
     Medium:
     11:
     0.515206,0.480367,0.197073,0.068976,0.000000,366.000000,346.000000,20.000000,7.000000,0.000000,0.000000,0.515206,0.480367,0.197073,0.068976,0.000000,366.000000,346.000000,20.000000,7.000000,0.000000,0.000000:
0000
0000
0000
0000
,
0000
0010
1000
0000
2000
0000
3100
0000
,
0000
1000
0010
0000
0020
0000
0130
0000
,
0110
0100
0001
0000
0002
0000
0013
0000
,
0010
0001
0100
0000
0010
0100
0010
0000
,
0110
1000
0001
0000
0010
0000
0010
0000
,
0000
0100
1000
0000
0010
0000
0010
0000
,
1001
0100
0010
0000
0001
0000
0001
0000
,
0110
1000
0100
0000
0010
0000
0010
0000
,
0001
0001
0100
0000
1001
0000
1000
0100
,
0001
0100
1000
0000
0110
0000
0010
0001
,
1000
1000
1000
0000
0001
0001
0001
0000
,
0010
0010
0010
0000
1010
0000
0011
0000
,
1000
0100
1000
0000
0001
0000
0001
0000
,
0010
1000
0010
0000
0100
0000
0100
0000
,
1000
0010
1000
0000
0100
0001
0100
0000
,
1000
0010
1000
0000
0100
0000
0101
0000
,
1000
1000
0010
0000
1001
0000
0001
0010
,
1000
0010
0001
0000
0110
0000
0100
1000
,
0001
0001
0001
0000
1000
1000
1000
0000
,
0100
0100
0100
0000
0101
0000
1100
0000
,
0001
0010
0001
0000
1000
0000
1000
0000
,
0100
0001
0100
0000
0010
0000
0010
0000
,
0001
0100
0001
0000
0010
1000
0010
0000
,
0001
0100
0001
0000
0010
0000
1010
0000
,
1000
0100
1000
0000
0100
0001
0100
0000
,
0001
0010
0001
0000
0010
1000
0010
0000
,
1000
0100
1000
0000
0100
0001
0100
0000
,
0001
0010
0001
0000
0010
1000
0010
0000
,
1000
0100
0001
0000
0100
1000
0010
0000
,
1000
0100
0001
0000
0100
1000
0010
0000
,
1000
0100
0001
0000
0100
1000
0010
0000
,
0100
0001
0010
0000
1000
0010
0001
0000
,
1000
0010
1000
0000
0010
0001
0010
0000
,
0001
0100
0001
0000
0100
1000
0100
0000
,
1000
0010
1000
0000
0010
0001
0010
0000
,
0001
0100
0001
0000
0100
1000
0100
0000
,
1000
0010
0001
0000
0010
1000
0100
0000
,
1000
0010
0001
0000
0010
1000
0100
0000
,
1000
0010
0001
0000
0010
1000
0100
0000
,
0010
0001
0100
0000
1000
0100
0001
0000
,
1000
0000
0000
1200
0000
0000
0301
0000
,
0100
0000
0000
2100
0000
0000
3010
0000
,
1000
0000
0000
0021
0000
0000
1030
0000
,
0001
0000
0000
1020
0000
0000
0031
0000
,
1000
0100
1000
0000
0010
1000
0000
0000
,
0001
0100
0001
0000
0010
0001
0000
0000
,
1000
0100
1000
0000
0010
1000
0000
0000
,
0001
0100
0001
0000
0010
0000
0100
1000
,
1010
0000
1000
1000
0100
0000
0001
0001
,
0100
1000
0010
1000
,
0100
0010
0100
0000
1000
0000
1000
0000
,
0100
0001
0100
0000
0010
0000
0010
0000
,
1100
0000
1000
1000
0010
0000
0001
0001
,
0010
1000
0100
1000
,
0010
0100
0010
0000
1000
0000
1000
0000
,
0001
0010
0001
0000
0100
0010
0100
0010
,
1000
0100
1000
0000
0100
0001
0100
0000
,
0001
0010
0001
0000
0010
1000
0010
0000
,
1000
0100
1000
0000
0100
0001
0100
0000
,
0001
0010
0001
0000
0010
1000
0010
0000
,
1000
0100
0001
0000
0100
1000
0010
0000
,
1000
0100
0001
0000
0100
1000
0010
0000
,
1000
0100
0001
0000
0100
1000
0010
0000
,
0100
0001
0010
0000
1000
0010
0001
0000
,
1000
0000
0000
0000
;

//---------------dance-single - ----------------
#NOTES:
     dance-single:
     :
     Easy:
     7:
     0.316725,0.480367,0.147805,0.000000,0.000000,225.000000,210.000000,15.000000,0.000000,0.000000,0.000000,0.316725,0.480367,0.147805,0.000000,0.000000,225.000000,210.000000,15.000000,0.000000,0.000000,0.000000:
0000
0000
0000
0000
,
0000
0000
0000
0000
,
0000
0000
0000
0000
,
0000
0000
0000
0000
,
0000
0000
0000
0000
,
1001
0100
0010
0100
,
0000
0010
0100
0100
,
1001
0010
0100
0010
,
0110
1001
0110
1001
,
0110
0001
0001
0000
,
1000
0100
0001
0000
,
1000
0010
0001
0010
,
1000
0010
0001
0000
,
1000
1000
1000
0000
,
0001
0001
0001
0000
,
0010
0100
0010
0100
,
0010
0010
0010
0000
,
0110
1000
1000
0000
,
0001
0010
1000
0000
,
0001
0100
1000
0100
,
0001
0100
1000
0000
,
0001
0001
0001
0000
,
1000
1000
1000
0000
,
0100
0010
0100
0010
,
0100
0100
0100
0000
,
1000
0100
0001
0100
,
1000
0100
0001
0100
,
1000
0100
0001
0100
,
1000
0100
0001
0100
,
1000
0010
0001
0010
,
1000
0010
0001
0010
,
1000
0010
0001
0010
,
1000
0010
0001
0010
,
0100
0001
0010
0001
,
0100
0001
0010
0001
,
0100
0001
0010
0001
,
0100
0001
0010
0001
,
0100
1000
0010
1000
,
0100
1000
0010
1000
,
0100
1000
0010
1000
,
0100
1000
0010
1000
,
0100
0000
0000
1001
0000
0000
0000
0000
,
0010
0000
0000
1001
0000
0000
0000
0000
,
0100
0000
0000
0011
0000
0000
0000
0000
,
0100
0000
0000
1010
0000
0000
0000
0000
,
0001
0001
0001
0000
,
1000
1000
1000
0000
,
0001
0010
1000
0000
,
0001
0100
1000
1000
,
0101
0010
0010
0000
,
1000
0100
1000
0000
,
1010
0100
0100
0000
,
0001
0010
0001
0000
,
0100
0100
0100
0000
,
0010
0010
0010
0000
,
0100
0001
0010
0000
,
0100
1000
0010
0010
,
1000
0100
0001
0100
,
1000
0100
0001
0100
,
1000
0100
0001
0100
,
1000
0100
0001
0100
,
1000
0010
0001
0010
,
1000
0010
0001
0010
,
1000
0010
0001
0010
,
1000
0010
0001
0010
,
1001
0000
0000
0000
;

//---------------dance-single - ----------------
#NOTES:
     dance-single:
     :
     Beginner:
     3:
     0.164697,0.224171,0.059122,0.000000,0.000000,117.000000,111.000000,6.000000,0.000000,0.000000,0.000000,0.164697,0.224171,0.059122,0.000000,0.000000,117.000000,111.000000,6.000000,0.000000,0.000000,0.000000:
0000
0000
0000
0000
,
0000
0000
0000
0000
,
0000
0000
0000
0000
,
0000
0000
0000
0000
,
0000
0000
0000
0000
,
0100
0000
0000
0000
,
0100
0000
0000
0000
,
0010
0000
0000
0000
,
0010
0010
0010
0000
,
1001
0000
0100
0000
,
1000
0000
1000
0000
,
0010
0000
1000
0000
,
0100
0000
0100
0000
,
0001
0000
0001
0000
,
0010
0000
0010
0000
,
0001
0000
0100
0000
,
1000
0000
0010
0000
,
1000
0000
0000
0000
,
1000
0000
0000
0000
,
0001
0000
0000
0000
,
0001
0000
0000
0000
,
0010
0000
0010
0000
,
0100
0000
0100
0000
,
1000
0000
0100
0000
,
1000
0000
0010
0000
,
0100
0000
0100
0000
,
0100
0000
0100
0000
,
0100
0000
0100
0000
,
0100
0100
0100
0000
,
0010
0000
0010
0000
,
0010
0000
0010
0000
,
0010
0000
0010
0000
,
0010
0010
0010
0000
,
1000
0000
1000
0000
,
1000
0000
1000
0000
,
1000
0000
1000
0000
,
0010
0000
1000
0000
,
0001
0000
0001
0000
,
0001
0000
0001
0000
,
0001
0000
0001
0000
,
0100
0000
0001
0000
,
1001
0000
0000
0000
,
1001
0000
0000
0000
,
0110
0000
0000
0000
,
0110
0000
0000
0000
,
1000
0000
0000
0000
,
1000
0000
0000
0000
,
0010
0000
0000
0000
,
0010
0000
0000
0000
,
0001
0000
0001
0000
,
0100
0000
0100
0000
,
0001
0000
0010
0000
,
0001
0000
0010
0000
,
1000
0000
1000
0000
,
0100
0000
0100
0000
,
1000
0000
0010
0000
,
1000
0000
0010
0000
,
0100
0000
0100
0000
,
0100
0000
0100
0000
,
0100
0000
0100
0000
,
0100
0100
0100
0000
,
0010
0000
0010
0000
,
0010
0000
0010
0000
,
0010
0000
0010
0000
,
0010
0010
0010
0000
,
1001
0000
0000
0000
;

//---------------dance-single - FNF Hard----------------
#NOTES:
     dance-single:
     :
     Edit:
     13:
     0.627820,0.608464,0.000000,0.118244,0.039415,446.000000,446.000000,0.000000,12.000000,0.000000,0.000000,0.627820,0.608464,0.000000,0.118244,0.039415,446.000000,446.000000,0.000000,12.000000,0.000000,0.000000:
// measure 0
0000
0000
0000
0000
,  // measure 1
0000
0010
1000
0000
0200
0300
0002
0003
,  // measure 2
0000
0010
1000
0000
0200
0300
0002
0003
,  // measure 3
0000
0010
1000
0000
0200
0300
0002
0003
,  // measure 4
1000
0001
0010
0000
0010
0000
1000
1000
,  // measure 5
0000
0010
1000
0000
0200
0300
0002
0003
,  // measure 6
0000
0010
1000
0000
0200
0300
0002
0003
,  // measure 7
0000
0010
1000
0000
0200
0300
0002
0003
,  // measure 8
1000
0001
0010
0000
0010
0000
1000
0000
,  // measure 9
0000
0010
1000
0000
1000
0000
0001
0100
,  // measure 10
0000
0001
1000
0000
0010
0000
1000
0100
,  // measure 11
0000
0000
1000
0000
0100
0000
0001
0000
0100
0000
1000
0000
0100
0000
0001
1000
,  // measure 12
0001
0001
0100
0000
0010
0000
0010
0001
,  // measure 13
0000
0010
1000
0000
1000
0000
0001
0100
,  // measure 14
0000
0001
1000
0000
0010
0000
1000
0100
,  // measure 15
0000
0000
1000
0000
0100
0000
0001
0000
0100
0000
1000
0000
0100
0000
0001
1000
,  // measure 16
0001
0001
0100
0000
0010
0000
0010
0001
,  // measure 17
0010
0010
1000
0000
1000
0000
0001
0100
,  // measure 18
0000
0001
1000
0000
0010
0000
1000
0100
,  // measure 19
0000
0000
1000
0000
0100
0000
0001
0000
0100
0000
1000
0000
0100
0000
0001
1000
,  // measure 20
0001
0001
0100
0000
0010
0000
0010
0001
,  // measure 21
0010
0010
1000
0000
1000
0000
0001
0100
,  // measure 22
0000
0001
1000
0000
0010
0000
1000
0100
,  // measure 23
0000
0000
1000
0000
0100
0000
0001
0000
0100
0000
1000
0000
0100
0000
0001
1000
,  // measure 24
0001
0001
0100
0000
0010
0000
0010
0001
,  // measure 25
0010
0001
0100
1000
0010
0001
1000
0001
,  // measure 26
0010
0001
0010
1000
0010
0001
1000
0100
,  // measure 27
0010
0001
0100
1000
0010
0001
1000
0001
,  // measure 28
0010
0001
0010
1000
0010
0001
1000
1000
,  // measure 29
0010
0001
0100
1000
0010
0001
1000
0001
,  // measure 30
0010
0001
0010
1000
0010
0001
1000
0100
,  // measure 31
0010
0001
0100
1000
0010
0001
1000
0001
,  // measure 32
0010
0001
0010
1000
0010
0001
1000
1000
,  // measure 33
0010
0001
0100
1000
0010
0001
1000
0001
,  // measure 34
0010
0001
0010
1000
0010
0001
1000
1000
,  // measure 35
0010
0001
0100
1000
0010
0001
1000
0001
,  // measure 36
0010
0001
0010
1000
0010
0001
1000
1000
,  // measure 37
0010
0001
0100
1000
0010
0001
1000
0001
,  // measure 38
0010
0001
0010
1000
0010
0001
1000
1000
,  // measure 39
0010
0001
0100
1000
0010
0001
1000
0001
,  // measure 40
0010
0001
0010
1000
0010
0001
1000
1000
,  // measure 41
0001
0001
0100
0100
0010
0010
0000
1000
,  // measure 42
0010
0000
0001
1000
0001
0000
0001
0000
0010
0000
1000
0000
1000
0000
0100
0000
,  // measure 43
0001
0000
0001
1000
0001
0000
0100
0000
0010
0000
0010
0000
1000
0000
1000
0000
,  // measure 44
0010
0001
1000
0001
0010
0000
0100
0001
,  // measure 45
0001
0001
0100
0100
0010
0010
0000
1000
,  // measure 46
0010
0000
0001
1000
0001
0000
0001
0000
0010
0000
1000
0000
1000
0000
0100
0000
,  // measure 47
0001
0000
0001
1000
0001
0000
0100
0000
0010
0000
0010
0000
1000
0000
1000
0000
,  // measure 48
0010
0001
1000
0001
0010
0000
0100
0001
,  // measure 49
0010
0000
0100
0001
0010
0000
0100
0001
,  // measure 50
1000
0001
0100
0001
0010
0000
0010
0010
,  // measure 51
0001
0100
1000
0001
0010
0000
1000
1000
,  // measure 52
0001
0001
0010
1000
0010
0001
1000
0100
,  // measure 53
0010
0000
0100
0001
0010
0000
0100
0001
,  // measure 54
1000
0001
0100
0001
0010
0000
0010
0010
,  // measure 55
0001
0100
1000
0001
0010
0000
1000
1000
,  // measure 56
0001
0001
0010
1000
0010
0001
1000
0100
,  // measure 57
0010
0001
0100
1000
0010
0001
1000
0001
,  // measure 58
0010
0001
0010
1000
0010
0001
1000
1000
,  // measure 59
0010
0001
0100
1000
0010
0001
1000
0001
,  // measure 60
0010
0001
0010
1000
0010
0001
1000
1000
,  // measure 61
0010
0001
0100
1000
0010
0001
1000
0001
,  // measure 62
0010
0001
0010
1000
0010
0001
1000
1000
,  // measure 63
0010
0001
0100
1000
0010
0001
1000
0001
,  // measure 64
0010
0001
0010
1000
0010
0001
1000
1000
,  // measure 65
0100
0000
0000
0000
;
