#TITLE:Philly Nice;
#SUBTITLE:[B-Side Remix];
#ARTIST:Rozebud;
#TITLETRANSLIT:;
#SUBTITLETRANSLIT:;
#ARTISTTRANSLIT:;
#GENRE:Friday Night Funkin';
#CREDIT:;
#BANNER:Philly Nice [B-Side Remix].png;
#BACKGROUND:../bg.png;
#LYRICSPATH:;
#CDTITLE:../cdtitle.png;
#MUSIC:Philly Nice [B-Side Remix].ogg;
#OFFSET:1.234000;
#SAMPLESTART:35.984001;
#SAMPLELENGTH:15.000000;
#LASTBEATHINT:0.729300;
#SELECTABLE:YES;
#BPMS:0.000000=187.000000
;
#STOPS:
;
#BGCHANGES:-99.000=Philly Nice [B-Side Remix].avi=1.000=0=0=1====#000000=,
-1.000=Philly Nice [B-Side Remix].avi=1.000=0=0=0=StretchNoLoop====,
99999=-nosongbg-=1.000=0=0=0 // don't automatically add -songbackground-
;
#KEYSOUNDS:;
#ATTACKS:;

//---------------dance-single - FNF Hard----------------
#NOTES:
     dance-single:
     :
     Edit:
     18:
     0.861114,0.931386,0.000000,0.080639,0.473757,598.000000,598.000000,0.000000,8.000000,0.000000,0.000000,0.861114,0.931386,0.000000,0.080639,0.473757,598.000000,598.000000,0.000000,8.000000,0.000000,0.000000:
0000
0000
0000
0000
,
0000
0000
0000
0000
,
0000
0000
0000
0000
,
0000
0000
0000
0000
,
0000
0000
0000
0000
,
0000
0000
0000
0000
0010
0000
0000
0000
1000
0000
0000
0000
0001
0000
0000
0000
0200
0000
0000
0000
0000
0000
0000
0300
1000
0000
0000
0000
0000
0000
0000
0000
,
0000
0000
0010
0010
0100
0000
1000
0000
0001
0000
0001
0000
0100
0000
1000
0000
,
0000
0000
0000
0000
0001
0000
0001
0000
0100
0000
0100
0000
1000
0000
0000
0000
0200
0000
0000
0000
0000
0000
0000
0300
0010
0000
0000
0000
0001
0000
0000
0000
,
0000
0000
0001
0000
0010
0000
1000
0000
0010
0000
0010
0010
0001
0000
0001
0001
,
0000
0000
0000
0000
0100
0000
0000
0000
0001
0000
0000
0000
1000
0000
0000
0000
0020
0000
0000
0000
0000
0000
0000
0030
0001
0000
0000
0000
0000
0000
0000
0000
,
0000
0000
0100
0100
0010
0000
0001
0000
1000
0000
1000
0000
0010
0000
0001
0000
,
0000
0000
0000
0000
1000
0000
1000
0000
0010
0000
0010
0000
0001
0000
0000
0000
0020
0000
0000
0000
0000
0000
0000
0030
0100
0000
0000
0000
1000
0000
0000
0000
,
0000
0000
1000
0000
0100
0000
0001
0000
0100
0000
0100
0100
1000
0000
1000
1000
,
0000
0000
0000
0000
0001
0000
1000
0000
0010
0000
0000
0000
0001
0000
0010
0010
,
0100
0000
0001
0000
0001
0000
1000
0000
0010
0000
0000
0000
0001
0000
0100
0100
,
0010
0000
1000
0000
0100
0000
1000
0001
1000
0000
0010
0000
0001
0100
1000
0010
,
0100
0000
1000
0000
0001
0000
1000
0000
0010
0000
0000
0000
0001
0100
1000
1000
,
0000
0000
0000
0000
1000
0000
0001
0000
0100
0000
0000
0000
1000
0000
0100
0100
,
0010
0000
1000
0000
1000
0000
0001
0000
0100
0000
0000
0000
1000
0000
0010
0010
,
0100
0000
0001
0000
0010
0000
0001
1000
0001
0000
0100
0000
1000
0010
0001
0100
,
0010
0000
0001
0000
1000
0000
0001
0000
0100
0000
0000
0000
1000
0010
0001
0001
,
0010
0000
0010
0010
1000
0000
0010
0000
0001
0000
0000
0000
0001
0001
0100
0000
,
0000
0001
1000
0000
0010
0000
0100
0002
,
0000
0000
0000
0000
0000
0000
0000
0000
0003
0000
0000
0000
0000
0000
0000
0000
0000
0000
0000
0000
0000
0000
0000
0000
0002
0000
0000
0000
0000
0000
0000
0000
0000
0000
0000
0000
0000
0000
0000
0000
0000
0000
0000
0000
0000
0000
0000
0000
0000
0000
0000
0000
0000
0000
0003
0000
0000
0000
0000
0000
1000
0000
0000
0000
0000
0000
0000
0000
0000
0000
0000
0000
0010
0000
0000
0000
0000
0000
0000
0000
0000
0000
0000
0000
0000
0000
0000
0000
0000
0000
0000
0000
0000
0000
0000
0000
0100
0000
0000
0000
0000
0000
0000
0000
0000
0000
0000
0000
0000
0000
0000
0000
0000
0000
0000
0000
0000
0000
0000
0000
0001
0000
0000
0000
0000
0000
0000
0000
0000
0000
0000
0000
0001
0000
0000
0000
0000
0000
0000
0000
0000
0000
0000
0000
1000
0000
0000
0000
0000
0000
0000
0000
0000
0000
0000
0000
0000
0000
0000
0000
0000
0000
0000
0000
0000
0000
0000
0000
0100
0000
0000
0000
0000
0000
0000
0000
0000
0000
0000
0000
0100
0000
0000
0000
0000
0000
0000
0000
0000
0000
0000
0000
,
0001
0000
1000
1000
0010
0000
0000
0000
1000
0000
0000
0000
0010
0000
0001
0001
,
0100
0000
0100
0100
0001
0000
0100
0000
1000
0000
0000
0000
1000
1000
0010
0000
,
0000
1000
0001
0000
0100
0000
0010
2000
,
0000
0000
0000
0000
0000
0000
0000
0000
3000
0000
0000
0000
0000
0000
0000
0000
0000
0000
0000
0000
0000
0000
0000
0000
2000
0000
0000
0000
0000
0000
0000
0000
0000
0000
0000
0000
0000
0000
0000
0000
0000
0000
0000
0000
0000
0000
0000
0000
0000
0000
0000
0000
0000
0000
3000
0000
0000
0000
0000
0000
0001
0000
0000
0000
0000
0000
0000
0000
0000
0000
0000
0000
0100
0000
0000
0000
0000
0000
0000
0000
0000
0000
0000
0000
0000
0000
0000
0000
0000
0000
0000
0000
0000
0000
0000
0000
0010
0000
0000
0000
0000
0000
0000
0000
0000
0000
0000
0000
0000
0000
0000
0000
0000
0000
0000
0000
0000
0000
0000
0000
1000
0000
0000
0000
0000
0000
0000
0000
0000
0000
0000
0000
1000
0000
0000
0000
0000
0000
0000
0000
0000
0000
0000
0000
0001
0000
0000
0000
0000
0000
0000
0000
0000
0000
0000
0000
0000
0000
0000
0000
0000
0000
0000
0000
0000
0000
0000
0000
0010
0000
0000
0000
0000
0000
0000
0000
0000
0000
0000
0000
0010
0000
0000
0000
0000
0000
0000
0000
0000
0000
0000
0000
,
1000
0000
0001
0001
0100
0000
0000
0000
0001
0000
0000
0000
0100
0000
1000
1000
,
0010
0000
0001
0000
0100
0000
1000
1000
0010
0010
0001
0000
0100
0000
0100
0000
,
0010
0000
0001
0000
0100
0000
0010
0000
0001
0000
0100
0000
0100
0000
1000
1000
,
0010
0000
0001
0000
0100
0000
1000
1000
0010
0000
0001
0000
0001
0100
1000
0000
,
0010
0000
0001
0000
0100
0000
1000
0000
0010
0000
0001
0001
1000
0000
0001
0000
,
0100
0000
1000
0000
0010
0000
0001
0001
0100
0100
1000
0000
0010
0000
0010
0000
,
0100
0000
1000
0000
0010
0000
0100
0000
1000
0000
0010
0000
0010
0000
0001
0001
,
0100
0000
1000
0000
0010
0000
0001
0001
0100
0000
1000
0000
1000
0010
0001
0000
,
0100
0000
1000
0000
0010
0000
0001
0000
0100
0000
1000
1000
0001
0000
1000
0000
,
0000
0000
1000
0001
1000
0000
1000
0000
,
1000
0100
0001
1000
0000
0000
1000
0010
,
0000
0000
1000
0001
1000
0000
1000
0000
,
1000
0100
0001
1000
0000
0001
0100
1000
,
0100
0000
1000
0000
0010
0000
0001
0001
0100
0100
1000
0000
0010
0000
0010
0000
,
0100
0000
1000
0000
0010
0000
0100
0000
1000
0000
0010
0000
0010
0000
0001
0001
,
0100
0000
1000
0000
0010
0000
0001
0001
0100
0000
1000
0000
1000
0010
0001
0000
,
0100
0000
1000
0000
0010
0000
0001
0000
0100
0000
1000
1000
0001
0000
1000
0000
,
0100
0000
0001
0001
0100
0000
1000
0000
0010
0000
0010
0000
0001
1000
1000
0000
,
0100
0000
0001
0001
0100
0000
1000
1000
0010
0000
0010
0000
0100
0100
0001
0000
,
0010
0000
0100
0100
1000
1000
0001
0001
0100
0000
0100
0000
1000
0000
0100
0000
,
0010
0001
1000
1000
0010
0000
0010
0010
,
0010
0000
1000
1000
0010
0000
0001
0000
0100
0000
0100
0000
1000
0001
0001
0000
,
0010
0000
1000
1000
0010
0000
0001
0001
0100
0000
0100
0000
0010
0010
1000
0000
,
0100
0000
0010
0010
0001
0001
1000
1000
0010
0000
0010
0000
0001
0000
0010
0000
,
0100
1000
0001
0001
0100
0000
0100
0100
,
0100
0000
0000
0000
0001
0000
0001
0000
0100
0000
0000
0000
0001
0000
0010
0010
,
1000
0001
0100
1000
0001
0100
1000
0001
,
0010
0000
0001
0001
1000
0000
0010
0000
0100
0000
1000
0000
0001
0000
0100
0000
,
0000
1000
0010
0000
0001
0000
0010
0001
,
0010
0000
0000
0000
1000
0000
1000
0000
0010
0000
0000
0000
1000
0000
0100
0100
,
0001
1000
0010
0001
1000
0010
0001
1000
,
0100
0000
1000
1000
0001
0000
0100
0000
0010
0000
0001
0000
1000
0000
0010
0000
,
0000
0001
0100
0000
1000
0000
0100
1000
,
0010
0000
0001
0000
0100
0000
1000
1000
0010
0010
0001
0000
0100
0000
0100
0000
,
0010
0000
0001
0000
0100
0000
0010
0000
0001
0000
0100
0000
0100
0000
1000
1000
,
0010
0000
0001
0000
0100
0000
1000
1000
0010
0000
0001
0000
0001
0100
1000
0000
,
0010
0000
0001
0000
0100
0000
1000
0000
0010
0000
0001
0001
1000
0000
0001
0000
,
0100
0000
1000
0000
0010
0000
0001
0001
0100
0100
1000
0000
0010
0000
0010
0000
,
0100
0000
1000
0000
0010
0000
0100
0000
1000
0000
0010
0000
0010
0000
0001
0001
,
0100
0000
1000
0000
0010
0000
0001
0001
0100
0000
1000
0000
1000
0010
0001
0000
,
0100
0000
1000
0000
0010
0000
0001
0000
0100
0000
1000
1000
0001
0000
1000
0000
,
0000
0000
1000
0001
1000
0000
1000
0000
,
1000
0100
0001
1000
0000
0000
1000
0010
,
0000
0000
1000
0001
1000
0000
1000
0000
,
1000
0100
0001
1000
0001
0100
1000
0010
,
0100
0000
1000
0000
0010
0000
0001
0001
0100
0100
1000
0000
0010
0000
0010
0000
,
0100
0000
1000
0000
0010
0000
0100
0000
1000
0000
0010
0000
0010
0000
0001
0001
,
0100
0000
1000
0000
0010
0000
0001
0001
0100
0000
1000
0000
1000
0010
0001
0000
,
0100
0000
1000
0000
0010
0000
0001
0000
0100
0000
1000
1000
0001
0000
1000
0000
,
0001
0000
0000
0000
;

//---------------dance-single - ----------------
#NOTES:
     dance-single:
     :
     Hard:
     16:
     0.839514,0.931386,0.211679,0.030240,0.191519,583.000000,562.000000,21.000000,3.000000,0.000000,0.000000,0.839514,0.931386,0.211679,0.030240,0.191519,583.000000,562.000000,21.000000,3.000000,0.000000,0.000000:
// measure 0
0000
0000
0000
0000
,  // measure 1
0000
0000
0000
0000
,  // measure 2
0000
0000
0000
0000
,  // measure 3
0000
0000
0000
0000
,  // measure 4
0000
0000
0000
0000
,  // measure 5
0110
0100
0100
0001
2000
0000
3010
0000
,  // measure 6
0100
0000
0001
0100
0001
0000
0010
0000
0100
0000
0100
0000
0010
0000
0001
0000
,  // measure 7
0000
0000
1000
0100
1000
0000
0010
0000
1000
0000
0100
0000
0001
0000
0100
0000
,  // measure 8
1000
0000
1000
0000
1000
0000
0000
0000
1001
0000
0001
0100
0001
0000
0100
0000
,  // measure 9
0010
1000
0100
0010
0001
0000
1100
0000
,  // measure 10
0100
1000
0010
0100
0001
0100
1020
0000
,  // measure 11
0031
0000
0010
1000
0010
0000
1000
0000
0100
0000
0100
0000
0010
0000
0100
0000
,  // measure 12
1000
0000
0010
0000
0010
0000
0000
0000
0100
0000
0001
0010
0002
0000
0003
0000
,  // measure 13
0011
0000
0000
0000
0001
0000
0001
0000
0100
0000
0000
0000
0010
0000
0010
1000
,  // measure 14
0010
0000
1000
0000
0100
0000
0100
0000
0001
0000
0000
0000
0100
0000
0100
1000
,  // measure 15
0100
0000
1000
0000
0001
0000
0100
0001
0100
0000
0010
0000
1000
0100
1000
0000
,  // measure 16
0100
0010
0100
0100
0010
0000
0100
1000
,  // measure 17
1001
0000
1000
0100
1000
0000
0001
0010
,  // measure 18
1000
0010
1000
0010
0001
0000
1000
0100
,  // measure 19
0001
0100
0001
0100
1000
0100
0001
0100
,  // measure 20
1000
0100
0010
0100
0010
0000
1001
0000
,  // measure 21
0100
0100
0100
0000
0110
0000
0001
0100
,  // measure 22
0010
1000
0001
0000
1100
0000
0001
0010
,  // measure 23
1000
0000
0001
0000
1000
0010
1000
0000
0001
0000
0100
0010
0100
0000
1000
0100
,  // measure 24
1000
0000
0100
1000
0010
0000
0000
0000
0110
0000
0000
0000
1000
0000
0001
0100
,  // measure 25
0010
0000
0100
0010
1000
0000
0100
0000
0010
0000
0000
0000
0001
1000
0100
0000
,  // measure 26
1000
0001
0100
0000
0110
0000
0100
0001
,  // measure 27
0010
0000
0010
0000
0100
0010
0100
0000
1000
0000
0100
0010
0100
0000
1000
0001
,  // measure 28
0100
0000
0001
1000
0010
0000
0000
0000
0110
0000
0000
0000
0100
0000
0001
0000
,  // measure 29
1000
0100
0001
0100
1000
0001
0010
1000
,  // measure 30
0010
0001
1000
0100
0010
0001
0010
0100
,  // measure 31
1000
0001
0100
0010
1000
0010
0100
1000
,  // measure 32
0100
0010
1000
0001
0010
0100
1000
0001
,  // measure 33
1000
0010
0001
0010
1000
0001
0100
1000
,  // measure 34
0100
0001
1000
0010
0100
0001
0100
0010
,  // measure 35
1000
0001
0010
0100
1000
0100
0010
1000
,  // measure 36
0010
0100
1000
0001
0100
0010
1000
0001
,  // measure 37
1000
0000
0100
0010
0100
0000
1100
0000
,  // measure 38
0001
0100
0001
1000
0001
0100
0010
1000
,  // measure 39
0001
0000
0010
0100
0010
0000
0011
0000
,  // measure 40
1000
0010
1000
0001
1000
0010
0100
0001
,  // measure 41
1000
0100
0001
0100
1000
0001
0010
1000
,  // measure 42
0010
0001
1000
0100
0010
0001
0010
0100
,  // measure 43
1000
0001
0100
0010
1000
0010
0100
1000
,  // measure 44
0100
0010
1000
0001
0010
0100
1000
0001
,  // measure 45
1000
0000
1000
0000
0100
0000
0100
0000
0010
0000
0010
0000
0001
0010
0001
0000
,  // measure 46
0100
0000
0001
1000
0001
0000
0100
0001
0100
0000
0010
0000
0100
0001
1000
0000
,  // measure 47
0001
0000
1000
0100
1000
0100
1000
0100
1000
0000
1000
0000
0100
0000
0100
0000
,  // measure 48
0010
0001
0100
0001
1001
0000
0010
0010
,  // measure 49
1000
0000
1000
0100
0010
0000
0001
0000
0010
0000
0010
0000
1000
0010
1000
0000
,  // measure 50
0010
0000
0001
0010
0001
0000
0010
0100
0010
0000
0100
0000
1000
0100
1000
0000
,  // measure 51
0001
0000
1000
0100
1000
0001
0100
0000
0010
0000
0010
0000
0100
0000
1000
0000
,  // measure 52
0100
0001
0010
0100
1000
0000
0010
0010
,  // measure 53
0110
0000
0000
0000
1000
0000
1000
0000
0100
0000
0000
0000
0001
0000
0100
0001
,  // measure 54
0100
0100
1000
1000
0010
0100
0010
0010
,  // measure 55
1000
0000
0001
0010
0001
0000
0010
0000
1000
0000
0000
0000
0010
0000
0001
0000
,  // measure 56
1000
0010
1000
0000
0110
0000
0001
0001
,  // measure 57
0100
0000
0000
0000
0001
0000
0001
0000
0010
0000
0000
0000
1000
0000
0010
1000
,  // measure 58
0010
0010
0001
0001
0100
0010
0100
0100
,  // measure 59
0001
0000
1000
0100
1000
0000
0100
0000
0001
0000
0000
0000
0100
0000
1000
0000
,  // measure 60
0001
0100
0001
0000
0110
0000
0100
0001
,  // measure 61
1000
0100
0001
0100
1000
0001
0010
1000
,  // measure 62
0010
0001
1000
0100
0010
0001
0010
0100
,  // measure 63
1000
0001
0100
0010
1000
0010
0100
1000
,  // measure 64
0100
0010
1000
0001
0010
0100
1000
0001
,  // measure 65
1000
0010
0001
0010
1000
0001
0100
1000
,  // measure 66
0100
0001
1000
0010
0100
0001
0100
0010
,  // measure 67
1000
0001
0010
0100
1000
0100
0010
1000
,  // measure 68
0010
0100
1000
0001
0100
0010
1000
0001
,  // measure 69
1000
0000
0100
0010
0100
0000
1100
0000
,  // measure 70
0001
0100
0001
1000
0001
0100
0010
1000
,  // measure 71
0001
0000
0010
0100
0010
0000
0011
0000
,  // measure 72
1000
0010
1000
0001
1000
0010
0100
0001
,  // measure 73
1000
0100
0001
0100
1000
0001
0010
1000
,  // measure 74
0010
0001
1000
0100
0010
0001
0010
0100
,  // measure 75
1000
0001
0100
0010
1000
0010
0100
1000
,  // measure 76
0100
0010
1000
0001
0010
0100
1000
0001
,  // measure 77
1001
0000
0000
0000
;

//---------------dance-single - ----------------
#NOTES:
     dance-single:
     :
     Beginner:
     5:
     0.247678,0.271654,0.020160,0.000000,0.000000,172.000000,170.000000,2.000000,0.000000,0.000000,0.000000,0.247678,0.271654,0.020160,0.000000,0.000000,172.000000,170.000000,2.000000,0.000000,0.000000,0.000000:
0000
0000
0000
0000
,
0000
0000
0000
0000
,
0000
0000
0000
0000
,
0000
0000
0000
0000
,
0000
0000
0000
0000
,
0000
0100
0100
0100
,
0000
0100
0010
0100
,
0000
0100
0010
0010
,
0000
0100
0100
1000
,
0000
0001
0001
0000
,
0000
0001
1000
0001
,
0000
0001
1000
1000
,
0000
0001
0100
0100
,
0000
0001
0001
0000
,
0010
0010
0010
0000
,
1000
0000
0001
0000
,
1000
0000
0100
0000
,
0000
1000
1000
0000
,
0010
0010
0010
0000
,
0001
0000
1000
0000
,
0001
0000
0100
0000
,
0001
0001
0001
0000
,
0001
0001
0001
0000
,
0010
0000
0100
0000
,
0010
0000
0010
0000
,
1000
1000
1000
0000
,
1000
1000
1000
0000
,
0100
0000
0010
0000
,
0100
0000
0100
0000
,
0001
0000
0010
0000
,
0001
0000
0010
0000
,
0100
0000
1000
0000
,
0100
0000
1000
0000
,
0010
0000
0010
0000
,
0010
0000
0010
0000
,
0100
0000
0100
0000
,
0100
0000
0100
0000
,
0100
0010
0010
0000
,
0010
0000
0010
0000
,
0000
0100
0100
0000
,
0100
0000
0100
0000
,
0001
0000
0001
0000
,
0001
0000
0001
0000
,
1000
0000
1000
0000
,
1000
0000
1000
0000
,
0001
0000
0100
0000
,
0001
0001
0001
0000
,
0100
0000
0001
0000
,
0010
0100
0010
0000
,
1000
1000
1000
0000
,
0100
0100
0100
0000
,
1000
1000
0010
0000
,
0001
0001
0010
0000
,
1000
0000
1000
0000
,
1000
0100
0100
0000
,
0001
0000
0001
0000
,
0010
0100
0010
0000
,
0001
0000
0001
0000
,
0001
0100
0001
0000
,
1000
0100
1000
0000
,
0010
0000
0110
0000
,
1000
0000
0100
0000
,
1000
0000
0100
0000
,
0010
0000
0001
0000
,
0010
0000
0001
0000
,
0100
0000
0100
0000
,
0100
0000
0100
0000
,
0010
0000
0010
0000
,
0010
0000
0010
0000
,
0010
0100
0100
0000
,
0100
0000
0100
0000
,
0000
0010
0010
0000
,
0010
0000
0010
0000
,
1000
0000
1000
0000
,
1000
0000
1000
0000
,
0001
0000
0001
0000
,
0001
0000
0001
0000
,
1001
0000
0000
0000
;

//---------------dance-single - ----------------
#NOTES:
     dance-single:
     :
     Easy:
     8:
     0.424797,0.426885,0.362878,0.020160,0.000000,295.000000,259.000000,36.000000,2.000000,0.000000,0.000000,0.424797,0.426885,0.362878,0.020160,0.000000,295.000000,259.000000,36.000000,2.000000,0.000000,0.000000:
0000
0000
0000
0000
,
0000
0000
0000
0000
,
0000
0000
0000
0000
,
0000
0000
0000
0000
,
0000
0000
0000
0000
,
0110
0100
0200
0310
,
0000
0100
1000
1100
,
0000
0001
0010
0010
,
0000
1000
0001
0001
,
0110
0010
0010
0100
,
0000
0010
0001
0011
,
0000
1000
0100
0100
,
0001
0001
1000
2000
,
3010
1000
1100
0000
,
0100
0001
0101
0000
,
0010
0010
0001
0001
,
0010
0001
0010
1000
,
0100
0001
0011
0000
,
0010
1000
1010
0000
,
0100
0100
1000
1000
,
0100
1000
0100
0001
,
0100
0010
1100
0000
,
0100
0010
0101
0000
,
0010
1000
0100
1000
,
1000
0010
0110
0000
,
0010
0100
0011
0000
,
0010
0100
1010
0000
,
0100
0001
0010
0001
,
0001
0100
0010
0110
,
1000
0100
0001
0100
,
1000
0100
0001
0010
,
1000
0010
0001
0010
,
1000
0010
0001
0100
,
1000
0010
0001
0100
,
0001
0010
1000
1000
,
0001
0010
1000
0100
,
1000
0010
0001
0001
,
1010
0010
0100
0101
,
0010
0001
0000
1010
,
0000
0100
0010
0011
,
0100
0001
0000
1100
,
1000
0010
0001
0100
,
0001
0010
1000
1000
,
0001
0010
1000
0100
,
1000
0010
0001
0001
,
1000
0100
0101
0000
,
0001
0100
1100
0000
,
0001
0010
0001
0010
,
1000
0010
0100
0100
,
1000
0010
0011
0000
,
0001
0010
1010
0000
,
0001
0100
0101
0000
,
1000
0100
0010
0100
,
1100
0100
0101
0000
,
0001
0010
0100
0010
,
0001
0001
0110
0000
,
0001
0100
1010
0000
,
0001
0010
1010
0000
,
1000
0100
0010
0100
,
1000
1000
0010
0000
,
1000
0010
0110
0001
,
1000
0100
0001
0100
,
1000
0100
0001
0010
,
1000
0010
0001
0010
,
1000
0010
0001
0100
,
1000
0010
0001
0100
,
0001
0010
1000
1000
,
0001
0010
1000
0100
,
1000
0010
0001
0001
,
1010
0010
0100
0101
,
0010
0001
0000
1010
,
0000
0100
0010
0011
,
0100
0001
0000
1100
,
1000
0010
0001
0100
,
0001
0010
1000
1000
,
0001
0010
1000
0100
,
1000
0010
0001
0001
,
1001
0000
0000
0000
;

//---------------dance-single - ----------------
#NOTES:
     dance-single:
     :
     Medium:
     13:
     0.647996,0.698539,0.262078,0.050400,0.000000,450.000000,424.000000,26.000000,5.000000,0.000000,0.000000,0.647996,0.698539,0.262078,0.050400,0.000000,450.000000,424.000000,26.000000,5.000000,0.000000,0.000000:
0000
0000
0000
0000
,
0000
0000
0000
0000
,
0000
0000
0000
0000
,
0000
0000
0000
0000
,
0000
0000
0000
0000
,
0100
0100
0100
0000
0200
0000
0310
0000
,
1000
0001
0010
0000
0001
1000
0100
0000
,
0010
0001
0010
0000
0100
0000
0100
1000
,
0000
1000
0001
0000
0001
0100
0010
0000
,
0110
0000
0001
1000
0001
0000
0010
0000
,
1000
0000
1000
0000
0010
0100
0020
0000
,
0031
0000
0010
0100
0010
0000
1000
0001
,
0000
0001
0100
0000
0010
0010
0200
0300
,
1001
0000
0001
0010
1000
0000
0010
0001
,
1000
0001
0010
0000
1010
0000
0010
0001
,
1000
0100
1000
0100
0001
0100
1000
0010
,
0100
0010
1000
0000
0011
0000
0010
0100
,
1100
0000
1000
0100
0001
0000
0100
1000
,
0001
1000
0100
0000
0101
0000
0100
1000
,
0001
0010
0001
0010
1000
0010
0001
0100
,
0010
0100
0001
0000
1100
0000
0100
0010
,
0001
0001
0001
0000
1100
0000
0010
0100
,
1000
1000
1000
0000
0011
0000
0100
0010
,
1000
0001
0000
0001
1000
0100
1000
0001
,
0100
0010
1000
0000
0011
0000
0010
0100
,
1000
1000
1000
0000
0011
0000
0100
0010
,
0000
0010
0001
0000
1100
0000
0100
0010
,
0000
0010
0000
0100
1000
0001
0100
0001
,
1000
0100
1000
0000
0110
0000
0010
0001
,
1000
0010
0001
0000
0010
0000
1000
0000
,
0010
0001
0010
0000
1000
0000
1100
0000
,
1000
0100
0001
0000
0100
0000
1000
0000
,
0100
0001
0100
0000
1000
0100
1000
0000
,
0001
0100
0010
0000
0001
0000
0010
0000
,
0100
0001
0010
0000
0001
0100
0010
0000
,
1000
0100
0010
0000
1000
0000
0010
0000
,
0100
1000
0010
0000
1000
0100
0010
0000
,
0002
0000
0103
0010
1000
0000
1100
0000
,
0100
0000
0001
0100
0000
0100
0001
0000
,
0000
0000
0100
0010
0100
0000
1100
0000
,
0001
0000
0100
0010
0000
0001
0010
0000
,
1000
0100
0010
0000
1000
0000
0010
0000
,
0100
1000
0010
0000
1000
0100
0010
0000
,
0001
0100
0010
0000
0001
0000
0010
0000
,
0100
0001
0010
0000
0001
0100
0010
0000
,
1000
0100
0010
0100
1000
0000
1001
0000
,
0001
0100
0010
0000
0011
0000
0100
0001
,
0010
0100
0010
0100
0001
0100
0010
0100
,
1000
0100
0010
0001
0100
0000
0110
1000
,
0001
0010
0100
0010
0001
0001
0100
0001
,
1000
0010
0100
0010
1000
1000
0100
1000
,
0010
0100
0010
0100
1000
0100
0010
0100
,
0001
0100
0010
1000
0100
0000
0010
0100
,
0110
0000
0001
0010
0001
0000
1000
0100
,
1000
0001
0100
0001
1000
0100
0010
0001
,
0100
0001
1000
0100
1000
0000
0001
0100
,
0010
1000
0010
0000
0110
0000
0100
0001
,
1000
0000
0001
0100
0001
0000
1000
0010
,
1000
0001
0010
0001
1000
0010
0100
0001
,
0010
0001
1000
0010
1000
0000
0001
0010
,
0100
1000
0100
0000
0110
0000
0010
0001
,
1000
0010
0001
0000
0010
0000
1000
0000
,
0010
0001
0010
0000
1000
0000
1100
0000
,
1000
0100
0001
0000
0100
0000
1000
0000
,
0100
0001
0100
0000
1000
0100
1000
0000
,
0001
0100
0010
0000
0001
0000
0010
0000
,
0100
0001
0010
0000
0001
0100
0010
0000
,
1000
0100
0010
0000
1000
0000
0010
0000
,
0100
1000
0010
0000
1000
0100
0010
0000
,
0002
0000
0103
0010
1000
0000
1100
0000
,
0100
0000
0001
0100
0000
0100
0001
0000
,
0000
0000
0100
0010
0100
0000
1100
0000
,
0001
0000
0100
0010
0000
0001
0010
0000
,
1000
0100
0010
0000
1000
0000
0010
0000
,
0100
1000
0010
0000
1000
0100
0010
0000
,
0001
0100
0010
0000
0001
0000
0010
0000
,
0100
0001
0010
0000
0001
0100
0010
0000
,
1100
0000
0000
0000
;
