#TITLE:Pelo -ペロ-;
#SUBTITLE:;
#ARTIST:The Idol Formerly Known As LADYBABY;
#TITLETRANSLIT:Pelo;
#SUBTITLETRANSLIT:;
#ARTISTTRANSLIT:;
#GENRE:J-Music;
#CREDIT:;
#BANNER:Pelo.png;
#BACKGROUND:Pelo-bg.png;
#LYRICSPATH:;
#CDTITLE:../cdtitle.png;
#MUSIC:Pelo.ogg;
#OFFSET:-0.363000;
#SAMPLESTART:76.370003;
#SAMPLELENGTH:15.000000;
#SELECTABLE:YES;
#BPMS:0.000000=210.000000
,252.000000=105.000000
,256.000000=210.000000
;
#STOPS:256.500000=0.286000,
257.500000=0.286000,
258.500000=0.857000
;
#BGCHANGES:-1.125=Pelo.avi=1.000=0=0=0=StretchNoLoop==CrossFade_Fastest==,
99999=-nosongbg-=1.000=0=0=0 // don't automatically add -songbackground-
;
#KEYSOUNDS:;
#ATTACKS:;

//---------------dance-single - ----------------
#NOTES:
     dance-single:
     :
     Beginner:
     6:
     0.247970,0.335960,0.079990,0.207975,0.000000,217.000000,207.000000,10.000000,26.000000,0.000000,0.000000,0.247970,0.335960,0.079990,0.207975,0.000000,217.000000,207.000000,10.000000,26.000000,0.000000,0.000000:
// measure 0
0000
0000
0000
0000
,  // measure 1
0000
0000
0000
0000
,  // measure 2
0000
0000
0000
0000
,  // measure 3
0000
0000
0000
0000
,  // measure 4
0000
0000
0000
0000
,  // measure 5
0110
0000
0000
0000
,  // measure 6
0110
0000
0000
0000
,  // measure 7
1001
0000
0000
0000
,  // measure 8
0010
0000
0000
0000
,  // measure 9
0110
0110
0000
0000
,  // measure 10
0000
0000
0000
0000
,  // measure 11
1001
1001
0000
0000
,  // measure 12
0000
0000
0000
0000
,  // measure 13
1000
0000
0001
0000
,  // measure 14
1000
0000
1000
0000
,  // measure 15
0010
0000
0100
0000
,  // measure 16
0020
0000
0030
0000
,  // measure 17
1000
0000
0100
0000
,  // measure 18
0010
0000
0001
0000
,  // measure 19
1000
0000
0001
0000
,  // measure 20
0010
0010
0200
0300
,  // measure 21
1000
0000
0100
0000
,  // measure 22
0010
0000
0001
0000
,  // measure 23
1000
0000
0001
0000
,  // measure 24
0010
0010
0020
0000
,  // measure 25
0030
0000
0000
0000
,  // measure 26
0001
0000
0000
0000
,  // measure 27
0001
0000
0000
0000
,  // measure 28
1000
0000
0000
0000
,  // measure 29
1000
0000
0000
0000
,  // measure 30
0010
0000
0000
0000
,  // measure 31
0100
0000
0000
0000
,  // measure 32
0001
0000
0001
0000
,  // measure 33
1000
0000
0001
0000
,  // measure 34
0010
0000
0010
0000
,  // measure 35
0100
0100
0100
0000
,  // measure 36
1000
0000
0000
0000
,  // measure 37
1000
0000
0000
0000
,  // measure 38
0001
0000
0000
0000
,  // measure 39
0001
0000
0000
0000
,  // measure 40
0100
0000
0000
0000
,  // measure 41
0010
0000
0000
0000
,  // measure 42
1000
0000
1000
0000
,  // measure 43
0001
0000
1000
0000
,  // measure 44
0100
0000
0100
0000
,  // measure 45
0010
0010
0010
0000
,  // measure 46
0001
0001
0001
0000
,  // measure 47
0100
0100
0100
0000
,  // measure 48
0010
0010
0010
0000
,  // measure 49
1000
1000
0002
0003
,  // measure 50
1000
1000
1000
0000
,  // measure 51
0100
0100
0100
0000
,  // measure 52
0010
0010
0010
0000
,  // measure 53
0001
0001
1000
0000
,  // measure 54
0002
0000
0003
0000
,  // measure 55
0020
0000
0030
0000
,  // measure 56
0200
0000
0300
0000
,  // measure 57
0010
0000
0010
0000
,  // measure 58
0002
0000
0003
0000
,  // measure 59
2000
0000
3000
0000
,  // measure 60
0020
0000
0030
0000
,  // measure 61
0100
0000
0100
0000
,  // measure 62
0010
0000
0010
0000
,  // measure 63
2000
0000
0000
0000
,  // measure 64
0000
0000
0000
0000
0000
3000
0001
0000
,  // measure 65
0001
0001
0000
1000
,  // measure 66
1000
1000
0000
0010
,  // measure 67
0010
0010
0100
0010
,  // measure 68
0010
0010
0000
2000
,  // measure 69
3000
0002
0003
0010
,  // measure 70
0010
0100
0010
0002
,  // measure 71
0003
2000
3000
0002
,  // measure 72
0003
1000
1000
0010
,  // measure 73
0010
0010
0000
0100
,  // measure 74
0100
0100
0000
0001
,  // measure 75
0001
0001
1000
0001
,  // measure 76
0001
0001
0000
0010
,  // measure 77
0010
0010
0000
0100
,  // measure 78
0100
0100
0000
1000
,  // measure 79
1000
1000
0000
0001
,  // measure 80
0001
1000
0001
0100
,  // measure 81
0100
0100
0000
0010
,  // measure 82
0010
0010
0000
1000
,  // measure 83
1000
1000
0000
0001
,  // measure 84
0001
1000
0001
2000
,  // measure 85
3000
0001
0000
0002
,  // measure 86
0003
0010
0000
0020
,  // measure 87
0030
0100
0000
0200
,  // measure 88
0300
1000
0000
0010
,  // measure 89
0010
0010
0000
0100
,  // measure 90
0100
0100
0000
0001
,  // measure 91
0001
0001
0000
1000
,  // measure 92
1000
0001
1000
0002
,  // measure 93
0000
0003
0000
0020
,  // measure 94
0000
0030
0000
0220
,  // measure 95
0000
0000
0000
0000
,  // measure 96
0000
0330
0000
1000
,  // measure 97
0000
0100
0000
0010
,  // measure 98
0000
0001
0000
1000
,  // measure 99
0000
0001
0000
0010
,  // measure 100
0010
0200
0300
1000
,  // measure 101
0000
0100
0000
0010
,  // measure 102
0000
0001
0000
1000
,  // measure 103
0000
0001
0000
0010
,  // measure 104
0010
0020
0030
1001
,  // measure 105
1001
0000
0000
0000
;

//---------------dance-single - ----------------
#NOTES:
     dance-single:
     :
     Hard:
     16:
     0.758766,0.923889,0.479942,0.447946,0.039995,664.000000,604.000000,60.000000,56.000000,0.000000,0.000000,0.758766,0.923889,0.479942,0.447946,0.039995,664.000000,604.000000,60.000000,56.000000,0.000000,0.000000:
// measure 0
0000
0000
0000
0000
,  // measure 1
0000
0000
0000
0000
,  // measure 2
0000
0000
0000
0000
,  // measure 3
0000
0000
0000
0000
,  // measure 4
0000
0000
0000
0000
,  // measure 5
1100
0100
0000
1000
0100
0000
1000
0001
,  // measure 6
0101
0001
0000
0100
0001
0000
0010
0100
,  // measure 7
0110
0100
0000
0010
0100
0000
1000
0001
,  // measure 8
0000
0000
0000
0000
,  // measure 9
0101
1001
0000
0000
,  // measure 10
0000
0000
0000
0000
,  // measure 11
1100
1001
0000
0000
,  // measure 12
0000
0000
0000
0000
,  // measure 13
0110
0000
1001
0000
0001
0100
0010
2000
,  // measure 14
0000
3010
0100
0002
0000
1003
0100
0010
,  // measure 15
0110
0000
1001
0000
1000
0010
0100
0001
,  // measure 16
0010
0100
1000
0001
0000
0012
0000
0000
,  // measure 17
1003
0100
0100
0100
0010
0001
0001
0001
,  // measure 18
0100
0010
0010
0010
0100
0001
0001
0001
,  // measure 19
0010
0100
0100
0100
1000
0001
0001
0001
,  // measure 20
0010
0100
1000
1000
0100
0020
0000
0000
,  // measure 21
0031
0100
0100
0100
0010
1000
1000
1000
,  // measure 22
0100
0010
0010
0010
0100
1000
1000
1000
,  // measure 23
0010
0100
0100
0100
0001
1000
1000
1000
,  // measure 24
0010
0000
0100
0000
0001
0000
0010
0000
0100
0000
1000
0001
1000
0000
0001
0000
,  // measure 25
0000
0000
0000
0000
0000
0000
0000
0000
0010
0000
0100
1000
0001
0000
1000
0000
,  // measure 26
1001
0001
1000
0001
0100
0010
0000
0010
,  // measure 27
0100
0001
0010
0100
1000
0001
1000
0010
,  // measure 28
0110
0010
0100
0010
1000
0001
0000
0001
,  // measure 29
2000
3100
0002
0103
,  // measure 30
1001
1000
0001
1000
0100
0010
0000
0010
,  // measure 31
0100
1000
0010
0100
0001
1000
0001
0010
,  // measure 32
0110
0002
0000
0003
0110
2000
0000
3000
,  // measure 33
1001
0000
0020
0000
0000
0000
0030
0000
0100
0000
0001
1000
0001
0000
1000
0000
,  // measure 34
1001
0100
0000
0000
1001
0010
0000
0000
,  // measure 35
0110
0000
1000
0001
1000
0000
0100
0000
0010
0000
0001
0000
1000
0000
0001
0000
,  // measure 36
1001
1000
0001
1000
0010
0100
0000
0100
,  // measure 37
0010
1000
0100
0010
0001
1000
0001
0100
,  // measure 38
0110
0100
0010
0100
0001
1000
0000
1000
,  // measure 39
0002
0013
2000
3010
,  // measure 40
1001
0001
1000
0001
0010
0100
0000
0100
,  // measure 41
0010
0001
0100
0010
1000
0001
1000
0100
,  // measure 42
0110
2000
0000
3000
0110
0002
0000
0003
,  // measure 43
1001
0000
0200
0000
0000
0000
0300
0000
0010
0000
1000
0001
1000
0000
0001
0000
,  // measure 44
1001
0010
0000
0000
1001
0100
0000
0000
,  // measure 45
0110
0000
0001
1000
0001
0000
0010
0000
0100
1000
0100
0000
0010
0001
0010
0001
,  // measure 46
1000
0100
0100
0001
0100
0100
0010
0100
,  // measure 47
1000
0001
0001
0100
0010
0010
0100
0001
,  // measure 48
1000
0010
0010
0001
0010
0010
0100
0010
,  // measure 49
1010
0101
1100
0120
,  // measure 50
0031
0100
0100
1000
0100
0100
0010
0100
,  // measure 51
0001
1000
1000
0100
0010
0010
0100
1000
,  // measure 52
0001
0010
0010
1000
0010
0010
0100
0010
,  // measure 53
0001
0010
0001
0100
0010
1000
0001
0000
,  // measure 54
1002
0000
0200
0003
,  // measure 55
0010
0320
2000
0030
,  // measure 56
3002
0010
2003
3100
,  // measure 57
1100
1010
0011
0101
,  // measure 58
2001
0000
0020
3000
,  // measure 59
0100
0230
0002
0300
,  // measure 60
2003
0100
3002
0010
,  // measure 61
1003
1000
0010
0010
,  // measure 62
0001
0100
1000
0001
,  // measure 63
2002
0000
0000
0000
0000
0000
0000
3003
,  // measure 64
1001
1000
1001
0001
1001
1000
1002
0000
,  // measure 65
0103
0010
1000
0010
0100
0001
2000
0000
,  // measure 66
3100
0001
0100
1000
0001
0000
1020
0000
,  // measure 67
0130
0001
1000
0001
0010
0100
0020
0000
,  // measure 68
0031
0100
0010
1000
0001
0000
0102
0000
,  // measure 69
0013
0000
2001
0000
3010
0100
0020
0000
,  // measure 70
1030
0000
1000
0100
0010
0002
0000
0013
,  // measure 71
0100
2000
0000
3001
1000
0020
0000
0031
,  // measure 72
0010
1000
0001
1000
0100
0000
1002
0000
,  // measure 73
0013
0100
1000
0100
0010
0001
2000
0000
,  // measure 74
3010
0001
0010
1000
0001
0000
1200
0000
,  // measure 75
0310
0001
1000
0001
0100
0010
0200
0000
,  // measure 76
0301
0010
0100
1000
0001
0000
1000
0100
,  // measure 77
0100
0001
0100
0100
1000
0001
1000
0010
,  // measure 78
0010
0001
0010
0010
1000
0001
0010
0100
,  // measure 79
0100
0010
0001
0001
0100
0010
0110
0000
,  // measure 80
1010
0000
1001
0000
0101
0000
0001
0010
,  // measure 81
0010
1000
0010
0010
0001
1000
0001
0100
,  // measure 82
0100
1000
0100
0100
0001
1000
0100
0010
,  // measure 83
0010
0100
1000
1000
0010
0100
0110
0000
,  // measure 84
0101
0000
0001
0010
0100
2000
0000
0000
,  // measure 85
3010
0000
0001
0100
0010
2000
0000
0000
,  // measure 86
3100
0000
0001
0010
0100
2000
0000
0000
,  // measure 87
3010
0000
0100
0001
0010
0200
0000
0000
,  // measure 88
0310
0000
0002
0000
1003
0000
0001
0100
,  // measure 89
0100
1000
0100
0100
0001
1000
0001
0010
,  // measure 90
0010
1000
0010
0010
0001
1000
0020
0000
,  // measure 91
0130
0010
1000
1000
0100
0100
0020
0000
,  // measure 92
0031
0000
0010
0100
1000
0001
2000
0000
,  // measure 93
3010
0001
0010
0001
0010
1000
0100
0001
,  // measure 94
0100
1000
0001
0010
0100
1000
2002
0000
,  // measure 95
0000
0000
0000
0000
,  // measure 96
3003
0000
0220
0000
0330
0000
1000
0100
,  // measure 97
0100
0100
0010
0001
0001
0001
0100
0010
,  // measure 98
0010
0010
0100
0001
0001
0001
0010
0100
,  // measure 99
0100
0100
1000
0001
0001
0001
0010
0100
,  // measure 100
1000
1000
0100
0020
0000
0000
0031
0100
,  // measure 101
0100
0100
0010
1000
1000
1000
0100
0010
,  // measure 102
0010
0010
0100
1000
1000
1000
0010
0100
,  // measure 103
0100
0100
0001
1000
1000
1000
0010
0100
,  // measure 104
0001
0000
0010
0000
0100
0000
1000
0001
1000
0000
0001
0000
1001
0000
0000
0000
,  // measure 105
1001
0000
0000
0000
;

//---------------dance-single - ----------------
#NOTES:
     dance-single:
     :
     Easy:
     9:
     0.412522,0.503940,0.247970,0.495940,0.000000,361.000000,330.000000,31.000000,62.000000,0.000000,0.000000,0.412522,0.503940,0.247970,0.495940,0.000000,361.000000,330.000000,31.000000,62.000000,0.000000,0.000000:
// measure 0
0000
0000
0000
0000
,  // measure 1
0000
0000
0000
0000
,  // measure 2
0000
0000
0000
0000
,  // measure 3
0000
0000
0000
0000
,  // measure 4
0000
0000
0000
0000
,  // measure 5
1100
0000
0000
1100
0000
0000
0001
0000
,  // measure 6
0101
0000
0000
0101
0000
0000
0010
0000
,  // measure 7
1010
0000
0000
1010
0000
0000
0011
0000
,  // measure 8
0000
0000
0000
0000
,  // measure 9
1001
1001
0000
0000
,  // measure 10
0000
0000
0000
0000
,  // measure 11
0110
0110
0000
0000
,  // measure 12
0000
0000
0000
0000
,  // measure 13
1001
1001
0001
0010
,  // measure 14
1000
1000
0010
0001
,  // measure 15
0110
0110
1000
0010
,  // measure 16
0001
0000
0001
0000
0000
0020
0000
0000
,  // measure 17
1030
1000
0100
0100
,  // measure 18
0010
0010
0001
0001
,  // measure 19
1000
1000
0001
0001
,  // measure 20
0100
0010
0220
0330
,  // measure 21
0001
0001
0010
0010
,  // measure 22
0100
0100
1000
1000
,  // measure 23
0001
0001
1000
1000
,  // measure 24
0010
0100
0220
0000
,  // measure 25
0330
0000
0000
0000
,  // measure 26
0010
0010
1000
0000
,  // measure 27
0001
0010
0100
0100
,  // measure 28
0010
0010
0001
0000
,  // measure 29
2000
3200
0302
0203
,  // measure 30
0310
0010
0001
0000
,  // measure 31
1000
0010
0100
0010
,  // measure 32
2020
3030
2200
3300
,  // measure 33
0022
0033
0001
0100
,  // measure 34
0110
0000
1001
0000
,  // measure 35
0100
0100
1000
0001
,  // measure 36
0010
0010
0001
0000
,  // measure 37
1000
0010
0100
0100
,  // measure 38
0010
0010
1000
0000
,  // measure 39
0002
0203
2300
3200
,  // measure 40
0310
0010
1000
0000
,  // measure 41
0001
0010
0100
0010
,  // measure 42
0022
0033
0202
0303
,  // measure 43
2020
3030
1000
0100
,  // measure 44
0110
0000
1001
0000
,  // measure 45
0100
0100
0001
1000
,  // measure 46
0001
0001
0001
0001
,  // measure 47
0010
0010
0010
0010
,  // measure 48
0100
0100
0100
0100
,  // measure 49
1000
0100
0010
0001
,  // measure 50
1000
1000
1000
1000
,  // measure 51
0010
0010
0010
0010
,  // measure 52
0100
0100
0100
0100
,  // measure 53
0001
0100
0010
1000
,  // measure 54
0002
0000
2000
0003
,  // measure 55
0100
0100
0100
3000
,  // measure 56
0002
0203
0320
0230
,  // measure 57
0301
0001
0010
0100
,  // measure 58
2000
0000
0002
3000
,  // measure 59
0010
0010
0010
0003
,  // measure 60
2000
3020
0230
0320
,  // measure 61
1030
1000
0100
0010
,  // measure 62
0001
0010
0100
1000
,  // measure 63
2002
0000
0000
0000
0000
0000
0000
3003
,  // measure 64
1000
0001
1000
0001
,  // measure 65
0010
1000
0010
0001
,  // measure 66
1000
0002
0003
1000
,  // measure 67
0010
0001
0010
1000
,  // measure 68
0001
2000
3000
0002
,  // measure 69
0003
0020
0030
0100
,  // measure 70
1000
0010
0100
0020
,  // measure 71
0000
2030
0000
3002
,  // measure 72
0000
0013
0100
1000
,  // measure 73
0100
0001
0100
1000
,  // measure 74
0001
2000
3000
0001
,  // measure 75
0100
1000
0100
0001
,  // measure 76
1000
0002
0003
1000
,  // measure 77
1000
1000
1000
0100
,  // measure 78
0100
0100
0100
0010
,  // measure 79
0010
0010
0010
0001
,  // measure 80
0010
0100
1000
0001
,  // measure 81
0001
0001
0001
0100
,  // measure 82
0100
0100
0100
0010
,  // measure 83
0010
0010
0010
1000
,  // measure 84
0010
0100
0001
2000
,  // measure 85
3000
0001
0100
2000
,  // measure 86
3000
0001
0010
2000
,  // measure 87
3000
0001
0010
2000
,  // measure 88
3000
0010
0010
0001
,  // measure 89
0001
0001
0001
0010
,  // measure 90
0010
0010
0010
0100
,  // measure 91
0010
0001
1000
0001
,  // measure 92
0100
0010
1000
0002
,  // measure 93
0100
0100
0100
2003
,  // measure 94
3200
0320
0032
2000
,  // measure 95
0000
0000
0000
0000
,  // measure 96
0003
0002
3003
1000
,  // measure 97
1000
0100
0100
0010
,  // measure 98
0010
0001
0001
1000
,  // measure 99
1000
0001
0001
0100
,  // measure 100
0010
0220
0330
0001
,  // measure 101
0001
0010
0010
0100
,  // measure 102
0100
1000
1000
0001
,  // measure 103
0001
1000
1000
0010
,  // measure 104
0100
0200
0310
1001
,  // measure 105
1001
0000
0000
0000
;

//---------------dance-single - ----------------
#NOTES:
     dance-single:
     :
     Medium:
     13:
     0.620497,0.671919,0.367956,0.551934,0.000000,543.000000,497.000000,46.000000,69.000000,0.000000,0.000000,0.620497,0.671919,0.367956,0.551934,0.000000,543.000000,497.000000,46.000000,69.000000,0.000000,0.000000:
// measure 0
0000
0000
0000
0000
,  // measure 1
0000
0000
0000
0000
,  // measure 2
0000
0000
0000
0000
,  // measure 3
0000
0000
0000
0000
,  // measure 4
0000
0000
0000
0000
,  // measure 5
1000
0100
0000
1000
0100
0000
1000
0100
,  // measure 6
0010
0001
0000
0010
0001
0000
0010
0001
,  // measure 7
0100
0010
0000
0100
0010
0000
0100
0010
,  // measure 8
0000
0000
0000
0000
,  // measure 9
0110
1001
0000
0000
,  // measure 10
0000
0000
0000
0000
,  // measure 11
1001
0110
0000
0000
,  // measure 12
0000
0000
0000
0000
,  // measure 13
0110
0000
1001
0000
0002
0000
0013
0100
,  // measure 14
0000
0010
0001
0010
0000
0001
1000
0000
,  // measure 15
0110
0000
1001
0000
2000
0000
3100
0010
,  // measure 16
0000
0100
1000
0100
0000
2002
0000
3003
,  // measure 17
1010
0010
0011
0001
,  // measure 18
0101
0100
1100
1000
,  // measure 19
1001
0100
1001
0100
,  // measure 20
0010
0100
0010
0000
0220
0000
0330
0000
,  // measure 21
0011
0010
1010
1000
,  // measure 22
1100
0100
0101
0001
,  // measure 23
1001
0100
1001
0100
,  // measure 24
0010
0100
0010
0000
1000
0001
1000
0001
,  // measure 25
0000
0000
0000
0000
0010
0010
0100
0010
,  // measure 26
0001
1000
0100
1000
0001
0001
0000
0100
,  // measure 27
0010
1000
0010
0100
0000
0001
1000
0100
,  // measure 28
0010
0001
1000
0001
0010
0010
0000
0100
,  // measure 29
2000
3010
0002
0013
,  // measure 30
1000
0010
0100
0010
1000
1000
0000
0001
,  // measure 31
0010
0100
0010
0001
0000
0100
0010
1000
,  // measure 32
0001
0002
0000
0003
1000
2000
0000
3000
,  // measure 33
0001
0002
0000
0003
0100
0010
1000
0001
,  // measure 34
1000
0100
0000
0000
0001
0100
0000
0000
,  // measure 35
1000
0100
1000
0001
0100
0010
1000
0001
,  // measure 36
1000
0001
0010
0001
1000
1000
0000
0010
,  // measure 37
0100
0001
0100
0010
0000
1000
0001
0010
,  // measure 38
0100
1000
0001
1000
0100
0100
0000
0010
,  // measure 39
0002
0103
2000
3100
,  // measure 40
0001
0100
0010
0100
0001
0001
0000
1000
,  // measure 41
0100
0010
0100
1000
0000
0010
0100
0001
,  // measure 42
1000
2000
0000
3000
0001
0002
0000
0003
,  // measure 43
1000
2000
0000
3000
0010
0100
0001
1000
,  // measure 44
0001
0010
0000
0000
1000
0010
0000
0000
,  // measure 45
0001
0010
0001
1000
0010
0100
0001
1000
,  // measure 46
0001
0010
0001
0010
0001
0000
0010
0100
,  // measure 47
1000
0100
1000
0100
1000
0000
0010
0100
,  // measure 48
0001
0100
0001
0100
0001
0000
0010
0100
,  // measure 49
2000
3100
0002
0103
,  // measure 50
1000
0100
1000
0100
1000
0000
0100
0010
,  // measure 51
0001
0010
0001
0010
0001
0000
0100
0010
,  // measure 52
1000
0010
1000
0010
1000
0000
0100
0010
,  // measure 53
0001
0010
0001
0000
1000
0000
0001
0000
,  // measure 54
2000
0000
0002
0003
,  // measure 55
3010
0100
0002
0003
,  // measure 56
2000
3020
0032
0023
,  // measure 57
1030
1000
0100
0010
,  // measure 58
0002
0000
2000
3000
,  // measure 59
0013
0100
2000
3000
,  // measure 60
0002
0023
2030
3020
,  // measure 61
0031
0001
0100
0100
,  // measure 62
0010
1000
0100
0010
,  // measure 63
2002
0000
0000
0000
0000
0000
0000
3003
,  // measure 64
1000
1000
0001
0001
1000
1000
1002
0000
,  // measure 65
0013
0100
1000
0100
1000
0100
0002
0000
,  // measure 66
1003
0010
0001
0000
1000
0000
0020
0000
,  // measure 67
0130
0001
0100
0010
0100
0001
0020
0000
,  // measure 68
0130
1000
0002
0000
1003
0000
2000
0000
,  // measure 69
0100
0000
3002
0000
0103
1000
0200
0000
,  // measure 70
0302
0000
0013
0100
0010
0002
0000
1003
,  // measure 71
0100
2000
0000
3001
0100
0002
0000
1003
,  // measure 72
0010
1000
0001
0000
1000
0000
2001
0000
,  // measure 73
3010
0100
0001
0100
0001
0100
2000
0000
,  // measure 74
3001
0010
1000
0000
0001
0000
0020
0000
,  // measure 75
0130
1000
0100
0010
0100
1000
0020
0000
,  // measure 76
0130
0001
2000
0000
3001
0000
0001
0100
,  // measure 77
0001
0100
0001
0000
0100
0010
1000
0010
,  // measure 78
1000
0010
1000
0000
0100
0010
0001
0010
,  // measure 79
0001
0010
0001
0000
0100
0010
2000
0000
,  // measure 80
3010
0000
0002
0000
0013
0000
1000
0010
,  // measure 81
1000
0010
1000
0000
0010
0100
0001
0100
,  // measure 82
0001
0100
0001
0000
0010
0100
1000
0100
,  // measure 83
1000
0100
1000
0000
0010
0100
0002
0000
,  // measure 84
0203
0000
0310
1000
0000
2010
0000
0000
,  // measure 85
3100
0000
0010
0001
0000
0012
0000
0000
,  // measure 86
0103
0000
0010
1000
0000
1002
0000
0000
,  // measure 87
0103
0000
0010
1000
0000
2001
0000
0000
,  // measure 88
3100
0000
0010
0000
0010
0000
0001
0010
,  // measure 89
0001
0010
0001
0000
0010
0100
1000
0100
,  // measure 90
1000
0100
1000
0000
0010
0100
0002
0000
,  // measure 91
1003
0001
1000
0001
1000
0000
0002
0000
,  // measure 92
0103
0000
1000
0100
0000
0002
0000
0000
,  // measure 93
0010
0010
0010
2003
,  // measure 94
0100
0100
3001
0220
,  // measure 95
0000
0000
0000
0000
,  // measure 96
0330
2002
3003
1010
,  // measure 97
0010
0011
0001
0101
,  // measure 98
0100
1100
1000
1001
,  // measure 99
0100
0000
1001
0000
0100
0000
0010
0100
,  // measure 100
0010
0220
0330
0011
,  // measure 101
0010
1010
1000
1100
,  // measure 102
0100
0101
0001
1001
,  // measure 103
0100
0000
1001
0000
0100
0000
0010
0100
,  // measure 104
0010
0000
1000
0001
1000
0001
1001
0000
,  // measure 105
1001
0000
0000
0000
;
