#TITLE:パ→ピ→プ→Yeah!;
#SUBTITLE:;
#ARTIST:ヒゲドライバー join. shully & Nimo;
#TITLETRANSLIT:Pa→Pi→Pu→Yeah!;
#SUBTITLETRANSLIT:;
#ARTISTTRANSLIT:Hige Driver join. shully & Nimo;
#GENRE:BEMANI;
#CREDIT:;
#BANNER:Pa Pi Pu Yeah!.png;
#BACKGROUND:Pa Pi Pu Yeah!-bg.png;
#LYRICSPATH:;
#CDTITLE:../cdtitle.png;
#MUSIC:Pa Pi Pu Yeah!.ogg;
#OFFSET:0.906000;
#SAMPLESTART:63.590000;
#SAMPLELENGTH:15.000000;
#SELECTABLE:YES;
#BPMS:0.000000=160.000000
;
#STOPS:
;
#BGCHANGES:4.000=Pa Pi Pu Yeah!.avi=1.000=0=0=0=StretchNoLoop====,
99999=-nosongbg-=1.000=0=0=0 // don't automatically add -songbackground-
;
#KEYSOUNDS:;
#ATTACKS:;

//---------------dance-single - ----------------
#NOTES:
     dance-single:
     :
     Hard:
     15:
     0.741894,0.877908,0.384686,0.100751,0.755633,567.000000,525.000000,42.000000,11.000000,0.000000,0.000000,0.741894,0.877908,0.384686,0.100751,0.755633,567.000000,525.000000,42.000000,11.000000,0.000000,0.000000:
// measure 0
0000
0000
0000
0000
,  // measure 1
0000
0000
0000
0000
,  // measure 2
0000
0000
0000
0000
,  // measure 3
1001
0000
0000
0000
0000
0000
0000
0010
,  // measure 4
0110
0000
0000
0000
0000
0000
0000
0000
0100
0000
0000
0010
0000
0000
0110
0000
,  // measure 5
1001
0000
0000
0000
0000
0000
0000
0100
,  // measure 6
0110
0000
0000
0000
0100
0000
0000
0000
0001
0100
0001
0100
0010
1000
0001
0010
,  // measure 7
0100
0000
1000
0000
0001
0010
0001
0000
0100
0000
0010
1000
0000
1000
0001
0000
,  // measure 8
1000
0000
0100
0000
0010
0001
0010
0000
0100
0000
1000
0001
0000
0001
0100
0000
,  // measure 9
0010
0000
0001
0000
0010
1000
0010
0000
0100
0000
0001
0010
0000
0010
0100
0000
,  // measure 10
1000
0100
1000
0100
0010
0001
0010
0001
0010
0100
1000
0001
0100
0010
1000
0100
,  // measure 11
0010
0000
0010
0000
0010
0000
0010
0001
,  // measure 12
0100
0000
0000
0000
0100
0000
0000
0000
1010
0000
0000
0110
0000
0000
1010
0000
,  // measure 13
0001
0001
1000
1000
,  // measure 14
0002
0013
0200
0310
2000
3010
0200
0310
,  // measure 15
0001
0000
0001
0000
0001
0000
0001
0100
,  // measure 16
0010
0000
0000
0000
0010
0000
0000
0000
0101
0000
0000
1001
0000
0000
1100
0000
,  // measure 17
0010
0000
0010
0000
0010
0000
0010
0001
,  // measure 18
0100
0010
0000
0100
0010
0000
1000
0000
0001
0000
0010
0100
1000
0001
1000
0001
,  // measure 19
0100
0001
0100
0001
0100
0010
0100
0010
,  // measure 20
1000
0000
0100
0010
0001
0000
0010
0100
1000
0100
1000
0100
0010
0001
1000
0010
,  // measure 21
0100
0000
0001
0000
1000
0010
1000
0000
0100
0000
0010
0001
0000
0001
1000
0000
,  // measure 22
0001
0000
0100
0000
0010
1000
0010
0000
0100
0000
0001
1000
0000
1000
0100
0000
,  // measure 23
0010
0000
1000
0000
0010
0001
0010
0000
0100
0000
1000
0010
0000
0010
0100
0000
,  // measure 24
0001
0100
0001
0100
0010
1000
0010
1000
0010
0100
0001
1000
0100
0010
0001
0100
,  // measure 25
0010
0000
0010
0000
0010
0000
0010
1000
,  // measure 26
0100
0000
0000
0000
0100
0000
0000
0000
0011
0000
0000
0110
0000
0000
0011
0000
,  // measure 27
1000
1000
0001
0001
,  // measure 28
2000
3010
0200
0310
0002
0013
0200
0310
,  // measure 29
1000
0000
1000
0000
1000
0000
1000
0100
,  // measure 30
0010
0000
0000
0000
0010
0000
0000
0000
1100
0000
0000
1001
0000
0000
0101
0000
,  // measure 31
0010
0000
0010
0000
0010
0000
0010
1000
,  // measure 32
0100
0010
0100
0000
0010
0000
0001
0000
1000
0000
0010
0100
0001
1000
0001
1000
,  // measure 33
0100
0000
0000
0100
0000
0000
1100
0000
0000
0000
1000
0000
0100
0000
0010
0000
,  // measure 34
0001
0000
0000
0001
0000
0000
0011
0000
0000
0000
0001
0000
0100
0000
0010
0000
,  // measure 35
1000
0000
0000
1000
0000
0000
1001
0000
0100
0000
0010
0000
0001
0000
1000
0000
,  // measure 36
0010
0000
0000
0010
0000
0000
0110
0000
0000
0000
0001
0000
1000
0000
0100
0000
,  // measure 37
0010
0000
0000
0010
0000
0000
0011
0000
0000
0000
0001
0000
0010
0000
0100
0000
,  // measure 38
1000
0000
0000
1000
0000
0000
1100
0000
0000
0000
1000
0000
0010
0000
0100
0000
,  // measure 39
0001
0000
0000
0010
0000
0000
0011
0000
1000
0000
0000
0100
0000
0000
1100
0000
,  // measure 40
0001
0000
0000
0100
0000
0000
0101
0000
0020
0000
0000
0000
1030
0000
0001
0010
,  // measure 41
0100
0000
1000
0000
0100
0000
1000
0000
0100
0000
0001
0000
0100
0000
0001
0100
,  // measure 42
1000
0000
0001
0000
0100
0010
0100
0010
1000
0001
0010
0100
1000
0100
0010
0001
,  // measure 43
1000
0000
0010
0100
0000
0100
0001
0000
0010
0000
0100
1000
0000
1000
0001
0000
,  // measure 44
0100
0000
0010
1000
0000
1000
0100
0000
0010
0000
0000
0000
1001
0000
0100
0000
,  // measure 45
0010
1000
0000
1000
0000
1000
0000
1000
0100
0010
0000
0010
0000
0010
0000
0010
,  // measure 46
0001
0100
0000
0100
0000
0100
0000
0100
0010
0000
0000
0000
1001
0000
0000
0000
,  // measure 47
0001
0000
0010
0000
0100
0000
0010
0000
0001
0000
1000
0010
0000
0100
0001
0000
,  // measure 48
1000
0000
0001
1000
0000
0100
0010
0000
0001
0000
1000
0000
0010
0000
0100
0000
,  // measure 49
0001
0010
0000
0010
0000
0010
0000
0010
0100
1000
0000
1000
0000
1000
0000
1000
,  // measure 50
0001
0000
0100
0000
0010
0000
0100
0000
0001
0100
0001
0100
0010
1000
0100
0010
,  // measure 51
0001
0000
0010
0100
0000
0100
1000
0000
0010
0000
0100
0001
0000
0001
1000
0000
,  // measure 52
0100
0000
0010
0001
0000
0001
0100
0000
0010
0000
0000
0000
1001
0000
0100
0000
,  // measure 53
0010
0001
0000
0001
0000
0001
0000
0001
0100
0010
0000
0010
0000
0010
0000
0010
,  // measure 54
1000
0100
0000
0100
0000
0100
0000
0100
0010
0000
0000
0000
1001
0000
0000
0000
,  // measure 55
1000
1000
0010
0010
,  // measure 56
0001
0000
0001
0000
0100
0000
0100
0001
,  // measure 57
1000
0010
0000
0010
0000
0010
0000
0010
0100
0001
0000
0001
0000
0001
0000
0001
,  // measure 58
1000
0000
0100
0000
0010
0000
0100
0000
1000
0000
0001
0100
0000
0010
0100
0000
,  // measure 59
1001
0000
0000
0000
0000
0000
0000
0000
0011
0000
0010
0100
0000
0100
1000
0000
,  // measure 60
1001
0000
0000
0000
0000
0000
0000
0000
1010
0000
0010
0100
0000
0100
0001
0000
,  // measure 61
1001
0000
0000
0000
0000
0000
0000
0000
0011
0000
0100
1000
0000
0001
0100
0000
,  // measure 62
0220
0000
0000
0330
,  // measure 63
1001
0000
0000
0000
0000
0000
0000
0010
,  // measure 64
0110
0000
0000
0000
0000
0000
0000
0000
0100
0000
0000
0010
0000
0000
0110
0000
,  // measure 65
1001
0000
0000
0000
0000
0000
0000
0100
,  // measure 66
0110
0000
0000
0000
0100
0000
0000
0000
0001
0100
0001
0100
0010
1000
0001
0010
,  // measure 67
0100
0000
1000
0000
0001
0010
0001
0000
0100
0000
0010
1000
0000
1000
0001
0000
,  // measure 68
1000
0000
0100
0000
0010
0001
0010
0000
0100
0000
1000
0001
0000
0001
0100
0000
,  // measure 69
0010
0000
0001
0000
0010
1000
0010
0000
0100
0000
0001
0010
0000
0010
0100
0000
,  // measure 70
1000
0100
1000
0100
0010
0001
0010
0001
0010
0100
1000
0001
0100
0010
1000
0100
,  // measure 71
0010
0000
0000
0000
;

//---------------dance-single - ----------------
#NOTES:
     dance-single:
     :
     Beginner:
     4:
     0.155706,0.292636,0.256457,0.146547,0.000000,119.000000,91.000000,28.000000,16.000000,0.000000,0.000000,0.155706,0.292636,0.256457,0.146547,0.000000,119.000000,91.000000,28.000000,16.000000,0.000000,0.000000:
0000
0000
0000
0000
,
0000
0000
0000
0000
,
0000
0000
0000
0000
,
0000
0000
0000
0000
,
0000
0000
0000
0000
,
0000
0000
0000
0000
,
0000
0000
0000
0000
,
1001
0000
0000
0000
,
0110
0000
0000
0000
,
1001
0000
0000
0000
,
0220
0000
0330
0000
,
0010
0000
0000
0000
,
0100
0000
0000
0000
,
0010
0000
0000
0000
,
0100
0000
0100
0000
,
0100
0000
0000
0000
,
0010
0000
0000
0000
,
1000
0000
0000
0000
,
0001
0000
0000
0000
,
0020
0000
0030
0000
,
0010
0000
0010
0000
,
1001
0000
0000
0000
,
0110
0000
0000
0000
,
1001
0000
0000
0000
,
0220
0000
0330
0000
,
0010
0000
0000
0000
,
0100
0000
0000
0000
,
0010
0000
0000
0000
,
0100
0000
0100
0000
,
0100
0000
0000
0000
,
0010
0000
0000
0000
,
0001
0000
0000
0000
,
1000
0000
0000
0000
,
0020
0000
0030
0000
,
2000
0000
3000
0000
,
0200
0000
0300
0000
,
2000
0000
3000
0000
,
0002
0000
0003
0000
,
0200
0000
0300
0000
,
0001
0000
1000
0000
,
0001
0000
1000
0000
,
0002
0000
0003
0000
,
0001
0000
0010
0010
,
0010
0000
1000
0000
,
0010
0000
0001
0000
,
1001
0000
0110
0000
,
1001
0000
0010
0010
,
0010
0000
0001
0000
,
0010
0000
1000
0000
,
1001
0000
0110
0000
,
0000
1000
1000
0000
,
1000
0000
0001
0000
,
1000
0000
0001
0000
,
1001
0000
0110
0000
,
1001
0000
0010
0010
,
0010
0000
0100
0000
,
1000
0000
0001
0000
,
1001
0000
0110
0000
,
0000
1000
1000
0000
,
1001
0000
0000
0000
,
0110
0000
0000
0000
,
1001
0000
0000
0000
,
0220
0000
0330
0000
,
1001
0000
0000
0000
,
0100
0000
0000
0000
,
0100
0000
0000
0000
,
0100
0000
0100
0000
,
1001
0000
0000
0000
,
0110
0000
0000
0000
,
1001
0000
0000
0000
,
0220
0000
0330
0000
,
1001
0000
0000
0000
;

//---------------dance-single - ----------------
#NOTES:
     dance-single:
     :
     Easy:
     7:
     0.359825,0.552757,0.604506,0.219820,0.000000,275.000000,209.000000,66.000000,24.000000,0.000000,0.000000,0.359825,0.552757,0.604506,0.219820,0.000000,275.000000,209.000000,66.000000,24.000000,0.000000,0.000000:
0000
0000
0000
0000
,
0000
0000
0000
0000
,
0000
0000
0000
0000
,
1001
0000
0000
0000
,
0110
0000
0000
0000
,
1001
0000
0000
0000
,
0100
0100
0010
0010
,
0110
0001
0100
1000
,
0110
1000
0100
0001
,
0110
1000
0010
0001
,
2002
0000
0000
3003
,
0100
0100
0100
0000
,
0010
0010
0110
0000
,
1000
1000
1000
0000
,
0001
0010
1000
0010
,
0001
0001
0001
0000
,
1000
1000
1001
0000
,
0100
0100
0100
0000
,
0010
1000
0100
0010
,
0002
0000
0000
0003
,
1000
0010
0001
0100
,
0110
1000
0100
0001
,
0110
0001
0100
1000
,
0110
0001
0010
1000
,
2002
0000
0000
3003
,
0100
0100
0100
0000
,
0010
0010
0110
0000
,
0001
0001
0001
0000
,
1000
0010
0001
0010
,
1000
1000
1000
0000
,
0001
0001
1001
0000
,
0100
0100
0100
0000
,
0010
0001
0100
0010
,
2000
0000
0000
0100
0000
0000
3100
0000
,
0002
0000
0000
0100
0000
0000
0103
0000
,
2000
3100
0002
0013
,
2000
0000
0000
0100
0000
0000
3100
0000
,
0002
0000
0000
0010
0000
0000
0013
0000
,
2000
0000
0000
0010
0000
0000
3010
0000
,
0110
0000
1001
0000
,
1001
0000
0110
0110
,
2002
0000
0000
3003
,
0220
0330
0010
0010
,
1001
0100
1001
0010
,
1001
0100
0220
0330
,
1100
1100
0101
0101
,
0110
0110
1001
1001
,
0001
0010
1000
0100
,
0001
0100
1000
0010
,
0011
0011
1010
1010
,
0000
0001
0100
0010
,
1001
0100
1001
0010
,
1001
0100
0220
0330
,
0101
0101
1100
1100
,
0110
0110
1001
1001
,
1000
0010
0001
0100
,
1000
0100
0001
0010
,
1010
1010
0011
0011
,
0000
1000
0100
0010
,
1001
0000
0001
0001
,
0101
0000
1000
1000
,
1100
0000
0010
0010
,
0220
0000
0000
0330
,
1001
0000
0000
0000
,
0110
0000
0000
0000
,
1001
0000
0000
0000
,
0100
0100
0010
0010
,
0110
0001
0100
1000
,
0110
1000
0100
0001
,
0110
1000
0010
0001
,
2002
0000
0000
3003
,
0110
0000
0000
0000
;

//---------------dance-single - ----------------
#NOTES:
     dance-single:
     :
     Medium:
     11:
     0.497213,0.585272,0.228980,0.137388,0.283935,380.000000,355.000000,25.000000,15.000000,0.000000,0.000000,0.497213,0.585272,0.228980,0.137388,0.283935,380.000000,355.000000,25.000000,15.000000,0.000000,0.000000:
0000
0000
0000
0000
,
0000
0000
0000
0000
,
0000
0000
0000
0000
,
1001
0000
0000
0000
0000
0000
0000
0100
,
0010
0000
0000
0000
0000
0000
0000
0000
0100
0000
0000
0100
0000
0000
0100
0000
,
1001
0000
0000
0000
0000
0000
0000
0100
,
0010
0000
0010
0000
0100
0010
0100
0010
,
0001
0000
0100
0000
0010
0000
1000
0000
0001
0000
0000
0001
0000
0000
0001
0000
,
1000
0000
0100
0000
0010
0000
0001
0000
1000
0000
0000
1000
0000
0000
1000
0000
,
0001
0000
0100
0000
0010
0000
1000
0000
0001
0000
0000
0001
0000
0000
0001
0000
,
0010
0100
1000
0001
0100
1000
0100
0001
,
1000
1000
1000
1000
,
0001
0000
0000
0000
0001
0000
0000
0000
0010
0000
0000
0010
0000
0000
0010
0000
,
0100
0100
0100
0100
,
1000
0100
1000
0000
0001
0100
0001
0000
,
1000
1000
1000
1000
,
0001
0000
0000
0000
0001
0000
0000
0000
1000
0000
0000
1000
0000
0000
1000
0000
,
0100
0100
0100
0100
,
0010
0000
0010
0000
0001
1000
0001
1000
,
0002
0000
0000
0000
0000
0000
0003
0100
,
0010
0000
1000
0000
0010
0100
0010
0100
,
0001
0000
0010
0000
0100
0000
1000
0000
0001
0000
0000
0001
0000
0000
0001
0000
,
1000
0000
0010
0000
0100
0000
0001
0000
1000
0000
0000
1000
0000
0000
1000
0000
,
0001
0000
0010
0000
0100
0000
1000
0000
0001
0000
0000
0001
0000
0000
0001
0000
,
0100
0010
1000
0001
0010
1000
0010
0001
,
1000
1000
1000
1000
,
0001
0000
0000
0000
0001
0000
0000
0000
0100
0000
0000
0100
0000
0000
0100
0000
,
0010
0010
0010
0010
,
1000
0010
1000
0000
0001
0010
0001
0000
,
1000
1000
1000
1000
,
0001
0000
0000
0000
0001
0000
0000
0000
1000
0000
0000
1000
0000
0000
1000
0000
,
0010
0010
0010
0010
,
0100
0000
0100
0000
0001
1000
0001
1000
,
0002
0000
0000
1000
0003
0100
0010
0100
,
0001
0000
0000
1000
0000
0000
0200
0000
0000
0000
0000
0000
0300
0000
1000
0000
,
0020
0000
0230
0000
0302
0000
1003
0001
,
2000
0000
0000
0001
0000
3000
0100
1000
,
0002
0000
0000
1000
0003
0100
0010
1000
,
0001
0000
0000
0010
0000
0000
0200
0000
0000
0000
0000
0000
0300
0000
0100
0000
,
1000
0000
0000
1000
0000
0000
1000
0000
0001
0000
0000
0001
0000
0000
0001
0000
,
0100
0000
0000
0100
0000
0000
0100
0000
0020
0000
0000
0000
2030
0000
0000
0000
,
0002
0000
0000
0000
0000
0000
3003
0100
,
0020
0030
0110
0110
,
1000
0000
0000
0100
0000
0000
0010
0000
0001
0000
0000
0100
0000
0000
0010
0000
,
1000
0000
0000
0100
0000
0000
0010
0000
0001
0000
0000
0000
1001
0000
0000
0000
,
0100
0000
0000
0010
0000
0010
0000
0010
1000
0000
0000
0100
0000
0100
0000
0100
,
0010
0000
0000
0001
0000
0001
0000
0001
1000
0000
0000
0000
1001
0000
0000
0000
,
0001
0000
0100
0000
0010
0000
1000
0000
0001
0000
0000
0001
0000
0000
0010
0000
,
0100
0000
0000
0100
0000
0000
1000
0000
0001
0000
0000
0000
1001
0000
0000
0000
,
1000
0000
0000
0010
0000
0010
0000
0010
0100
0000
0000
0001
0000
0001
0000
0001
,
0000
1000
0010
1000
0100
0010
0100
1000
,
0001
0000
0000
0100
0000
0000
0010
0000
1000
0000
0000
0100
0000
0000
0010
0000
,
0001
0000
0000
0100
0000
0000
0010
0000
1000
0000
0000
0000
1001
0000
0000
0000
,
0100
0000
0000
0010
0000
0010
0000
0010
0001
0000
0000
0100
0000
0100
0000
0100
,
0010
0000
0000
1000
0000
1000
0000
1000
0001
0000
0000
0000
1001
0000
0000
0000
,
0001
0001
0100
0100
,
1000
1000
0010
0010
,
0001
0000
0000
0010
0000
0010
0000
0010
0100
0000
0000
1000
0000
1000
0000
1000
,
0000
0000
0001
0000
0010
0000
0001
0000
0100
0000
0000
0010
0000
0000
1000
0000
,
1001
0000
0000
0000
0000
0000
0000
0000
0011
0000
0000
0110
0000
0000
1100
0000
,
1001
0000
0000
0000
0000
0000
0000
0000
1010
0000
0000
0110
0000
0000
0101
0000
,
1001
0000
0000
0000
0000
0000
0000
0000
0011
0000
0000
1100
0000
0000
1001
0000
,
0220
0000
0000
0330
,
1001
0000
0000
0000
0000
0000
0000
0100
,
0010
0000
0000
0000
0000
0000
0000
0000
0100
0000
0000
0100
0000
0000
0100
0000
,
1001
0000
0000
0000
0000
0000
0000
0100
,
0010
0000
0010
0000
0100
0010
0100
0010
,
0001
0000
0100
0000
0010
0000
1000
0000
0001
0000
0000
0001
0000
0000
0001
0000
,
1000
0000
0100
0000
0010
0000
0001
0000
1000
0000
0000
1000
0000
0000
1000
0000
,
0001
0000
0100
0000
0010
0000
1000
0000
0001
0000
0000
0001
0000
0000
0001
0000
,
0010
0100
1000
0001
0100
1000
0100
0001
,
1001
0000
0000
0000
;
