#VERSION:0.83;
#TITLE:POP/STARS & Mic Drop;
#SUBTITLE:(Miggy Smallz Mashup);
#ARTIST:K/DA x BTS;
#TITLETRANSLIT:;
#SUBTITLETRANSLIT:;
#ARTISTTRANSLIT:;
#GENRE:K/DA;
#ORIGIN:;
#CREDIT:;
#BANNER:POP STARS & Mic Drop (Miggy Smallz Mashup).png;
#BACKGROUND:../bg.png;
#PREVIEWVID:;
#JACKET:POP STARS & Mic Drop (Miggy Smallz Mashup)-jacket.png;
#CDIMAGE:;
#DISCIMAGE:;
#LYRICSPATH:;
#CDTITLE:../cdtitle.png;
#MUSIC:POP STARS & Mic Drop (Miggy Smallz Mashup).ogg;
#OFFSET:0.900000;
#SAMPLESTART:40.035999;
#SAMPLELENGTH:15.000000;
#SELECTABLE:YES;
#BPMS:0.000=170.000;
#STOPS:120.000=0.176,
120.500=0.176;
#DELAYS:;
#WARPS:;
#TIMESIGNATURES:0.000=4=4;
#TICKCOUNTS:0.000=4;
#COMBOS:0.000=1;
#SPEEDS:0.000=1.000=0.000=0;
#SCROLLS:0.000=1.000;
#FAKES:;
#LABELS:0.000=Song Start;
#BGCHANGES: 2.750=POP STARS & Mic Drop (Miggy Smallz Mashup).avi=1.000=0=0=0=StretchNoLoop====,
99999=-nosongbg-=1.000=0=0=0 // don't automatically add -songbackground-
;
#KEYSOUNDS:;
#ATTACKS:
;

//---------------dance-single - ----------------
#NOTEDATA:;
#CHARTNAME:;
#STEPSTYPE:dance-single;
#DESCRIPTION:;
#CHARTSTYLE:;
#DIFFICULTY:Hard;
#METER:13;
#RADARVALUES:0.607311,0.696111,0.486297,0.337271,0.031374,542.000000,480.000000,62.000000,43.000000,0.000000,0.000000,0.000000,0.000000,0.000000,0.607311,0.696111,0.486297,0.337271,0.031374,542.000000,480.000000,62.000000,43.000000,0.000000,0.000000,0.000000,0.000000,0.000000;
#CREDIT:led_light;
#NOTES:
// measure 0
0000
0000
0000
0000
,  // measure 1
0000
0000
0000
0000
,  // measure 2
0000
0000
0000
0000
,  // measure 3
0000
0000
0000
0000
,  // measure 4
0000
0000
0000
0000
,  // measure 5
2000
0000
3100
0000
,  // measure 6
0002
0000
0103
0000
,  // measure 7
1000
0001
0100
0010
,  // measure 8
0100
0100
0100
0100
0020
0030
0020
0030
,  // measure 9
1010
0000
0101
0000
1000
0100
0001
0100
,  // measure 10
1000
0001
0010
0000
0110
0100
1000
0010
,  // measure 11
0100
1000
0100
0000
0101
0001
0010
1000
,  // measure 12
0010
0001
0010
0000
0110
0010
0100
0010
,  // measure 13
0001
0100
0010
1000
1100
0100
0010
0001
,  // measure 14
1000
0001
0010
0000
1100
0100
0010
0001
,  // measure 15
0100
0000
0010
0100
0010
0000
1000
0000
0001
0000
0010
0000
1000
0000
0001
0000
,  // measure 16
0100
0000
0100
0000
0100
0000
0100
0000
1000
0100
0000
0000
0001
0100
0000
0000
,  // measure 17
0220
0000
0000
0000
,  // measure 18
0000
0000
0000
0000
,  // measure 19
0000
0000
0000
0000
,  // measure 20
0330
0000
0000
0000
0000
0000
0000
0000
0001
0010
0001
0010
0100
1000
0010
0100
,  // measure 21
0002
0000
0013
0000
0000
0001
0100
0001
,  // measure 22
1000
0100
1000
0001
0100
0000
0010
1000
,  // measure 23
0001
0000
0001
0000
1000
0100
1000
0001
,  // measure 24
0010
0100
1000
0001
1000
0000
0010
0100
,  // measure 25
0010
0000
0100
0001
1000
0001
1000
0100
,  // measure 26
1000
0001
1000
0010
0100
0000
0010
1000
,  // measure 27
0001
0000
0010
0100
1000
1000
0001
0000
,  // measure 28
0020
0100
0100
0130
0010
0001
0100
0010
,  // measure 29
2010
0000
3001
0010
0100
0100
1000
0001
,  // measure 30
0110
0110
1001
0001
0100
0010
2000
0000
,  // measure 31
3100
0010
0100
1000
0002
0003
0101
0000
,  // measure 32
1010
0101
1010
1001
,  // measure 33
0001
0010
0100
0100
1000
0001
1000
0000
,  // measure 34
0010
0100
0001
0001
1000
0100
0020
0000
,  // measure 35
0130
1000
0010
0010
0100
0001
1001
0000
,  // measure 36
1001
0000
0110
0002
2000
3003
1100
0000
,  // measure 37
1100
0000
0110
0002
0100
0003
0101
0000
,  // measure 38
0101
0000
0110
2000
0100
3000
1000
0001
,  // measure 39
0100
0010
0100
0001
1000
0100
0010
0000
,  // measure 40
0010
0000
0110
2000
0000
3000
0010
0100
,  // measure 41
0001
0100
0010
2000
0100
3000
0100
0010
,  // measure 42
0001
0010
0100
2000
0010
3000
0010
0100
,  // measure 43
1000
0100
0010
0100
0001
0010
0100
0010
,  // measure 44
1000
0010
0100
1000
0001
0010
0110
0000
,  // measure 45
0100
1000
0020
0000
0130
0001
0010
0100
,  // measure 46
0100
1100
0100
0101
,  // measure 47
0001
1000
0020
0000
0130
0000
0001
0010
,  // measure 48
0020
0000
0230
0300
0200
0300
0110
0000
,  // measure 49
0001
0010
0100
0100
1000
0001
0010
0000
,  // measure 50
0100
1000
0001
0001
0010
0100
1000
0000
,  // measure 51
0010
0100
0001
0001
1000
0100
0010
0000
,  // measure 52
0010
0000
1010
0000
0011
0000
1000
0100
,  // measure 53
0001
0100
1000
0000
0011
0000
0001
0010
,  // measure 54
1000
0010
0001
0000
1100
0000
1000
0010
,  // measure 55
0100
0010
1000
0100
0010
0100
1000
0000
,  // measure 56
1000
0000
1001
0000
0101
0000
1000
0010
,  // measure 57
0001
0010
1000
0000
0101
0000
0001
0100
,  // measure 58
1000
0100
0001
0000
1010
0000
1000
0100
,  // measure 59
0010
0100
1000
0010
0100
0010
1000
0000
,  // measure 60
1000
0000
1001
0000
0001
0010
0100
1000
,  // measure 61
0100
0010
0001
0100
0010
1000
0001
0000
,  // measure 62
0021
0000
0130
0000
1000
0100
0010
0001
,  // measure 63
0010
0100
1000
0010
0100
0001
1000
0000
,  // measure 64
1200
0000
0310
0000
0001
0010
0100
1000
,  // measure 65
0100
1000
0001
0010
0001
0010
0001
0100
,  // measure 66
0001
0100
0010
1000
0100
0010
0002
0000
,  // measure 67
0013
0100
2000
0000
3010
0100
0002
0000
,  // measure 68
0013
0100
1000
0100
0010
0001
0011
0000
,  // measure 69
0100
0000
1100
0000
0101
0000
0100
0010
,  // measure 70
0100
0000
1100
0000
0001
1000
0020
0000
,  // measure 71
0130
0001
0010
0100
0010
0001
1000
0000
,  // measure 72
0010
0100
0001
1000
0010
0100
0010
0000
,  // measure 73
1000
0000
1100
0000
0101
0000
0001
0010
,  // measure 74
0001
2020
3030
0110
,  // measure 75
0110
0000
0001
0100
0010
1000
0100
0000
,  // measure 76
0110
0000
0001
0010
0100
1000
0020
0000
,  // measure 77
0030
0000
0110
0000
0001
0010
0100
1000
,  // measure 78
0000
1000
0100
0010
0001
0000
2000
0000
,  // measure 79
3010
0001
0010
1000
0001
0010
0001
0000
,  // measure 80
2100
0000
3010
0100
0001
0000
0022
0000
,  // measure 81
0033
0000
0000
0000
1100
0000
0000
0000
0010
0000
0001
0000
0100
0000
0000
0010
,  // measure 82
0000
0010
2000
0000
3001
0000
0110
0000
,  // measure 83
0110
0000
0001
0010
0100
1000
0010
0000
,  // measure 84
0110
0110
1100
0102
,  // measure 85
0000
0000
0000
0020
,  // measure 86
0000
0003
0000
0200
,  // measure 87
0000
0000
0030
0000
0000
0000
1300
0100
,  // measure 88
0020
0000
0031
0100
0020
0000
0030
0000
;

//---------------dance-single - ----------------
#NOTEDATA:;
#CHARTNAME:;
#STEPSTYPE:dance-single;
#DESCRIPTION:;
#CHARTSTYLE:;
#DIFFICULTY:Medium;
#METER:11;
#RADARVALUES:0.501984,0.626500,0.431393,0.376488,0.003922,448.000000,393.000000,55.000000,48.000000,0.000000,0.000000,0.000000,0.000000,0.000000,0.501984,0.626500,0.431393,0.376488,0.003922,448.000000,393.000000,55.000000,48.000000,0.000000,0.000000,0.000000,0.000000,0.000000;
#CREDIT:led_light;
#NOTES:
0000
0000
0000
0000
,
0000
0000
0000
0000
,
0000
0000
0000
0000
,
0000
0000
0000
0000
,
0000
0000
0000
0000
,
2000
0000
3100
0000
,
0002
0000
0103
0000
,
1000
0100
0001
0100
,
1000
0001
1000
0001
0010
0000
0010
0000
,
2001
0000
0100
0000
3010
0100
0002
0000
,
0010
0000
0013
0000
0100
1000
0001
0000
,
0100
0000
1001
0000
0010
1000
0002
0000
,
0103
0001
0100
0000
0010
1000
0010
0000
,
1000
0100
1000
0100
0010
0000
2100
0000
,
0010
0000
3010
0000
0100
0001
0010
0000
,
0100
1000
0001
1000
0010
1000
0010
0000
,
0100
0001
0100
0001
0010
0000
0110
0000
,
0200
0000
0000
0000
,
0000
0000
0000
0000
,
0000
0000
0000
0000
,
0300
0000
0000
0000
1000
0001
1000
0001
,
0200
0000
0310
0000
0000
0100
0001
0000
,
1000
0100
1000
0000
1000
0000
0001
0100
,
0001
0000
1000
0000
0100
0010
0100
0000
,
1000
0001
1000
0001
0100
0000
0010
1000
,
0001
0000
1000
0000
0001
0010
0001
0000
,
0010
0100
0010
0100
1000
0000
0001
0100
,
0001
0000
1000
0100
0001
0100
1000
0000
,
0001
0010
0001
0010
0100
1000
0010
0000
,
0120
0000
1030
0100
0010
0001
0010
0000
,
0110
0110
1001
0000
0100
0000
0110
0000
,
0001
0100
0001
0000
1000
0000
1100
0000
,
0001
1100
0001
0101
,
1000
0100
1000
0000
0001
0000
1010
0000
,
0001
0100
0001
0000
1000
0000
0011
0000
,
0100
1000
0001
0000
0010
0000
0110
0000
,
0110
2002
3003
0101
,
0101
2200
3300
0011
,
0011
0000
2020
0000
3030
0000
0001
0010
,
0001
0000
1000
0100
1000
0000
1001
0000
,
1001
0000
0220
0000
0330
0000
0001
0100
,
0010
0000
0020
0000
0030
0000
1000
0100
,
0010
0000
0020
0000
0030
0000
0001
0010
,
0100
0000
1000
0100
0010
0000
0100
1000
,
0100
1000
0001
0100
0010
1000
0002
0000
,
0103
0001
1000
0000
1100
0000
0010
0010
,
0010
0020
0130
1001
,
0010
1000
0001
0000
0011
0000
0100
0100
,
0200
0310
0010
0110
,
0001
0010
0001
0000
0001
0000
1100
0000
,
0001
0100
0001
0000
0001
0000
1010
0000
,
0100
0001
1000
0000
0001
0000
0011
0000
,
0100
0000
0011
0000
0100
0000
1000
0001
,
0100
0000
0100
0000
1001
0000
0001
1000
,
0100
0000
0100
0000
1001
0000
0001
0100
,
1000
0000
1000
0100
0001
0000
1000
0000
,
1000
0000
1100
0000
1001
0000
0001
1000
,
0010
0000
0010
0000
1001
0000
1000
0001
,
0010
0000
0010
0000
1001
0000
1000
0010
,
0001
0000
0001
0010
1000
0000
0001
0000
,
0001
0000
0011
0000
1001
0000
1000
0100
,
1000
0000
0010
0100
0010
0000
1000
0000
,
2001
0000
3200
0000
0310
0000
0001
0010
,
0001
0000
0100
0010
0100
0000
0001
0000
,
1002
0000
0023
0000
0130
0000
1000
0100
,
0010
0000
0100
1000
0010
0000
0100
0001
,
0020
0000
0130
0000
1000
0001
2000
0000
,
3001
0100
0002
0000
1003
0100
2000
0000
,
3001
0010
0100
1000
0010
0000
1002
0000
,
0103
0000
0110
0000
1100
0000
0100
0001
,
0100
1001
0100
2000
,
3010
0100
0001
0010
0100
0000
2000
0000
,
3001
0000
0100
0001
0020
0000
1030
0000
,
0010
0000
0011
0000
0001
0000
0100
0001
,
0100
2200
3300
0001
,
0001
0000
1000
0100
0010
0001
1000
0000
,
1000
0000
0001
0100
0010
1000
0002
0000
,
0003
0000
1001
0000
0001
0000
0010
0100
,
0000
0010
0100
0000
1000
0000
0002
0000
,
0103
0000
1001
0100
1000
0000
0020
0000
,
0230
0000
0301
1000
0010
0000
2000
0000
,
3000
0000
0000
0000
1001
0000
0000
0000
1000
0000
0000
0000
0100
0000
0000
0010
,
0000
0100
0020
0000
0031
0000
1000
0000
,
1000
0000
0001
0100
0010
1000
0002
0000
,
0103
1100
0100
0102
,
0000
0000
0000
2003
,
0000
0000
0000
3200
,
0000
0000
0000
0000
0000
0000
1300
0001
,
0200
0000
0310
1000
0002
0000
0003
0000
;

//---------------dance-single - ----------------
#NOTEDATA:;
#CHARTNAME:;
#STEPSTYPE:dance-single;
#DESCRIPTION:;
#CHARTSTYLE:;
#DIFFICULTY:Easy;
#METER:8;
#RADARVALUES:0.426911,0.522083,0.407862,0.439236,0.000000,381.000000,329.000000,52.000000,56.000000,0.000000,0.000000,0.000000,0.000000,0.000000,0.426911,0.522083,0.407862,0.439236,0.000000,381.000000,329.000000,52.000000,56.000000,0.000000,0.000000,0.000000,0.000000,0.000000;
#CREDIT:led_light;
#NOTES:
0000
0000
0000
0000
,
0000
0000
0000
0000
,
0000
0000
0000
0000
,
0000
0000
0000
0000
,
0000
0000
0000
0000
,
2000
0000
3100
0000
,
0002
0000
0103
0000
,
1000
0100
0001
0100
,
0010
0010
0010
0000
0200
0300
0200
0300
,
1001
0000
0100
0000
0100
1000
0010
0000
,
1000
0000
1000
0000
0001
0100
0001
0000
,
1000
0000
1000
0000
0100
0010
0001
0000
,
0010
0000
0010
0000
0001
0100
0010
0000
,
1000
0010
1000
0000
0001
0000
0101
0000
,
1000
0100
1000
0000
0001
0000
0001
0000
,
0010
0100
0010
0000
0001
0000
0001
0000
,
1000
1000
1000
0000
0020
0030
0020
0030
,
0220
0000
0000
0000
,
0000
0000
0000
0000
,
0000
0000
0000
0000
,
0330
0000
0002
2003
,
3020
0000
0130
0000
0000
0001
1000
0000
,
0100
0100
1000
0001
,
1100
0001
0100
0100
,
0001
1000
0001
0000
1000
0000
1000
0000
,
0101
0000
0001
0010
0001
0000
0001
0000
,
1000
0100
0010
0000
0001
0000
0100
0000
,
0001
0000
0001
0000
1000
0010
0100
0000
,
0001
0000
0001
0000
1000
0100
0010
0000
,
2002
0000
3003
0000
0100
0010
0100
0000
,
1001
0100
1001
0000
0100
0000
0020
0000
,
0031
1000
0100
0000
0110
0000
0001
0000
,
0001
1000
1000
0011
,
0100
0000
1000
0001
0010
0000
0100
0000
,
0100
0000
1000
0001
0100
0000
0020
0000
,
1030
2000
3001
1001
,
1001
0220
0330
0101
,
1000
0202
0303
1100
,
0001
2200
3300
0001
,
0010
1000
0010
0001
,
0001
2200
3300
0001
,
0010
2200
3300
1000
,
0010
0202
0303
1000
,
0100
0000
0001
0000
0100
0000
1000
0001
,
1000
0001
0100
0220
,
0330
1001
0100
0010
,
0010
0110
0001
0101
,
0000
1010
0002
0023
,
0230
0000
0320
0030
0020
0030
0000
0000
,
0001
0000
1000
0100
1000
0000
0010
0000
,
0100
0000
0001
0100
0001
0000
1000
0000
,
0100
0000
0010
0001
0010
0000
0100
0000
,
0100
1001
0100
1000
,
1000
1000
0110
0001
,
0001
0000
0001
0000
0110
0000
1000
0010
,
1000
0000
0001
0010
0001
0000
0010
0000
,
0010
1010
1001
0001
,
0001
0001
0110
1000
,
1000
0000
1000
0000
0110
0000
0001
0100
,
0001
0000
1000
0100
1000
0000
0100
0000
,
0100
0000
0101
0000
1001
0000
0001
0010
,
0100
0000
1000
0100
0010
0000
0001
0000
,
0110
0000
0001
0000
0001
0000
1000
0100
,
0010
0000
0001
0010
0100
0000
1000
0000
,
0110
0000
1000
0000
1000
0000
0001
0100
,
0010
0000
1000
0010
0100
0000
0001
0000
,
1001
0000
0010
0000
1000
0100
1000
0000
,
0001
0010
0001
0000
0100
0010
0200
0000
,
0000
0300
0100
1001
,
0100
0110
0100
0100
,
0100
1001
0100
2000
,
3100
0002
0103
2000
,
3010
0001
0002
0013
,
1000
1100
0100
0001
,
0001
0022
0033
1000
,
1000
0000
0001
0100
0001
0000
0010
0000
,
0010
0000
0100
1000
0001
0000
0220
0000
,
0000
0330
0001
0110
,
0000
1100
0001
0202
,
0303
0101
1000
0001
,
0002
1003
0100
0220
,
0330
0110
0001
1100
,
0000
1100
0001
0010
,
0010
0000
0001
0100
0010
0000
2000
0000
,
3100
0100
0100
0210
,
0000
0000
0000
2300
,
0000
0000
0000
3020
,
0000
0000
0000
0130
,
0200
0302
2003
3000
;

//---------------dance-single - ----------------
#NOTEDATA:;
#CHARTNAME:;
#STEPSTYPE:dance-single;
#DESCRIPTION:;
#CHARTSTYLE:;
#DIFFICULTY:Beginner;
#METER:4;
#RADARVALUES:0.199449,0.312368,0.094122,0.180401,0.000000,178.000000,166.000000,12.000000,23.000000,0.000000,0.000000,0.000000,0.000000,0.000000,0.199449,0.312368,0.094122,0.180401,0.000000,178.000000,166.000000,12.000000,23.000000,0.000000,0.000000,0.000000,0.000000,0.000000;
#CREDIT:led_light;
#NOTES:
0000
0000
0000
0000
,
0000
0000
0000
0000
,
0000
0000
0000
0000
,
0000
0000
0000
0000
,
0000
0000
0000
0000
,
2000
0000
3000
0000
,
0002
0000
0003
0000
,
1000
0000
0001
0000
,
0010
0010
0020
0030
,
0110
0000
0100
0000
,
0100
0000
0010
0000
,
0001
0000
0001
0000
,
1000
0000
1000
0000
,
0010
0000
0001
0000
,
0010
0000
1000
0000
,
0100
0000
0001
0000
,
1000
1000
1000
0000
,
0020
0000
0000
0000
,
0000
0000
0000
0000
,
0000
0000
0000
0000
,
0030
0000
0000
0000
,
0002
0003
0000
0000
,
1000
1000
1000
0000
,
0001
0000
1000
0000
,
0010
0010
0010
0000
,
1000
0000
0001
0000
,
0010
0010
0010
0000
,
0100
0000
1000
0000
,
0002
0000
0000
0003
,
2002
0000
3003
0000
,
0100
0110
0000
0010
,
0000
1000
0000
0001
,
0001
0001
0000
1000
,
0000
1000
0000
0100
,
0000
0100
0000
0001
,
0000
0001
0000
0010
,
0010
0010
0000
1000
,
1000
1000
0000
0001
,
0001
0001
0000
1000
,
0000
0001
0000
1000
,
0000
1001
0000
0010
,
0000
0010
0000
0100
,
0000
0100
0000
1000
,
0000
0001
0000
0010
,
0000
0100
0000
2000
,
0000
0000
3000
1000
,
1000
1000
0000
0002
,
0000
0000
0003
0001
,
0001
0001
0000
1000
,
0000
0100
0000
0001
,
0000
0100
0000
1000
,
0000
0001
0000
0100
,
0000
0100
0000
0010
,
0010
0010
0000
0010
,
0010
0010
0000
1000
,
0000
0001
0000
1000
,
0000
0001
0000
0010
,
0010
0010
0000
0010
,
0010
0010
0000
0001
,
0000
1000
0000
0001
,
0000
1001
0000
0001
,
0001
0001
0000
0020
,
0000
0030
0000
1000
,
1000
1000
0000
0200
,
0000
0300
0000
0001
,
0001
0001
0000
1000
,
1000
1000
0000
1001
,
0000
0110
0000
2002
,
0000
3003
0000
1001
,
0000
0100
0000
0100
,
0100
0100
0000
1000
,
0000
0001
0000
0010
,
0000
1000
0000
0100
,
0000
0100
0000
0010
,
0010
0010
0000
0001
,
0000
1000
0000
0001
,
0000
1000
0000
0220
,
0000
0330
0000
0001
,
0000
1000
0000
0220
,
0000
0330
0000
0010
,
0000
0100
0000
2002
,
0000
3003
0000
0001
,
0000
1000
0000
0010
,
0010
0010
0000
0100
,
0100
0100
0000
0200
,
0000
0000
0000
0000
,
0000
0300
0000
0020
,
0000
0000
0000
0030
,
0000
0200
0300
0000
;

//---------------dance-double - ----------------
#NOTEDATA:;
#CHARTNAME:;
#STEPSTYPE:dance-double;
#DESCRIPTION:;
#CHARTSTYLE:;
#DIFFICULTY:Hard;
#METER:13;
#RADARVALUES:0.605070,0.696111,0.501984,0.392175,0.031374,540.000000,476.000000,64.000000,50.000000,0.000000,0.000000,0.000000,0.000000,0.000000,0.605070,0.696111,0.501984,0.392175,0.031374,540.000000,476.000000,64.000000,50.000000,0.000000,0.000000,0.000000,0.000000,0.000000;
#CREDIT:led_light;
#NOTES:
00000000
00000000
00000000
00000000
,
00000000
00000000
00000000
00000000
,
00000000
00000000
00000000
00000000
,
00000000
00000000
00000000
00000000
,
00000000
00000000
00000000
00000000
,
00200000
00000000
01300000
00000000
,
00000020
00000000
00000130
00000000
,
00100000
01000000
00010000
00001000
,
00000010
00000010
00000010
00000010
00000200
00000300
00000200
00000300
,
00000101
00000000
00001010
00000000
00000001
00000010
00001000
00010000
,
01000000
10000000
00010000
00000000
01010000
10000000
00100000
01000000
,
00001000
00010000
00001000
00000000
00110000
00100000
01000000
10000000
,
00100000
00010000
00100000
00000000
10100000
10000000
01000000
00100000
,
00001000
00010000
00001000
00010000
00011000
00000010
00001000
00000001
,
00000010
00001000
00000010
00000000
00000011
00000001
00000100
00000010
,
00001000
00000000
00000001
00000010
00000100
00000000
00000010
00000000
00001000
00000000
00010000
00000000
00100000
00000000
10000000
00000000
,
01000000
00000000
01000000
00000000
01000000
00000000
01000000
00000000
00100000
00010000
00000000
00000000
00000010
00001000
00000000
00000000
,
00020200
00000000
00000000
00000000
,
00000000
00000000
00000000
00000000
,
00000000
00000000
00000000
00000000
,
00030300
00000000
00000000
00000000
00000000
00000000
00000000
00000000
00001000
00010000
00000010
00001000
00000001
00000100
00000010
00001000
,
00000200
00000000
00000310
00000000
00000000
00001000
00010000
00001000
,
00100000
00010000
01000000
00100000
10000000
00000000
01000000
00100000
,
00010000
00000000
00010000
00000000
10000000
01000000
10000000
00100000
,
01000000
00010000
00100000
00001000
00010000
00000000
00000100
00010000
,
00001000
00000000
00010000
00001000
00000100
00000010
00001000
00000100
,
00000010
00000001
00000010
00000100
00001000
00000000
00000001
00000100
,
00000010
00000000
00000100
00000001
00000010
00000100
00001000
00000000
,
00000020
00000100
00000100
00000130
00001000
00010000
01000000
10000000
,
20010000
00000000
30100000
01000000
00100000
00010000
00001000
00000100
,
00000110
00000110
00001001
00000001
00000010
00000100
00001000
00000000
,
00010000
01000000
00100000
10000000
00010000
00000000
00011000
00000000
,
10010000
00011000
10010000
11000000
,
01000000
00100000
00010000
00100000
01000000
00010000
00001000
00000000
,
00000100
00000010
00000001
00000010
00000100
00001000
00020000
00000000
,
01030000
10000000
00010000
00100000
01000000
10000000
00010000
00000000
,
00010000
00000000
01100000
00020000
00000000
00030000
00011000
00000000
,
00011000
00000000
00001010
00000002
00000010
00000003
00000110
00000000
,
00000110
00000000
00001100
00020000
00001000
00030000
00010000
00000010
,
00010000
00001000
00100000
00010000
10000000
01000000
00100000
00000000
,
00100000
00000000
10010000
02000000
00000000
03000000
10000000
00100000
,
01000000
00010000
00001000
00000010
00001000
00000000
00000001
00000010
,
00000100
00001000
00010000
00100000
00010000
00000000
10000000
01000000
,
00010000
01000000
10000000
00010000
01000000
00001000
00100000
00010000
,
00010000
00010000
00100000
00001000
00010000
00001000
00021000
00000000
,
00031000
00000200
00000010
00000000
00000310
00001000
00000001
00000010
,
00000010
00000101
00001000
00010100
,
00010000
01000000
00020000
00000000
00031000
00000000
00100000
00010000
,
20000000
00000000
30200000
00300000
00200000
00300000
01100000
00000000
,
00010000
10000000
01000000
00010000
00001000
00000100
00000010
00000000
,
00001000
00000001
00000010
00001000
00010000
00100000
01000000
00000000
,
00010000
10000000
00100000
01000000
00001000
00010000
00000200
00000300
,
00000200
00000300
00011000
00000000
00001010
00000000
00000001
00000010
,
00000100
00000010
00000001
00000000
00001100
00000000
00010000
00001000
,
00000010
00001000
00010000
00000000
00110000
00000000
10000000
01000000
,
00100000
01000000
10000000
00010000
00100000
01000000
00010000
00000000
,
00010000
00000000
01100000
00000000
10010000
00000000
10000000
00100000
,
01000000
00100000
10000000
00000000
01010000
00000000
00001000
00010000
,
00100000
00010000
00001000
00000000
00001010
00000000
00000001
00000100
,
00000010
00000100
00000001
00001000
00000010
00000100
00001000
00000000
,
00001000
00000000
00000110
00000000
00001001
00000000
00000001
00000010
,
00000001
00001000
00000100
00001000
00000010
00000100
00000001
00000000
,
00000021
00000000
00000230
00000000
00010300
00000000
00001000
00100000
,
00001000
00010000
01000000
00010000
00001000
00100000
00010000
00000000
,
02100000
00000000
23000000
00000000
30010000
00000000
10000000
00100000
,
10000000
00100000
01000000
00010000
01000000
00010000
00001000
00000100
,
00001000
00000100
00000010
00000001
00001000
00000100
00020000
00000000
,
00030010
00000100
00002000
00000000
00013000
00000100
00000020
00000000
,
00001030
00010000
00100000
10000000
01000000
00010000
00021000
00000000
,
00030100
00000000
00001100
00000000
00010100
00000000
01000000
00001000
,
01000000
00000000
01010000
00000000
00010000
10000000
02000000
00000000
,
13000000
00010000
00100000
00001000
00010000
00100000
00020000
00000000
,
00031000
00010000
01000000
00010000
00002000
00003020
00000031
00000000
,
00001000
00000000
00011000
00000000
00011000
00000000
00100000
10000000
,
01000000
20020000
30030000
00110000
,
00110000
00000000
00001000
00010000
00000010
00001000
00001010
00000000
,
00001010
00000000
00000001
00000100
00000010
00001000
00002200
00000000
,
00003300
00000000
00000120
00000000
00000031
00000010
00001000
00010000
,
00000000
00001000
00010000
01000000
10000000
00000000
10020000
00000000
,
00130000
01000000
10000000
01000000
00010000
00001000
00010000
00000000
,
00012000
00000000
00013000
00100000
10000000
00000000
00220000
00000000
,
00330000
00000000
00000000
00000000
02100000
00000000
00000000
00000000
13000000
00000000
00100000
00000000
00010000
00000000
00000000
00001000
,
00000000
00001000
00000200
00000000
00000301
00000000
00001100
00000000
,
00001100
00000000
00010000
00001000
01000000
00010000
00100000
00000000
,
01010000
00010100
01010000
00010200
,
00000000
00000000
00000000
00000320
,
00000000
00000000
00000000
00002030
,
00000000
00000000
00000000
00000000
00000000
00000000
00013000
01000000
,
00020000
00000000
00031000
00000100
00000002
00000000
00000003
00000000
;

//---------------dance-double - ----------------
#NOTEDATA:;
#CHARTNAME:;
#STEPSTYPE:dance-double;
#DESCRIPTION:;
#CHARTSTYLE:;
#DIFFICULTY:Medium;
#METER:11;
#RADARVALUES:0.479574,0.522083,0.470610,0.321584,0.003922,428.000000,368.000000,60.000000,41.000000,0.000000,0.000000,0.000000,0.000000,0.000000,0.479574,0.522083,0.470610,0.321584,0.003922,428.000000,368.000000,60.000000,41.000000,0.000000,0.000000,0.000000,0.000000,0.000000;
#CREDIT:led_light;
#NOTES:
00000000
00000000
00000000
00000000
,
00000000
00000000
00000000
00000000
,
00000000
00000000
00000000
00000000
,
00000000
00000000
00000000
00000000
,
00000000
00000000
00000000
00000000
,
00020000
00000000
01030000
00000000
,
00002000
00000000
00003100
00000000
,
00010000
01000000
10000000
00100000
,
00010000
00001000
00010000
00001000
00020000
00030000
00010000
00000000
,
00011000
00000000
00011000
00000000
00000100
00001000
00000010
00000000
,
00000100
00000000
00000110
00000000
00000001
00000010
00001000
00000000
,
00010000
00000000
00011000
00000000
00010000
00100000
10000000
00000000
,
00010000
00000000
10010000
00000000
10000000
01000000
00100000
00000000
,
01000000
10000000
01000000
10000000
00010000
00000000
00011000
00000000
,
00100000
00000000
00100000
00000000
00010000
01000000
00100000
00000000
,
10000000
01000000
10000000
01000000
00010000
00001000
00000010
00000000
,
00001000
00010000
00001000
00010000
00000010
00000000
00001001
00000000
,
00000200
00000000
00000000
00000000
,
00000000
00000000
00000000
00000000
,
00000000
00000000
00000000
00000000
,
00000300
00000000
00000000
00000000
00001000
00000001
00001000
00000001
,
00000020
00000000
00000130
00000000
00000000
00010000
00001000
00000000
,
00100000
00010000
00100000
00000000
00001000
00000000
00010000
00000000
,
00001010
00000000
00000100
00000000
00001000
00010000
00001000
00000000
,
00100000
00010000
00100000
00000000
01000000
00000000
01000000
00000000
,
10010000
00000000
01000000
00000000
10000000
00100000
10000000
00000000
,
00100000
00010000
00001000
00010000
00001000
00000000
00100000
00000000
,
00110000
00000000
00001000
00000000
00001000
00010000
00001000
00000000
,
00000100
00000001
00000100
00000001
00001000
00000000
00000010
00000000
,
00000110
00000000
00000001
00001000
00000001
00000000
00000010
00000000
,
00001100
00000001
00001100
00000000
00010000
00000000
00001001
00000000
,
00000001
00000100
00000010
00000000
00010000
00000000
00011000
00000000
,
00000100
00011000
00000100
00011000
,
00010000
01000000
10000000
00000000
01000000
00000000
01100000
00000000
,
10000000
00100000
10000000
00000000
00100000
00000000
01010000
00000000
,
00001000
00010000
00001000
00000000
00010000
00000000
00011000
00000000
,
00011000
00000220
00000330
00001001
,
00001100
00022000
00033000
00011000
,
00110000
00000000
20020000
00000000
30030000
00000000
10000000
01000000
,
10000000
00000000
00100000
01000000
00100000
00000000
00010000
00000000
,
00010000
00000000
00022000
00000000
00033000
00000000
00100000
10000000
,
00100000
00000000
00002000
00000000
00003000
00000000
00010000
00100000
,
00010000
00000000
00002000
00000000
00003000
00000000
00100000
01000000
,
10000000
00000000
00100000
01000000
00010000
00000000
00100000
01000000
,
00100000
00001000
00000100
00000220
,
00000330
00000000
00000110
00000000
00000001
00000000
00001000
00000010
,
00001000
00000011
00000010
00001010
,
00001000
00000100
00000020
00000000
00000031
00000000
00001000
00000100
,
00020000
00000000
00032000
00003000
00002000
00003000
00011000
00000000
,
00001000
00000000
00100000
01000000
10000000
00000000
00010000
00000000
,
10010000
00000000
01000000
00100000
10000000
00000000
00010000
00000000
,
01010000
00000000
00100000
10000000
00010000
00000000
10000000
00000000
,
10000000
00000000
01100000
00000000
00010000
00000000
10000000
01000000
,
10000000
00000000
10000000
00000000
00110000
00000000
00001000
00010000
,
00001000
00000000
00001000
00000000
00010010
00000000
00001000
00000010
,
00001000
00000010
00000010
00000100
,
00000001
00000000
00001001
00000000
00001100
00000000
00000001
00000010
,
00000001
00000000
00000001
00000000
00001100
00000000
00010000
00001000
,
00010000
00000000
00010000
00000000
01001000
00000000
00010000
01000000
,
00010000
01000000
01000000
00100000
,
10000000
00000000
10010000
00000000
00110000
00000000
01000000
10000000
,
01000000
00000000
00100000
00010000
00100000
00000000
00001000
00000000
,
00021000
00000000
00000010
00000000
00030010
00000000
00000100
00000001
,
00000100
00000000
00000010
00001000
00000010
00000000
00010000
00000000
,
00012000
00000000
00100000
00000000
00103000
00000000
00010000
00100000
,
01000000
00000000
10000000
01000000
00100000
00000000
00001000
00010000
,
00001000
00000000
00000100
00000000
00000010
00001000
00000001
00000000
,
00000010
00000100
00010000
00000000
00001000
00000100
00000002
00000000
,
00000000
00000013
00000100
00001001
,
00000100
00000000
00001001
00000000
00000010
00000000
00010000
00001000
,
00010000
00001100
00000001
00000020
,
00001030
00000000
00000010
00000001
00000010
00000000
00000020
00000000
,
00001030
00010000
00020000
00130000
,
10000000
00000000
11000000
00000000
01000000
00000000
00010000
00001000
,
00010000
00220000
00330000
00000010
,
00001010
00000000
00010000
00000100
00001000
00000000
01000000
00000000
,
01010000
00000000
00001000
00100000
00010000
00000000
00202000
00000000
,
00000000
00000000
00303000
00000000
00001000
00000000
00010000
00000100
,
00000000
00010000
00001000
00000000
00000100
00000000
00000020
00000000
,
00000130
00000000
00000100
00000001
00000010
00000000
00001000
00000000
,
00020000
00000000
00031000
00010000
01000000
00000000
20020000
00000000
,
00000000
00000000
00000000
00000000
30030000
00000000
00000000
00000000
01000000
00000000
00000000
00000000
10000000
00000000
00000000
00100000
,
00000000
00010000
00002000
00000000
00013000
00000000
00011000
00000000
,
00011000
00000000
00000010
00001000
00000100
00000000
00000010
00000000
,
00000100
00001100
01000000
02010000
,
00000000
00000000
00000000
03200000
,
00000000
00000000
00000000
20300000
,
00000000
00000000
00000000
00000000
00000000
00000000
31000000
00010000
,
00002000
00000000
00013000
01000000
20000000
00000000
30000000
00000000
;

//---------------dance-double - ----------------
#NOTEDATA:;
#CHARTNAME:;
#STEPSTYPE:dance-double;
#DESCRIPTION:;
#CHARTSTYLE:;
#DIFFICULTY:Easy;
#METER:9;
#RADARVALUES:0.421308,0.487278,0.439236,0.415706,0.000000,376.000000,320.000000,56.000000,53.000000,0.000000,0.000000,0.000000,0.000000,0.000000,0.421308,0.487278,0.439236,0.415706,0.000000,376.000000,320.000000,56.000000,53.000000,0.000000,0.000000,0.000000,0.000000,0.000000;
#CREDIT:led_light;
#NOTES:
00000000
00000000
00000000
00000000
,
00000000
00000000
00000000
00000000
,
00000000
00000000
00000000
00000000
,
00000000
00000000
00000000
00000000
,
00000000
00000000
00000000
00000000
,
00020000
00000000
00031000
00000000
,
00002000
00000000
00013000
00000000
,
00010000
01000000
00010000
00001000
,
00000100
00000100
00000100
00000000
00000020
00000030
00000020
00000030
,
00001001
00000100
00000100
00001001
,
00000001
00000000
00000010
00000000
00000100
00010000
00001000
00000000
,
00010000
00010000
01000000
10010000
,
00100000
00000000
00100000
00000000
10000000
01000000
00100000
00000000
,
00001000
00010000
00001000
00000000
00100000
00000000
10010000
00000000
,
00100000
00000000
00100000
00000000
01000000
00001000
00010000
00000000
,
00001000
00010000
00000100
00000000
00001000
00000100
00000010
00000000
,
00000001
00000001
00000001
00000000
00002000
00003000
00002000
00003000
,
00022000
00000000
00000000
00000000
,
00000000
00000000
00000000
00000000
,
00000000
00000000
00000000
00000000
,
00033000
00000000
00200000
02300000
,
23000000
00000000
30010000
00000000
00000000
10000000
01000000
00000000
,
10000000
10000000
00100000
10000000
,
10010000
01000000
00100000
00100000
,
00001000
00010000
00001000
00000000
00010000
00000000
00010000
00000000
,
00011000
00000010
00001000
00001000
,
00000100
00000010
00000100
00000000
00001000
00000000
00001000
00000000
,
00000001
00000001
00000100
00001001
,
00000001
00000010
00000001
00000000
00000010
00000000
00000100
00000000
,
00000220
00000330
00001001
00000100
,
00011000
00100000
00011000
00000000
00000010
00000000
00001001
00000000
,
00000001
00000010
00002000
00013000
,
00010000
00001000
00001000
00010000
,
01000000
10000000
10010000
10000000
,
00100000
00010000
00011000
00001000
,
00000010
00000001
00001001
00000010
,
00000010
00000220
00000330
00001000
,
00001000
00020020
00030030
00001000
,
00001000
00020200
00030300
00001000
,
00001000
00010000
00010000
00100000
,
00100000
02200000
03300000
10000000
,
01000000
00220000
00330000
00001000
,
00010000
02200000
03300000
10000000
,
10000000
00010000
00010000
00001000
,
00010000
00010000
00001000
00022000
,
00033000
00011000
00000010
00000001
,
00000001
00000110
00000001
00001001
,
00000000
00000110
00000001
00001000
,
00001000
00000000
00020000
00030000
00020000
00030000
00011000
00000000
,
00001000
00000000
00100000
00010000
00100000
00000000
00001000
00000000
,
00011000
00000000
00010000
00000010
00010000
00000000
00001000
00000000
,
00011000
00000000
00010000
01000000
00010000
00000000
01000000
00000000
,
01000000
10010000
01000000
10000000
,
10000000
10000000
01100000
00010000
,
00010000
00000000
00010000
00000000
00011000
00000000
00000010
00001000
,
00000010
00000000
00010000
00001000
00010000
00000000
00000100
00000000
,
00000100
00000110
00001001
00000001
,
00000001
00000001
00000110
00001000
,
00001000
00000000
00001000
00000000
00011000
00000000
01000000
00010000
,
01000000
00000000
00001000
00010000
00001000
00000000
00100000
00000000
,
00100000
00000000
01100000
00000000
10010000
00000000
10000000
01000000
,
00100000
00000000
00010000
01000000
00100000
00000000
00010000
00000000
,
00022000
00000000
00033000
00000000
00011000
00000000
00010000
00001000
,
00000010
00000000
00000100
00001000
00000010
00000000
00000100
00000000
,
00000220
00000000
00000330
00000000
00000110
00000000
00000001
00000010
,
00000100
00000000
00001000
00000010
00000100
00000000
00001000
00000000
,
00022000
00000000
00033000
00000000
00010000
00001000
00010000
00000000
,
01000000
10000000
01000000
00000000
00100000
00010000
00200000
00000000
,
00000000
00300000
00100000
00011000
,
01000000
01010000
01000000
00000100
,
00000100
00001100
00000001
00002000
,
00003010
00000000
00000100
00000010
00001000
00000000
00000001
00000000
,
00000001
00000000
00000010
00001000
00020000
00000000
00031000
00000000
,
00000100
00000000
00001001
00000000
00000001
00000000
00000010
00000100
,
00000010
00000220
00000330
00000001
,
00000001
00000000
00000100
00001000
00010000
00000000
00001000
00000000
,
00001000
00000000
00010000
01000000
10000000
00000000
20020000
00000000
,
00000000
30030000
01000000
01100000
,
00000000
10010000
00010000
00022000
,
00000000
00033000
00001000
00000001
,
00000001
00000100
00000010
00000220
,
00000000
00000330
00000001
00001010
,
00000000
00001010
00000100
00000001
,
00000001
00000000
00000010
00001000
00010000
00000000
00100000
00000000
,
01000000
01000000
00000100
00000200
,
00000000
00000000
00000000
00000320
,
00000000
00000000
00000000
00002030
,
00000000
00000000
00000000
00013000
,
02000000
23000000
30020000
00030000
;
