#VERSION:0.83;
#TITLE:PINK LABEL;
#SUBTITLE:;
#ARTIST:laysha;
#TITLETRANSLIT:;
#SUBTITLETRANSLIT:;
#ARTISTTRANSLIT:;
#GENRE:K-Pop;
#ORIGIN:;
#CREDIT:;
#BANNER:PINK LABEL.png;
#BACKGROUND:PINK LABEL-bg.png;
#PREVIEWVID:;
#JACKET:PINK LABEL-jacket.png;
#CDIMAGE:;
#DISCIMAGE:;
#LYRICSPATH:;
#CDTITLE:../cdtitle.png;
#MUSIC:PINK LABEL.ogg;
#OFFSET:1.973000;
#SAMPLESTART:52.821999;
#SAMPLELENGTH:15.000000;
#SELECTABLE:YES;
#DISPLAYBPM:105.000000:132.000000;
#BPMS:0.000=105.000,
64.000=129.000,
68.000=132.000,
207.000=113.000,
210.000=100.000,
211.000=110.500,
212.000=105.000;
#STOPS:;
#DELAYS:;
#WARPS:;
#TIMESIGNATURES:0.000=4=4;
#TICKCOUNTS:0.000=4;
#COMBOS:0.000=1;
#SPEEDS:0.000=1.000=0.000=0;
#SCROLLS:0.000=1.000;
#FAKES:;
#LABELS:0.000=Song Start;
#BGCHANGES:2.000=PINK LABEL.avi=1.000=0=0=0=StretchNoLoop==CrossFade_Fastest==,
99999=-nosongbg-=1.000=0=0=0 // don't automatically add -songbackground-
;
#KEYSOUNDS:;
#ATTACKS:
;

//---------------dance-single - ----------------
#NOTEDATA:;
#CHARTNAME:;
#STEPSTYPE:dance-single;
#DESCRIPTION:;
#CHARTSTYLE:;
#DIFFICULTY:Beginner;
#METER:3;
#RADARVALUES:0.134400,0.170519,0.016800,0.067200,0.000000,112.000000,110.000000,2.000000,8.000000,0.000000,0.000000,0.000000,0.000000,0.000000,0.134400,0.170519,0.016800,0.067200,0.000000,112.000000,110.000000,2.000000,8.000000,0.000000,0.000000,0.000000,0.000000,0.000000;
#CREDIT:led_light;
#DISPLAYBPM:105.000000:132.000000;
#NOTES:
0000
0000
0000
0000
,
0000
0000
0000
0000
,
0000
0000
0000
0000
,
0000
0000
0000
0000
,
0000
0000
0000
0000
,
0110
0000
0000
0000
,
0010
0000
0000
0000
,
0100
0000
0000
0000
,
0010
0000
0000
0000
,
0001
0000
0001
0000
,
1000
0000
1000
0000
,
0001
0000
0000
0000
,
1000
0000
1000
0000
,
0020
0000
0000
0030
,
0002
0000
0000
0003
,
0200
0000
0000
0300
,
2000
0000
0000
0000
,
3000
0000
0000
0000
,
0001
0000
1000
0000
,
0010
0010
0010
0000
,
0001
0000
0010
0000
,
1000
1000
1000
0000
,
0001
0001
0001
0000
,
0001
0001
0001
0000
,
0010
0000
0100
0000
,
0020
0000
0030
0000
,
0010
0000
0100
0000
,
0010
0010
0010
0000
,
0001
0000
1000
0000
,
0001
0001
0001
0000
,
0100
0000
0010
0000
,
0100
0100
0100
0000
,
0001
0000
1000
0000
,
0001
0001
0002
0003
,
1000
1000
1000
0000
,
0100
0100
0100
0000
,
0001
0001
0001
0000
,
1000
1000
1000
0000
,
0010
0010
0010
0000
,
0001
0001
0001
0000
,
1000
1000
1000
0000
,
0010
0010
0010
0000
,
0100
0000
0000
0000
,
0002
0000
0003
0000
,
0010
0000
0100
0000
,
0010
0010
0010
0000
,
0001
0000
1000
0000
,
0001
0001
0001
0000
,
0100
0000
0010
0000
,
0100
0100
0100
0000
,
0001
0000
1000
0000
,
0001
0001
0001
0000
,
0020
0000
0000
0000
,
0030
0000
0000
0000
,
1000
0000
0001
0000
,
1000
0000
0001
0000
,
0100
0000
0010
0000
,
0100
0000
0010
0000
,
1001
0000
0000
0000
;

//---------------dance-single - ----------------
#NOTEDATA:;
#CHARTNAME:;
#STEPSTYPE:dance-single;
#DESCRIPTION:;
#CHARTSTYLE:;
#DIFFICULTY:Easy;
#METER:6;
#RADARVALUES:0.313199,0.438479,0.646798,0.335999,0.000000,261.000000,184.000000,77.000000,40.000000,0.000000,0.000000,0.000000,0.000000,0.000000,0.313199,0.438479,0.646798,0.335999,0.000000,261.000000,184.000000,77.000000,40.000000,0.000000,0.000000,0.000000,0.000000,0.000000;
#CREDIT:led_light;
#DISPLAYBPM:105.000000:132.000000;
#NOTES:
0000
0000
0000
0000
,
0000
0000
0000
0000
,
0000
0000
0000
0000
,
0000
0000
0000
0000
,
0000
0000
0000
0000
,
0110
0001
1000
0001
,
0100
0010
0020
0030
,
1000
0100
0010
0001
,
1000
0001
0002
0003
,
0001
0100
1000
1001
,
0001
0010
1000
1001
,
0010
0020
0030
0110
,
2000
3010
0002
0013
,
2000
0000
0000
3100
,
0002
0000
0000
0103
,
2000
0000
0000
0000
,
0002
0000
0000
0000
,
3003
0000
0000
0000
,
1001
0101
1010
1010
,
1001
0011
1100
1001
,
1000
0010
0001
0001
,
0010
1000
0001
0010
,
0100
0100
0100
0011
,
0100
0100
0100
1010
,
1002
0103
2001
3100
,
0120
0000
0000
0030
,
0110
0101
0110
1001
,
1010
0011
0110
1001
,
1020
0130
0021
0130
,
0010
0100
0010
1001
,
0110
0011
0110
1001
,
1100
0101
0110
1001
,
1200
0310
0201
0310
,
1002
0100
0020
0033
,
0210
0001
0010
1300
,
2100
0001
0010
3010
,
0210
1000
0010
0301
,
0102
1000
0010
0013
,
0120
1000
0100
0031
,
0012
1000
0100
0103
,
0120
0001
0100
1030
,
2010
0001
0100
3100
,
0220
0000
0000
0300
,
0002
0030
2000
3003
,
0110
1100
0110
1001
,
0011
1010
0110
1001
,
0021
0130
1020
0130
,
0010
0100
0010
1001
,
0110
1010
0110
1001
,
0101
1100
0110
1001
,
0201
0310
1200
0310
,
2001
0100
3020
0230
,
0002
0300
2000
3003
,
1100
1001
0110
1010
,
1001
0100
0000
0100
,
1000
0001
2000
3000
,
0110
0001
0000
0001
,
1000
0100
0010
0000
0100
1000
0010
0000
,
0011
0000
0000
0000
;

//---------------dance-single - ----------------
#NOTEDATA:;
#CHARTNAME:;
#STEPSTYPE:dance-single;
#DESCRIPTION:;
#CHARTSTYLE:;
#DIFFICULTY:Medium;
#METER:9;
#RADARVALUES:0.369599,0.414119,0.260399,0.218399,0.008400,308.000000,277.000000,31.000000,26.000000,0.000000,0.000000,0.000000,0.000000,0.000000,0.369599,0.414119,0.260399,0.218399,0.008400,308.000000,277.000000,31.000000,26.000000,0.000000,0.000000,0.000000,0.000000,0.000000;
#CREDIT:led_light;
#DISPLAYBPM:105.000000:132.000000;
#NOTES:
0000
0000
0000
0000
,
0000
0000
0000
0000
,
0000
0000
0000
0000
,
0000
0000
0000
0000
,
0000
0000
0000
0000
,
1001
0000
0010
0100
0010
0000
0010
0000
,
1000
0000
0001
0100
0001
0000
1001
0000
,
0001
0000
0010
0100
0010
0000
0001
0000
,
1000
0000
0010
0100
0010
0000
1001
0000
,
0001
0100
0010
1000
0100
0000
0110
0000
,
0001
0010
0100
1000
0010
0000
0110
0000
,
0001
1000
0002
0000
0000
0000
0003
0000
,
2000
3020
0032
0203
,
2300
0000
0000
0001
0000
0000
0002
0000
0000
0000
0000
0000
3003
0000
0000
0000
,
0002
0000
0000
1000
0000
0000
2000
0000
0000
0000
0000
0000
3003
0000
0000
0000
,
0200
0000
0000
0000
,
0020
0000
0000
0000
,
0330
0000
0000
0000
,
1002
0000
0100
0003
1000
0100
1000
0000
,
0010
0001
0010
1000
0100
0001
0100
0000
,
1000
0001
1000
0010
0100
0010
1000
0000
,
0001
0010
0100
1000
0010
0100
0020
0000
,
0031
0010
1000
0100
0001
0000
0110
0010
,
1000
0010
0001
0100
1000
0000
0110
0000
,
0010
0001
0010
1000
0002
0000
0013
0000
,
2200
0000
0000
3300
,
0101
0000
1010
0000
0001
0010
0100
0000
,
0001
0100
0010
0001
0100
0010
1000
0000
,
1000
0100
1000
0000
0001
0100
0001
0000
,
1000
0100
0001
0100
1000
0000
1001
0000
,
1010
0000
0101
0000
1000
0100
0010
0000
,
1000
0010
0100
1000
0001
0100
0010
0000
,
1000
0010
1000
0100
0001
0100
0010
0000
,
0100
1000
0001
0000
0100
0010
2000
0000
,
3100
0010
0100
0010
0001
0000
1001
0000
,
0001
0100
0010
1000
0200
0000
0310
0000
,
0100
1000
0010
1000
0010
0000
0110
0000
,
0001
0010
0100
0010
0001
0000
1000
0000
,
0010
0100
0010
0100
0001
0000
1001
0000
,
0001
0010
0100
1000
0020
0000
0130
0000
,
0010
1000
0100
1000
0100
0000
0110
0000
,
0001
0100
0010
0100
0001
0000
1000
0000
,
2200
0000
0000
0300
,
0002
3000
0200
0303
,
0101
0000
1010
0000
0001
0010
0100
0000
,
0001
0100
0010
0001
0100
0010
1000
0000
,
1000
0100
1000
0000
0001
0100
0001
0000
,
1000
0100
0001
0100
1000
0000
1001
0000
,
1010
0000
0101
0000
1000
0100
0010
0000
,
1000
0010
0100
1000
0001
0100
0010
0000
,
1000
0010
1000
0100
0001
0100
0010
0000
,
0100
1000
0001
0000
0100
0010
2000
0000
,
0002
0000
3000
0000
0020
0000
0003
0030
,
0110
1100
1001
0110
,
1010
1000
0100
0001
0000
0001
0100
1000
,
0001
0010
0100
1000
0000
0001
1000
0010
,
0101
0001
0010
1000
0000
1000
0010
0001
,
1000
0010
0001
0010
1000
0100
0010
0000
,
1001
0000
0000
0000
;

//---------------dance-single - ----------------
#NOTEDATA:;
#CHARTNAME:;
#STEPSTYPE:dance-single;
#DESCRIPTION:;
#CHARTSTYLE:;
#DIFFICULTY:Hard;
#METER:13;
#RADARVALUES:0.494398,0.633358,0.268799,0.730798,0.327599,412.000000,380.000000,32.000000,87.000000,0.000000,0.000000,0.000000,0.000000,0.000000,0.494398,0.633358,0.268799,0.730798,0.327599,412.000000,380.000000,32.000000,87.000000,0.000000,0.000000,0.000000,0.000000,0.000000;
#CREDIT:led_light;
#DISPLAYBPM:105.000000:132.000000;
#NOTES:
0000
0000
0000
0000
,
0000
0000
0000
0000
,
0000
0000
0000
0000
,
0000
0000
0000
0000
,
0000
0000
0000
0000
,
0022
0000
0033
0000
0100
1000
0100
1000
0010
0000
0100
0001
0010
0200
0000
0000
,
0310
0000
0100
1000
0002
0000
0013
0100
0020
0000
0031
0000
0001
0100
0001
0000
,
2000
0000
3000
0000
0100
0010
0001
0010
0200
0000
1300
0010
0100
0020
0000
0000
,
1030
0000
0001
0100
0020
0000
1030
0100
0020
0000
0030
0000
1001
0000
0001
0100
,
0020
0000
0001
0000
0230
0000
1000
0000
0302
0000
0103
0010
2000
0000
0001
0000
,
3002
0000
0100
0000
2003
0000
0100
0000
3001
0000
0001
0100
0002
0000
1003
0100
,
0020
0000
0130
1000
0001
0000
0201
0000
0000
0000
0310
0000
1001
0000
0010
0000
,
2100
3000
1001
0010
0102
0000
0020
0033
,
0210
0000
0000
0001
0000
0000
2000
0000
0000
0000
0300
0000
3010
0000
0000
0000
,
0200
0000
0000
1000
0000
0000
0002
0000
0000
0000
0300
0000
0013
0000
0000
0000
,
0200
0000
0000
0000
,
2000
0000
0000
0300
,
0002
0000
3003
0000
0100
0010
1000
0100
,
1200
0000
0301
0000
0100
0010
0100
0000
,
1000
1000
0010
0001
0010
0100
0010
0000
,
0100
0001
0010
0100
0001
0100
0010
0000
,
0001
1000
0100
1000
0010
0100
0020
0000
,
1030
0000
0100
0000
0001
0000
0100
1000
0001
0000
0000
0000
0101
0000
0001
0000
,
1000
0000
0010
0000
0001
0000
0010
1000
0001
0000
0000
0000
0011
0000
0000
0000
,
0100
1000
0010
0100
0002
0000
0013
0000
,
0120
0000
0030
0011
,
1100
0000
0101
0000
1100
0001
0100
0000
,
1000
0000
0100
0000
0001
0000
0100
0000
1000
0000
0001
0100
0000
0020
0000
0030
,
2000
0000
3100
0010
0000
0010
0000
0000
0002
0000
0103
0010
0000
0010
0000
0000
,
2000
0000
3100
0000
0002
0000
0103
0000
2000
0000
3001
0010
0000
0020
0000
0030
,
0011
0000
1010
0000
0011
1000
0010
0000
,
0001
0000
0010
0000
1000
0000
0010
0000
0001
0000
1000
0010
0000
0100
0000
0000
,
0002
0000
0013
0000
2000
0000
3010
0000
0002
0000
0103
0020
2000
0030
3000
0000
,
0002
0000
0103
0001
0000
2000
0000
3000
0200
0000
0310
0002
0000
0000
0000
0000
,
1003
0000
0100
0000
0001
0000
0100
0000
2000
0000
3001
0010
0100
0000
0000
0000
,
0010
0000
0001
0000
1000
0000
0010
0000
0002
0000
0003
0010
2000
0000
3000
0000
,
0001
0000
0010
0000
1000
0000
0010
0000
0002
0000
1003
0100
0010
0000
0000
0000
,
0100
0000
1000
0000
0001
0000
0100
0000
2000
0000
3000
0100
0002
0000
0003
0000
,
1000
0000
0010
0000
0001
0000
0010
0000
2000
0000
3001
0100
0010
0000
0000
0000
,
0100
0000
0001
0000
1000
0000
0100
0000
0002
0000
0003
0100
2000
0000
3000
0000
,
0001
0000
0100
0000
1000
0000
0100
0000
0002
0000
1003
0010
0100
0000
0000
0000
,
0010
0000
1000
0000
0001
0000
0010
0000
2000
0000
3000
0010
0002
0000
0003
0000
,
1000
0100
0000
0000
0010
0000
0010
0000
0000
0001
0000
0000
1000
0000
0100
1000
,
0002
0003
0002
0003
0100
0010
1000
0100
,
1100
0000
0101
0000
1100
0001
0100
0000
,
1000
0000
0100
0000
0001
0000
0100
0000
1000
0000
0001
0100
0000
0020
0000
0030
,
2000
0000
3100
0010
0000
0010
0000
0000
0002
0000
0103
0010
0000
0010
0000
0000
,
2000
0000
3100
0000
0002
0000
0103
0000
2000
0000
3001
0010
0000
0020
0000
0030
,
0011
0000
1010
0000
0011
1000
0010
0000
,
0001
0000
0010
0000
1000
0000
0010
0000
0001
0000
1000
0010
0000
0100
0000
0000
,
0002
0000
0013
0000
2000
0000
3010
0000
0002
0000
0103
0020
2000
0030
3000
0000
,
0002
0000
0103
0001
0000
2000
0000
3000
0200
0000
0310
0001
1000
0000
0001
0000
,
0020
0000
0230
0000
2300
0000
0002
3003
,
0101
0000
0000
0000
1010
0000
0000
0000
1100
0000
0000
0000
0010
0001
0010
0001
,
2000
0000
3001
0000
0001
0100
0010
1000
0000
0010
0000
0010
0001
0000
0010
0000
,
2000
0000
3001
0000
0001
0010
0100
1000
0000
0000
0001
1000
0001
1000
0010
0000
,
0120
0000
1030
0000
1000
0100
0010
0001
0000
0010
0000
0010
1000
0000
0010
0000
,
0012
0000
0103
0000
1010
1000
0100
0010
0002
0000
0013
0000
0100
0100
0000
0000
,
1001
0000
0000
0000
;

//---------------dance-double - ----------------
#NOTEDATA:;
#CHARTNAME:;
#STEPSTYPE:dance-double;
#DESCRIPTION:;
#CHARTSTYLE:;
#DIFFICULTY:Hard;
#METER:13;
#RADARVALUES:0.489598,0.633358,0.268799,0.646798,0.327599,408.000000,376.000000,32.000000,77.000000,0.000000,0.000000,0.000000,0.000000,0.000000,0.489598,0.633358,0.268799,0.646798,0.327599,408.000000,376.000000,32.000000,77.000000,0.000000,0.000000,0.000000,0.000000,0.000000;
#CREDIT:led_light;
#DISPLAYBPM:105.000000:132.000000;
#NOTES:
// measure 0
00000000
00000000
00000000
00000000
,  // measure 1
00000000
00000000
00000000
00000000
,  // measure 2
00000000
00000000
00000000
00000000
,  // measure 3
00000000
00000000
00000000
00000000
,  // measure 4
00000000
00000000
00000000
00000000
,  // measure 5
00220000
00000000
00330000
00000000
01000000
10000000
01000000
10000000
00010000
00000000
00100000
01000000
00000000
00200000
00000000
00000000
,  // measure 6
00310000
00000000
10000000
01000000
00010000
00000000
01000000
10000000
00200000
00000000
00310000
00000000
00010000
00001000
00010000
00000000
,  // measure 7
00000010
00000000
00000000
00000000
00000100
00000001
00000100
00000001
00001000
00000000
00000010
00000100
00000000
00000020
00000000
00000000
,  // measure 8
00001030
00000000
00000001
00000010
00001000
00000000
00000010
00000001
00002000
00000000
00003000
00000000
00001001
00000000
00000001
00000100
,  // measure 9
00000020
00000000
00001000
00000000
00020030
00000000
00001000
00000000
00030020
00000000
00001030
00000100
00000000
00000000
00000010
00000000
,  // measure 10
00002000
00000000
00010000
00000000
00203000
00000000
00010000
00000000
00301000
00000000
00010000
00100000
00000000
00000000
01000000
00010000
,  // measure 11
02000000
00000000
03001000
00010000
00001000
00000000
00210000
00000000
00000000
00000000
01300000
00000000
10010000
00000000
00100000
00000000
,  // measure 12
01200000
00300000
01010000
00001000
00012000
00000000
00003200
00000000
,  // measure 13
00000302
00000000
00000000
00001000
00000000
00000000
00002000
00000000
00000000
00000000
00000003
00000000
00003010
00000000
00000000
00000000
,  // measure 14
00000200
00000000
00000000
00000001
00000000
00000000
00000002
00000000
00000000
00000000
00000300
00000000
00000013
00000000
00000000
00000000
,  // measure 15
00000200
00000000
00000000
00000000
,  // measure 16
00020000
00000000
00000000
00000300
,  // measure 17
00002000
00000000
00033000
00000000
00100000
00010000
01000000
00100000
,  // measure 18
10100000
00000000
00110000
00000000
01000000
01000000
01000000
00000000
,  // measure 19
10000000
01000000
00010000
01000000
10000000
10000000
10000000
00000000
,  // measure 20
00100000
00010000
00001000
00010000
00100000
01000000
00100000
00000000
,  // measure 21
10000000
00010000
01000000
00100000
00010000
00001000
00000020
00000000
,  // measure 22
00000130
00000000
00001000
00000000
00000010
00000000
00010000
00001000
00010000
00000000
00000000
00000000
00101000
00000000
00010000
00000000
,  // measure 23
00100000
00000000
00010000
00000000
01000000
00000000
00001000
00010000
00001000
00000000
00000000
00000000
00011000
00000000
00000000
00000000
,  // measure 24
00000100
00001000
00000010
00000001
00000020
00000000
00001030
00000000
,  // measure 25
00000021
00000000
00000030
00001010
,  // measure 26
00011000
00000000
00110000
00000000
00011000
01000000
00100000
00000000
,  // measure 27
01000000
00000000
00010000
00000000
00100000
00000000
10000000
00000000
00100000
00000000
00010000
10000000
00000000
00020000
00000000
00030000
,  // measure 28
20000000
00000000
31000000
00100000
00000000
00100000
00000000
00000000
00020000
00000000
01030000
00100000
00000000
00100000
00000000
00000000
,  // measure 29
20000000
00000000
31000000
00000000
00020000
00000000
01030000
00000000
20000000
00000000
30010000
00100000
00000000
00200000
00000000
00300000
,  // measure 30
00011000
00000000
00001100
00000000
00011000
00000010
00000100
00000000
,  // measure 31
00000010
00000000
00001000
00000000
00000100
00000000
00000001
00000000
00000100
00000000
00001000
00000001
00000000
00002000
00000000
00003000
,  // measure 32
00000002
00000000
00000013
00000000
00002000
00000000
00003010
00000000
00000002
00000000
00000013
00000100
00000020
00000000
00000030
00000000
,  // measure 33
00000100
00000000
00010000
00001000
00000000
00002000
00000000
00003000
00020000
00000000
01030000
20000000
00000000
00000000
00000000
00000000
,  // measure 34
30010000
00000000
00100000
00000000
01000000
00000000
10000000
00000000
00020000
00000000
10030000
00100000
10000000
00000000
00000000
00000000
,  // measure 35
00100000
00000000
01000000
00000000
00010000
00000000
01000000
00000000
00200000
00000000
00300000
00010000
00002000
00000000
00003000
00000000
,  // measure 36
01000000
00000000
00010000
00000000
00001000
00000000
00010000
00000000
02000000
00000000
03001000
00010000
00001000
00000000
00000000
00000000
,  // measure 37
00010000
00000000
00001000
00000000
00000100
00000000
00001000
00000000
00020000
00000000
00030000
00010000
00000020
00000000
00000030
00000000
,  // measure 38
00001000
00000000
00000010
00000000
00000100
00000000
00000001
00000000
00002000
00000000
00003001
00000010
00000001
00000000
00000000
00000000
,  // measure 39
00000010
00000000
00000100
00000000
00001000
00000000
00000100
00000000
00000020
00000000
00000030
00001000
00020000
00000000
00030000
00000000
,  // measure 40
00000100
00000000
00001000
00000000
00010000
00000000
00001000
00000000
00000200
00000000
00010300
00001000
00010000
00000000
00000000
00000000
,  // measure 41
00001000
00000000
00010000
00000000
01000000
00000000
00010000
00000000
00002000
00000000
00003000
00001000
00200000
00000000
00300000
00000000
,  // measure 42
01000000
10000000
00000000
00000000
00100000
00000000
00100000
00000000
00000000
01000000
00000000
00000000
00100000
00000000
10000000
00010000
,  // measure 43
20000000
30000000
20000000
30000000
10000000
01000000
00010000
00001000
,  // measure 44
00011000
00000000
00001010
00000000
00011000
00000100
00000010
00000000
,  // measure 45
00000100
00000000
00001000
00000000
00000010
00000000
00000001
00000000
00000010
00000000
00001000
00000001
00000000
00002000
00000000
00003000
,  // measure 46
00000002
00000000
00000103
00000010
00000000
00000010
00000000
00000000
00002000
00000000
00003100
00000010
00000000
00000010
00000000
00000000
,  // measure 47
00000002
00000000
00000103
00000000
00002000
00000000
00003100
00000000
00000002
00000000
00001003
00000010
00000000
00000020
00000000
00000030
,  // measure 48
00011000
00000000
01010000
00000000
00011000
00100000
01000000
00000000
,  // measure 49
00100000
00000000
00010000
00000000
01000000
00000000
10000000
00000000
01000000
00000000
00010000
10000000
00000000
00020000
00000000
00030000
,  // measure 50
20000000
00000000
30100000
00000000
00020000
00000000
00130000
00000000
20000000
00000000
30100000
01000000
00200000
00000000
00300000
00000000
,  // measure 51
01000000
00000000
00001000
00010000
00000000
00020000
00000000
00030000
00002000
00000000
00003100
00000001
00001000
00000000
00000010
00000000
,  // measure 52
00000200
00000000
00000302
00000000
00000023
00000000
00002000
00003030
,  // measure 53
00011000
00000000
00000000
00000000
00001010
00000000
00000000
00000000
00110000
00000000
00000000
00000000
00001000
00010000
00001000
00010000
,  // measure 54
00002000
00000000
00013000
00000000
00010000
00100000
10000000
00100000
00000000
01000000
00000000
01000000
00010000
00000000
00100000
00000000
,  // measure 55
02000000
00000000
13000000
00000000
10000000
01000000
00100000
00010000
00000000
00000000
01000000
00100000
01000000
00100000
00010000
00000000
,  // measure 56
00021000
00000000
00031000
00000000
00001000
00000100
00000001
00000100
00000000
00000010
00000000
00000010
00001000
00000000
00000100
00000000
,  // measure 57
00000120
00000000
00000031
00000000
00000101
00000100
00000010
00001000
00000001
00000000
00000010
00000000
00000100
00001000
00000000
00000000
,  // measure 58
00011000
00000000
00000000
00000000
;

//---------------dance-double - ----------------
#NOTEDATA:;
#CHARTNAME:;
#STEPSTYPE:dance-double;
#DESCRIPTION:;
#CHARTSTYLE:;
#DIFFICULTY:Medium;
#METER:9;
#RADARVALUES:0.369599,0.414119,0.260399,0.201599,0.008400,308.000000,277.000000,31.000000,24.000000,0.000000,0.000000,0.000000,0.000000,0.000000,0.369599,0.414119,0.260399,0.201599,0.008400,308.000000,277.000000,31.000000,24.000000,0.000000,0.000000,0.000000,0.000000,0.000000;
#CREDIT:led_light;
#DISPLAYBPM:105.000000:132.000000;
#NOTES:
00000000
00000000
00000000
00000000
,
00000000
00000000
00000000
00000000
,
00000000
00000000
00000000
00000000
,
00000000
00000000
00000000
00000000
,
00000000
00000000
00000000
00000000
,
00011000
00000000
00100000
00010000
00100000
00000000
00100000
00000000
,
01000000
00000000
10000000
00010000
10000000
00000000
01100000
00000000
,
00010000
00000000
01000000
00100000
01000000
00000000
10000000
00000000
,
00010000
00000000
00001000
00010000
00001000
00000000
00011000
00000000
,
00010000
00001000
00000100
00001000
00010000
00000000
00011000
00000000
,
00001000
00010000
01000000
00010000
00001000
00000000
00011000
00000000
,
00010000
00001000
00000200
00000000
00000000
00000000
00000310
00000000
,
00000002
00000023
00002030
00003200
,
00000302
00000000
00000000
00000100
00000000
00000000
00000200
00000000
00000000
00000000
00000000
00000000
00000303
00000000
00000000
00000000
,
00000020
00000000
00000000
00001000
00000000
00000000
00002000
00000000
00000000
00000000
00000000
00000000
00003030
00000000
00000000
00000000
,
00020000
00000000
00000000
00000000
,
00002000
00000000
00000000
00000000
,
00033000
00000000
00000000
00000000
,
20010000
00000000
31000000
00000000
00100000
00010000
00100000
00000000
,
01000000
10000000
01000000
00010000
01000000
00100000
01000000
00000000
,
10000000
00010000
10000000
00100000
00010000
00001000
00010000
00000000
,
00001000
00010000
00001000
00000100
00000001
00001000
00000002
00000000
,
00000013
00001000
00000010
00000001
00000010
00000000
00000110
00000000
,
00001000
00000100
00010000
00000010
00001000
00000000
00011000
00000000
,
01000000
00010000
10000000
00010000
00200000
00000000
01300000
00000000
,
20020000
00000000
00000000
30030000
,
01100000
00000000
10010000
00000000
10000000
01000000
00010000
00000000
,
00001000
00000100
00000001
00000100
00001000
00000100
00000010
00000000
,
00001000
00000010
00001000
00000000
00000001
00000100
00000001
00000000
,
00000010
00000100
00000010
00000100
00000010
00000000
00001001
00000000
,
00000110
00000000
00001001
00000000
00000001
00000010
00001000
00000000
,
00010000
01000000
10000000
01000000
00010000
01000000
00100000
00000000
,
00010000
00100000
01000000
00100000
00001000
00010000
00001000
00000000
,
01000000
00100000
10000000
00000000
01000000
00100000
02000000
00000000
,
13000000
00010000
00100000
00010000
10000000
00000000
01010000
00000000
,
00100000
01000000
00010000
01000000
00100000
00000000
00100000
00000000
,
01000000
00001000
00010000
00001000
00010000
00000000
00001100
00000000
,
00000010
00000100
00001000
00000100
00000010
00000000
00000010
00000000
,
00000001
00001000
00000100
00001000
00000001
00000000
00001010
00000000
,
00000100
00000010
00001000
00000010
00000100
00000000
00000100
00000000
,
00000010
00010000
00001000
00010000
00001000
00000000
00110000
00000000
,
01000000
00100000
00010000
00100000
01000000
00000000
01000000
00000000
,
22000000
00000000
00000000
03000000
,
00020000
30000000
00200000
00330000
,
01100000
00000000
10010000
00000000
10000000
00100000
00010000
00000000
,
00001000
00000010
00000001
00000010
00001000
00000010
00000100
00000000
,
00001000
00000100
00001000
00000000
00000001
00000010
00000001
00000000
,
00000100
00000010
00000100
00000010
00000100
00000000
00001001
00000000
,
00000110
00000000
00001001
00000000
00000001
00000100
00001000
00000000
,
00010000
00100000
10000000
00100000
00010000
00100000
01000000
00000000
,
00010000
01000000
00100000
01000000
00001000
00010000
00001000
00000000
,
00100000
01000000
10000000
00000000
00100000
01000000
00200000
00000000
,
20000000
00000000
00300000
00000000
00020000
00000000
00000000
30030000
,
01100000
01010000
00011000
00001100
,
00000110
00000010
00000001
00001000
00000000
00000010
00000100
00000001
,
00000100
00000001
00000010
00000100
00000000
00010000
00001000
00001000
,
00110000
00001000
00010000
00001000
00000000
00001000
00010000
00100000
,
10000000
01000000
00010000
00001000
00000100
00000001
00001000
00000000
,
00000110
00000000
00000000
00000000
;

//---------------dance-double - ----------------
#NOTEDATA:;
#CHARTNAME:;
#STEPSTYPE:dance-double;
#DESCRIPTION:;
#CHARTSTYLE:;
#DIFFICULTY:Easy;
#METER:6;
#RADARVALUES:0.289199,0.438479,0.487198,0.260399,0.000000,241.000000,183.000000,58.000000,31.000000,0.000000,0.000000,0.000000,0.000000,0.000000,0.289199,0.438479,0.487198,0.260399,0.000000,241.000000,183.000000,58.000000,31.000000,0.000000,0.000000,0.000000,0.000000,0.000000;
#CREDIT:led_light;
#DISPLAYBPM:105.000000:132.000000;
#NOTES:
00000000
00000000
00000000
00000000
,
00000000
00000000
00000000
00000000
,
00000000
00000000
00000000
00000000
,
00000000
00000000
00000000
00000000
,
00000000
00000000
00000000
00000000
,
00011000
00100000
00010000
01000000
,
00001000
00010000
00002000
00003000
,
00010000
00000100
00001000
00000010
,
00010000
00001000
00020000
00030000
,
01000000
10000000
00100000
00100000
,
00010000
00001000
00000010
00000010
,
00000001
00002000
00003000
00001001
,
00000002
00000103
00002000
00003100
,
00000002
00000000
00000000
00001003
,
00002000
00000000
00000000
00013000
,
00020000
00000000
00000000
00000000
,
00002000
00000000
00000000
00000000
,
00033000
00000000
00000000
00000000
,
01000000
00100000
01000000
10010000
,
10000000
00100000
00010000
00011000
,
00000010
00000001
00000010
00000010
,
00001000
00000001
00000010
00000010
,
00000100
00000100
00000100
00011000
,
00100000
00100000
00100000
10010000
,
20000000
31000000
00020000
01030000
,
02200000
00000000
00000000
03300000
,
10010000
11000000
01010000
01010000
,
00011000
00000110
00001001
00000011
,
00002001
00003100
00001002
00000103
,
00000010
00000100
00000010
00000010
,
00001001
00000011
00001010
00001010
,
00011000
01100000
10010000
11000000
,
10020000
00130000
20010000
30100000
,
01000000
00100000
02000000
03000000
,
00020000
00100000
00100000
00130000
,
10000000
00100000
00010000
00011000
,
00020000
00001000
00001000
00031000
,
00010000
00001000
00000100
00001001
,
00002000
00000010
00000010
00003010
,
00000001
00000010
00001000
00011000
,
00002000
00010000
00010000
00013000
,
00001000
00010000
01000000
00100000
,
10020000
00000000
00000000
00000000
,
00230000
00000000
02300000
03000000
,
10010000
10100000
00110000
00110000
,
00011000
00000110
00001001
00000101
,
00002001
00003010
00001002
00000013
,
00000100
00000010
00000100
00000100
,
00001001
00000101
00001100
00001100
,
00011000
01100000
10010000
10100000
,
10020000
01030000
20010000
31000000
,
00100000
01000000
00100000
00100000
,
00002000
00000000
00020000
00033000
,
00011000
00001010
00001001
00000011
,
00000110
00000001
00000000
00000001
,
00000100
00001000
00010000
00000000
,
01100000
00010000
00000000
00010000
,
10000000
01000000
00010000
00000000
00001000
00000000
00000100
00000000
,
00001001
00000000
00000000
00000000
;
