#TITLE:朧;
#SUBTITLE:;
#ARTIST:HHH×MM×ST;
#TITLETRANSLIT:Oboro;
#SUBTITLETRANSLIT:;
#ARTISTTRANSLIT:;
#GENRE:BEMANI;
#CREDIT:;
#BANNER:Oboro.png;
#BACKGROUND:Oboro-bg.png;
#LYRICSPATH:;
#CDTITLE:../cdtitle.png;
#MUSIC:Oboro.ogg;
#OFFSET:0.000000;
#SAMPLESTART:59.176998;
#SAMPLELENGTH:15.000000;
#SELECTABLE:YES;
#BPMS:0.000000=149.000000
;
#STOPS:
;
#BGCHANGES:0.000=Oboro.avi=1.000=0=0=0=StretchNoLoop====,
99999=-nosongbg-=1.000=0=0=0 // don't automatically add -songbackground-
;
#KEYSOUNDS:;
#ATTACKS:;

//---------------dance-double - ----------------
#NOTES:
     dance-double:
     :
     Easy:
     5:
     0.178557,0.240112,0.000000,0.189129,0.000000,152.000000,152.000000,0.000000,23.000000,0.000000,0.000000,0.178557,0.240112,0.000000,0.189129,0.000000,152.000000,152.000000,0.000000,23.000000,0.000000,0.000000:
00000000
00000000
00000000
00000000
,
00000000
00000000
00000000
00000000
,
00000000
00000000
00000000
00000000
,
00000000
00000000
00000000
00000000
,
00000000
00000000
00000000
00000000
,
00020000
00000000
00030000
00000000
,
00002000
00000000
00003000
00000000
,
01000000
00000000
00010000
00000000
,
20000000
00000000
30000000
00000000
,
00020000
00000000
00030000
00000000
,
00200000
00000000
00300000
00000000
,
00001000
00000000
00010000
00000000
,
00000020
00000000
00000030
00000000
,
00000100
00000000
00000001
00000000
,
00002000
00000000
00003000
00000000
,
00001000
00000000
00000001
00000000
,
00000100
00000000
00001000
00000000
,
00010000
00000000
00100000
00000000
,
10000000
01000000
00010000
01000000
,
20000000
00000000
30000000
00000000
,
10000000
00000000
00010000
00000000
,
01000000
00100000
01000000
00000000
,
00100000
00000000
00010000
00000000
,
00001000
00010000
00001000
00000000
,
00000100
00000000
00000001
00000000
,
00000010
00000100
00000010
00000000
,
00001000
00000000
00010000
00000000
,
00002000
00000000
00003000
00000000
,
00010000
01000000
10000000
00000000
,
10000000
01000000
00010000
00000000
,
00001000
00000010
00000001
00001000
,
00000010
00000100
00000100
00000000
,
00001000
00000100
00000001
00000000
,
00000001
00000100
00001000
00000000
,
00010000
00100000
10000000
00010000
,
00100000
01000000
00200000
00000000
,
00300000
00000000
00000000
00010000
,
00100000
00010000
00001000
00000000
,
00000100
00001000
00010000
00000000
,
00100000
00010000
10000000
10000000
,
01000000
00010000
00001000
00000000
,
01000000
00010000
00001000
00000000
,
00000010
00001000
00010000
00000000
,
01000000
00010000
10000000
10000000
,
00100000
00010000
00001000
00000000
,
00010000
00000000
00000010
00000000
,
00000200
00000000
00000300
00000000
,
00000002
00000000
00000003
00000000
,
00000020
00000000
00000030
00000000
,
00002000
00000000
00003000
00000000
,
00020000
00000000
00030000
00000000
,
00200000
00000000
10300000
00000000
,
20000000
00000000
31000000
00000000
,
00020000
00000000
00030000
00000000
,
00002000
00000000
00003000
00000000
,
01000000
00000000
00010000
00000000
,
20000000
00000000
30000000
00000000
,
00010000
00100000
00000000
00001000
,
00000000
00010000
00000000
00000010
,
00000100
00000000
00000001
00000000
,
00002000
00000000
00003000
00001000
,
00000100
00001000
00010000
00000000
,
00100000
00010000
00001000
00000000
,
00000100
00001000
00000001
00000001
,
00000010
00001000
00010000
00000000
,
00000010
00001000
00010000
00000000
,
01000000
00010000
00001000
00000000
,
00000010
00001000
00000001
00000001
,
00000100
00001000
00010000
00000000
,
00001000
00000000
00100000
00000000
,
02000000
00000000
03000000
00000000
,
10000000
00000000
00100000
00000000
,
00020000
00000000
00000000
00000000
,
00030000
00000000
00000000
00000000
;

//---------------dance-double - ----------------
#NOTES:
     dance-double:
     :
     Hard:
     12:
     0.441693,0.540252,0.065784,0.378258,0.139791,376.000000,368.000000,8.000000,46.000000,0.000000,0.000000,0.441693,0.540252,0.065784,0.378258,0.139791,376.000000,368.000000,8.000000,46.000000,0.000000,0.000000:
00000000
00000000
00000000
00000000
,
00000000
00000000
00000000
00000000
,
00000000
00000000
00000000
00000000
,
00000000
00000000
00000000
00000000
,
00000000
00000000
00000000
00000000
,
00000020
00000000
00010030
00001000
,
00200000
00000000
00301000
00010000
,
00000020
00000000
00000230
00000000
,
00002300
00000000
00013000
00001000
,
00200000
00000000
00301000
00010000
,
00000020
00000000
00010030
00001000
,
00200000
00000000
02300000
00000000
,
03020000
00000000
00031000
00000100
,
00000020
00000000
00000130
00000002
,
00002000
00000000
00000000
00000003
,
00003001
00000100
00001000
00000010
,
00000001
00000000
00000100
00000000
00001000
00000000
00000010
00010000
,
00001000
00000000
00000000
00100000
00000000
00000000
00010000
00000000
00000000
10000000
01000000
10000000
01000000
00000000
10000000
00000000
,
00100000
00000000
00000000
00010000
00000000
00000000
00001000
00000000
00000000
00000100
00000010
00000100
00000010
00000000
00000000
00000000
,
00002002
00000000
00000000
00003000
,
00001003
00000100
00000010
00000001
00000010
00000100
00010000
00001000
,
00200000
00000000
00010000
00000000
00001000
00000000
00310000
10000000
,
01000000
00000000
01000000
00100000
00010000
10000000
00100000
00010000
,
00002000
00000000
00000100
00000000
00010000
00000000
00003100
00000100
,
00000001
00000100
00000010
00001000
00000001
00000010
00001000
00010000
,
02000000
00000000
10000000
00000000
00010000
00000000
13000000
01000000
,
00100000
00000000
01000000
00000000
10000000
00100000
00010000
00001000
,
00000020
00000000
00000100
00000000
00000130
00001000
00000100
00001000
,
00000001
00000000
00000100
00000000
00000010
00000000
00000100
00000010
00000000
00000000
00001000
00000000
00010000
00000000
01000000
00000000
,
00010000
00000000
00100000
00000000
01000000
00000000
00100000
01000000
00000000
00000000
10000000
00000000
01000000
00000000
00100000
00000000
,
00010000
01000000
00001000
00010000
00000020
00000000
00002030
00000000
,
00003001
00000000
00000010
00000000
00000100
00000000
00001000
00000100
00000000
00000000
00001000
00000000
00000001
00000000
00000100
00000000
,
00000001
00000000
00000100
00000000
00000010
00000000
00000100
00000010
00000000
00000000
00001000
00000000
00010000
00000000
01000000
00000000
,
00010000
00000000
00100000
00000000
01000000
00000000
00100000
01000000
00000000
00000000
10000000
00000000
01000000
00000000
00100000
00000000
,
00010000
01000000
00001000
00010000
00000010
00001000
00000100
00000010
,
00000002
00000000
00000203
00000000
00002300
00000000
00003010
00000001
,
00002002
00000000
00000000
00000000
00003003
00000000
00000100
00001000
,
00010000
00000000
00100000
00000000
01000000
00000000
00010000
10000000
00000000
00000000
10000000
00000000
01000000
00000000
00010000
00000000
,
00001000
00000000
00000010
00000000
00000100
00000000
00001000
00000001
00000000
00000000
00000001
00000000
00000010
00000000
00000100
00000000
,
00001000
00000000
00000010
00000000
00010000
00000000
00001000
01000000
00000000
01000000
00010000
00000000
10000000
00000000
01000000
00000000
,
00100000
00000000
00010000
00000000
00100000
00000000
01000000
10000000
00000000
00000000
10000000
00000000
00100000
00000000
00010000
00000000
,
00001000
00000000
00000100
00000000
00000010
00000000
00001000
00000001
00000000
00000000
00000001
00000000
00000010
00000000
00001000
00000000
,
00010000
00000000
01000000
00000000
00100000
00000000
00010000
10000000
00000000
00000000
10000000
00000000
00100000
00000000
01000000
00000000
,
00010000
00000000
10000000
00000000
01000000
00000000
00010000
00001000
00000000
00100000
00010000
00000000
00001000
00000000
00000100
00000000
,
00000010
00000000
00000001
00000000
00001000
00000000
00000010
00010000
00000000
00000000
00010000
00000000
00001000
00000000
00100000
00000000
,
00020000
00000000
10000000
00000000
10030000
00100000
01000000
00001000
,
00020000
00000000
00000000
00000000
00031000
00000010
00000100
00000000
,
00002002
00000000
00000000
00003000
,
00000200
00000000
00000000
00000303
,
00002020
00000000
00000000
00003000
,
00020000
00000000
00000000
00000030
,
00002000
00030000
00200000
00003000
,
00020000
00000000
00330000
00010000
,
02000000
00000000
03001000
00010000
,
00000200
00000000
00010300
00001000
,
02000000
00000000
03200000
00000000
,
00320000
00000000
00031000
00010000
,
00000100
00001010
00000000
00010100
,
00000000
01001000
00000000
00110000
,
00001000
00000000
01000000
00000000
00010000
00000000
00001000
00000010
00000000
00000010
00010000
00000000
00001000
00000000
00100000
00000000
,
00010000
00000000
00100000
00000000
01000000
00000000
10000000
00010000
00000000
00000000
01000000
00000000
00100000
00000000
00010000
00000000
,
00001000
00000000
00000100
00000000
00000010
00000000
00001000
00000001
00000000
00000000
00000001
00000000
00000010
00000000
00001000
00000000
,
00010000
00000000
01000000
00000000
00100000
00000000
00010000
10000000
00000000
00000000
10000000
00000000
00100000
00000000
01000000
00000000
,
00010000
00000000
00100000
00000000
00001000
00000000
00010000
00000100
00000000
00000100
00001000
00000000
00000001
00000000
00000010
00000000
,
00000100
00000000
00001000
00000000
00000100
00000000
00000010
00000001
00000000
00000000
00000001
00000000
00000100
00000000
00001000
00000000
,
00010000
00000000
00100000
00000000
01000000
00000000
00010000
10000000
00000000
00000000
10000000
00000000
01000000
00000000
00010000
00000000
,
00001000
00000000
00000010
00000000
00000100
00000000
00001000
00000001
00000000
00000000
00000001
00000000
00000100
00000000
00000010
00000000
,
00001000
00000000
00000001
00000000
00000100
00000000
00001000
00010000
00000000
00000010
00001000
00000000
00010000
00000000
01000000
00000000
,
00100000
00000000
10000000
00000000
00010000
00000000
00100000
00001000
00000000
00000000
00001000
00000000
00010000
00000000
00000010
00000000
,
00002000
00000000
00000001
00000000
00003001
00000100
00000010
00001000
,
00000002
00000000
00000010
00000000
00000013
00000100
00001000
00000001
,
00000200
00000000
00000010
00000000
00000310
00000100
00001000
00010000
,
00200000
10000000
00010000
01000000
,
00300000
00000000
00000000
00000000
;

//---------------dance-double - ----------------
#NOTES:
     dance-double:
     :
     Medium:
     8:
     0.287805,0.360168,0.041115,0.345366,0.000000,245.000000,240.000000,5.000000,42.000000,0.000000,0.000000,0.287805,0.360168,0.041115,0.345366,0.000000,245.000000,240.000000,5.000000,42.000000,0.000000,0.000000:
00000000
00000000
00000000
00000000
,
00000000
00000000
00000000
00000000
,
00000000
00000000
00000000
00000000
,
00000000
00000000
00000000
00000000
,
00000000
00000000
00000000
00000000
,
02000000
00000000
03100000
00000000
,
00200000
00000000
01300000
00000000
,
20000000
00000000
30020000
00000000
,
00032000
00000000
00003000
00000000
,
00000020
00000000
00000130
00000000
,
00000200
00000000
00000310
00000000
,
00000002
00000000
00002003
00000000
,
00023000
00000000
00030000
00000000
,
02000000
00000000
03010000
10000000
,
20020000
00000000
00000000
30030000
,
10000000
00100000
10000000
00100000
,
00010000
00001000
00010000
00001000
,
00000010
00000001
00000010
00000001
,
00000100
00001000
00010000
00001000
,
00022000
00000000
00000000
00033000
,
00010000
00000000
00010000
00000000
01000000
00100000
01000000
00000000
,
20000000
00000000
30020000
00000000
10030000
00000000
00100000
01000000
,
00100000
00000000
00010000
00000000
00001000
00010000
00001000
00000000
,
00010000
00001000
00011000
00000000
,
00001000
00000000
00001000
00000000
00000010
00000100
00000010
00000000
,
00000002
00000000
00002003
00000000
00003001
00000000
00000100
00000010
,
00000100
00000000
00001000
00000000
00010000
00001000
00010000
00001000
,
00020000
00000000
00001000
00031000
,
00010000
00000000
01000000
10000000
00010000
00000000
01000000
00000000
,
10000000
00000000
01000000
00010000
10000000
00000000
01000000
00000000
,
00100000
00000000
00001000
00010000
00001000
00000000
00010000
00000000
,
00000010
00001000
00000001
00001000
00000001
00000000
00000100
00000000
,
00001000
00000000
00000100
00000001
00001000
00000000
00000100
00000000
,
00000001
00000000
00000100
00001000
00000001
00000000
00000100
00000000
,
00000010
00001000
00000010
00000000
00100000
00010000
00100000
00000000
,
01000000
10000000
00100000
00010000
,
20020000
00000000
00000000
30030000
,
01000000
00000000
00010000
00001000
00000100
00000000
00000001
00000000
,
00000010
00000000
00001000
00010000
00100000
00000000
10000000
00000000
,
01000000
00000000
00100000
00001000
00010000
00000000
00001000
00000000
,
00000100
00000010
00000100
00000010
00000100
00000000
00000001
00000000
,
00000010
00000000
00001000
00010000
00100000
00000000
10000000
00000000
,
01000000
00000000
00010000
00001000
00000100
00000000
00000001
00000000
,
00001000
00000000
00000100
00000000
00010000
00001000
01000000
00000000
,
00010000
10000000
00010000
10000000
00010000
00000000
00100000
00000000
,
00200000
00000000
01300000
20000000
,
00020000
00000000
00000000
30030000
,
01200000
00000000
00000000
00000000
,
20300000
00000000
00000000
00000000
,
32000000
00000000
00000000
00000000
,
03020000
00000000
00000000
00000000
,
00032000
00000000
00003020
00000000
,
00000032
00000000
00000103
00000000
,
00000020
00000000
00000130
00000000
,
00000200
00000000
00000310
00000000
,
00000002
00000000
00002003
00000000
,
00023000
00000000
00030000
00000000
,
01000000
00100000
00000000
00100000
,
00000000
01000000
00000000
01000000
,
00100000
00000000
00010000
00000000
00001000
00010000
00000010
00000000
,
00001000
00000001
00000010
00000000
00000100
00000000
00000000
00000000
,
00000010
00000000
00001000
00010000
00100000
00000000
10000000
00000000
,
01000000
00000000
00010000
00001000
00000100
00000000
00000001
00000000
,
00000010
00000000
00000100
00010000
00001000
00000000
00010000
00000000
,
00100000
01000000
00100000
01000000
00100000
00000000
10000000
00000000
,
01000000
00000000
00010000
00001000
00000100
00000000
00000001
00000000
,
00000010
00000000
00001000
00010000
00100000
00000000
10000000
00000000
,
00010000
00000000
00100000
00000000
00001000
00010000
00000010
00000000
,
00001000
00000001
00001000
00000001
00001000
00000000
00000100
00000000
,
00000200
00000000
00000310
00000001
,
00002000
00000000
00000000
00003010
,
00020000
00000000
00031000
00200000
,
02000000
00000000
00000000
00000000
,
03300000
00000000
00000000
00000000
;

//---------------dance-single - ----------------
#NOTES:
     dance-single:
     :
     Hard:
     12:
     0.444042,0.540252,0.074007,0.444042,0.148014,378.000000,369.000000,9.000000,54.000000,0.000000,0.000000,0.444042,0.540252,0.074007,0.444042,0.148014,378.000000,369.000000,9.000000,54.000000,0.000000,0.000000:
0000
0000
0000
0000
,
0000
0000
0000
0000
,
0000
0000
0000
0000
,
0000
0000
0000
0000
,
0000
0000
0000
0000
,
0020
0000
0130
0001
,
0020
0000
0130
1000
,
0020
0000
0032
0000
,
2003
0000
3100
0001
,
0020
0000
0130
1000
,
0020
0000
0130
0001
,
0020
0000
2030
0000
,
3002
0000
0103
1000
,
0020
0000
0030
0000
1000
0100
0010
0001
,
0200
0000
0000
0300
,
0110
1000
0010
0001
,
0100
0000
1000
0000
0010
0000
0100
0001
,
1000
0000
0000
0010
0000
0000
0100
0000
0000
0001
0010
0001
0010
0000
1000
0000
,
0010
0000
0000
0001
0000
0000
1000
0000
0000
0010
0100
0010
0100
0000
0000
0000
,
2002
0000
0000
3000
,
1003
0001
0010
0100
1000
0100
0010
0100
,
2000
0000
3020
0000
0032
0000
0103
1000
,
0020
0000
0000
0000
0130
0000
0001
0000
0010
0000
0100
0010
0100
0000
1000
0000
,
0002
0000
0023
0000
2030
0000
3100
0100
,
0001
1000
0100
0010
0001
0010
0100
0010
,
0002
0000
0203
0000
2300
0000
3010
0001
,
0200
0000
0000
0000
0320
0000
0000
0000
1030
0000
0100
0010
0001
0000
1000
0000
,
0020
0000
0100
0000
0130
0100
0010
1000
,
0001
0000
0010
0000
0100
0000
1000
0001
0000
0000
0001
0000
0010
0000
0100
0000
,
1000
0000
0010
0000
0100
0000
0001
1000
0000
0000
1000
0000
0010
0000
0100
0000
,
0001
0001
1000
1000
0100
0010
0002
0000
,
0013
0000
0100
0000
0010
0000
0010
0002
0000
0000
1003
0000
0100
0000
0010
0000
,
0001
0000
0100
0000
0010
0000
1000
0001
0000
0000
0001
0000
0100
0000
0010
0000
,
1000
0000
0100
0000
0010
0000
0001
1000
0000
0000
1000
0000
0100
0000
0010
0000
,
0001
0100
0001
0100
1000
0100
0001
1000
,
0020
0000
0032
0000
2003
0000
3100
0001
,
2002
0000
0000
0000
3003
0000
0001
0100
,
1000
0000
0100
0000
0010
0000
1000
0001
0000
0000
0001
0000
1000
0000
0100
0000
,
0001
0000
0100
0000
0010
0000
0001
1000
0000
0000
1000
0000
0010
0000
0001
0000
,
0010
0000
1000
0000
0010
0000
1000
0100
0000
0100
0010
0000
0001
0000
0100
0000
,
1000
0000
0100
0000
0001
0000
0100
0010
0000
0000
0010
0000
1000
0000
0010
0000
,
0001
0000
0010
0000
0100
0000
0001
1000
0000
0000
1000
0000
0001
0000
0010
0000
,
1000
0000
0010
0000
0100
0000
1000
0001
0000
0000
0001
0000
0100
0000
1000
0000
,
0100
0000
0001
0000
0010
0000
1000
0010
0000
0010
0001
0000
1000
0000
0010
0000
,
0100
0000
0010
0000
0100
0000
0001
1000
0000
0000
0010
0000
0100
0000
0010
0000
,
2000
0000
3000
0000
0001
0010
0100
1000
,
0002
0000
0000
0000
0013
0100
0010
0000
,
2002
0000
0000
3000
,
0200
0000
0000
0303
,
2200
0000
0000
3000
,
0002
0000
0000
0300
,
0203
0000
2000
0300
,
0002
0000
3003
0000
,
0020
0000
0130
1000
,
0020
0000
0130
0001
,
0020
0000
2030
0000
,
3002
0000
0103
1000
,
0010
0101
0000
1100
,
0000
0011
0000
1010
,
0001
0000
0010
0000
1000
0000
0010
0001
0000
0001
0010
0000
0100
0000
1000
0000
,
0001
0000
0100
0000
0010
0000
1000
0010
0000
0000
0000
0000
1000
0000
0100
0000
,
0001
0000
0100
0000
0010
0000
0001
1000
0000
0000
1000
0000
0001
0000
0100
0000
,
1000
0000
0100
0000
0010
0000
1000
0001
0000
0000
0001
0000
0010
0000
1000
0000
,
0010
0000
0001
0000
0010
0000
0001
0100
0000
0100
0010
0000
1000
0000
0100
0000
,
0001
0000
0100
0000
1000
0000
0100
0010
0000
0000
0010
0000
0001
0000
0010
0000
,
1000
0000
0010
0000
0100
0000
1000
0001
0000
0000
0001
0000
1000
0000
0010
0000
,
0001
0000
0010
0000
0100
0000
0001
1000
0000
0000
1000
0000
0100
0000
0001
0000
,
0100
0000
1000
0000
0010
0000
0001
0010
0000
0010
1000
0000
0001
0000
0010
0000
,
0100
0000
0010
0000
0100
0000
1000
0001
0000
0000
0010
0000
0100
0000
0010
0000
,
0002
0000
0003
0000
1000
0010
0100
0001
,
2000
0000
0010
0000
3010
0100
0010
1000
,
0002
0000
1000
0000
1003
0100
0001
0100
,
0020
1000
0001
0100
,
0030
0000
0000
0000
;

//---------------dance-single - ----------------
#NOTES:
     dance-single:
     :
     Medium:
     8:
     0.288980,0.390182,0.032892,0.411150,0.008223,246.000000,242.000000,4.000000,50.000000,0.000000,0.000000,0.288980,0.390182,0.032892,0.411150,0.008223,246.000000,242.000000,4.000000,50.000000,0.000000,0.000000:
0000
0000
0000
0000
,
0000
0000
0000
0000
,
0000
0000
0000
0000
,
0000
0000
0000
0000
,
0000
0000
0000
0000
,
0020
0000
0130
0000
,
0200
0000
0310
0000
,
2000
0000
3200
0000
,
0302
0000
0013
0000
,
0200
0000
0310
0000
,
0020
0000
0130
0000
,
0002
0000
0023
0000
,
2030
0000
3100
1000
,
0020
0030
0001
1000
,
0220
0000
0000
0330
,
1000
0100
0010
0001
,
0100
0010
1000
0001
,
0010
0000
0000
0100
0000
0000
0010
0000
0000
0000
0000
0000
0100
0000
0000
0000
,
1000
0000
0000
0001
0000
0000
0100
0000
0000
0000
0000
0000
0010
0000
0000
0000
,
2000
0000
0000
0000
,
3001
0000
1000
0000
0100
0010
0100
0000
,
2000
3002
0023
0130
,
1000
0000
1000
0000
0010
0100
0010
0000
,
1000
0001
2002
3003
,
1000
0000
0001
0000
0010
0100
0010
0000
,
0002
0000
2003
0000
3200
0000
0310
0100
,
0010
0000
0001
0000
0100
0010
1000
0000
,
0002
0000
1000
1003
,
1000
0100
0001
0000
2000
0000
3010
0000
,
0001
0100
1000
0000
0002
0000
0013
0000
,
1000
0100
0001
0000
0100
0000
1000
0000
,
0010
0100
0010
0000
0020
0000
0130
0000
,
0001
0010
1000
0000
0002
0000
0103
0000
,
1000
0010
0001
0000
2000
0000
3100
0000
,
0001
1000
0010
0000
0100
0001
0010
0000
,
1000
0010
0001
0100
,
0220
0000
0000
0330
,
0001
0000
1000
0100
0001
0000
0100
0000
,
1000
0000
0001
0100
1000
0000
0100
0000
,
0001
0000
0001
0000
0010
0100
1000
0000
,
0100
0010
0100
0000
1000
0000
0001
0000
,
1000
0000
0001
0010
1000
0000
0010
0000
,
0001
0000
1000
0010
0001
0000
0010
0000
,
1000
0100
0010
0000
0100
0010
0001
0000
,
0010
0100
0010
0100
0010
0000
0001
0000
,
2000
0000
3000
0000
0100
1000
0020
0000
,
0200
0000
0000
0330
,
2001
0000
0000
0000
,
3020
0000
0000
0000
,
0230
0000
0000
0000
,
0302
0000
0000
0000
,
0023
0000
0230
0000
,
0320
0000
0030
0000
,
0002
0000
1003
0000
,
2000
0000
3001
0000
,
0020
0000
2030
0000
,
3200
0000
0302
0000
,
0003
0010
0000
0100
,
0000
0010
0000
0100
,
1000
0000
1000
0000
0010
0100
0010
0000
,
1000
0100
1000
0000
0001
0000
0000
0000
,
1000
0000
0001
0010
1000
0000
0010
0000
,
0001
0000
1000
0010
0001
0000
0010
0000
,
1000
0000
1000
0000
0100
0010
0001
0000
,
0010
0100
0010
0000
0001
0000
1000
0000
,
0001
0000
1000
0100
0001
0000
0100
0000
,
1000
0000
0001
0100
1000
0000
0100
0000
,
0001
0010
0100
0000
0010
0100
1000
0000
,
0100
0010
0100
0010
0100
0000
1000
0000
,
0002
0000
0003
0000
0010
0001
0100
0000
,
0020
0000
0030
1000
,
0002
0000
0003
0000
0010
0100
1000
0000
,
0020
0000
0000
0000
,
0030
0000
0000
0000
;

//---------------dance-single - ----------------
#NOTES:
     dance-single:
     :
     Easy:
     5:
     0.196177,0.270126,0.032892,0.254913,0.000000,167.000000,163.000000,4.000000,31.000000,0.000000,0.000000,0.196177,0.270126,0.032892,0.254913,0.000000,167.000000,163.000000,4.000000,31.000000,0.000000,0.000000:
0000
0000
0000
0000
,
0000
0000
0000
0000
,
0000
0000
0000
0000
,
0000
0000
0000
0000
,
0000
0000
0000
0000
,
2000
0000
3000
0000
,
0002
0000
0003
0000
,
0010
0000
0100
0000
,
0020
0000
0030
0000
,
0002
0000
0003
0000
,
2000
0000
3000
0000
,
0100
0000
0010
0000
,
0100
0000
0000
0000
,
0100
0000
1000
0000
,
0002
0000
0000
0003
,
1000
0010
1000
0010
,
0001
0010
1000
0100
,
0001
0000
0000
0001
0000
0000
1100
0000
,
0001
0000
0000
0001
0000
0000
1010
0000
,
0200
0000
0000
0000
,
0310
1000
0100
1000
,
0010
0100
0020
0030
,
1000
0100
0001
0100
,
1000
1000
0002
0003
,
0100
0001
0010
0001
,
0100
0010
0200
0300
,
0001
0010
1000
0010
,
0002
0000
0000
0003
,
1000
0100
0002
0003
,
1000
0010
0002
0003
,
1000
0010
0001
0010
,
0100
0010
2000
3000
,
0100
1000
0020
0030
,
0100
0001
0020
0030
,
0100
0010
0100
0001
,
0100
1000
0020
0000
,
0200
0000
0330
0110
,
1000
0100
0001
0000
,
1000
0010
0001
0000
,
1000
0100
0001
1000
,
0001
0100
1000
0000
,
0001
0100
1000
0000
,
0001
0010
1000
0000
,
0001
0100
1000
0010
,
1000
0100
0001
0000
,
0002
0003
1000
0000
,
0002
0000
0000
0003
,
0020
0000
0000
0000
,
0000
0000
0000
0030
,
0200
0000
0000
0300
,
2000
0000
0000
3000
,
0002
0000
0103
0000
,
2000
0000
3010
0000
,
0002
0000
0003
0000
,
2000
0000
3000
0000
,
0100
0000
0010
0000
,
0200
0000
0300
0000
,
0000
1000
0000
1000
,
0000
0001
0000
0001
,
0010
0000
0100
0000
,
2000
0000
3000
1001
,
0001
0100
1000
0000
,
0001
0010
1000
0000
,
0001
0100
1000
0001
,
1000
0100
0001
0000
,
1000
0100
0001
0000
,
1000
0010
0001
0000
,
1000
0100
0001
0010
,
0001
0100
1000
0000
,
1000
0000
0100
0000
,
0020
0000
0030
0000
,
0001
0000
0100
0000
,
0020
0000
0000
0000
,
0030
0000
0000
0000
;

//---------------dance-single - ----------------
#NOTES:
     dance-single:
     :
     Beginner:
     3:
     0.148014,0.210098,0.041115,0.074007,0.000000,126.000000,121.000000,5.000000,9.000000,0.000000,0.000000,0.148014,0.210098,0.041115,0.074007,0.000000,126.000000,121.000000,5.000000,9.000000,0.000000,0.000000:
// measure 0
0000
0000
0000
0000
,  // measure 1
0000
0000
0000
0000
,  // measure 2
0000
0000
0000
0000
,  // measure 3
0000
0000
0000
0000
,  // measure 4
0000
0000
0000
0000
,  // measure 5
1000
0000
0000
0000
,  // measure 6
1000
0000
0000
0000
,  // measure 7
1000
0000
1000
0000
,  // measure 8
0001
0000
0000
0000
,  // measure 9
0010
0000
0000
0000
,  // measure 10
0010
0000
0000
0000
,  // measure 11
0100
0000
0100
0000
,  // measure 12
0010
0000
0000
0000
,  // measure 13
1000
0000
1000
0000
,  // measure 14
0002
0000
0003
0000
,  // measure 15
0001
0000
0001
0000
,  // measure 16
1000
0000
1000
0000
,  // measure 17
0001
0000
0000
0000
,  // measure 18
1000
0000
0000
0000
,  // measure 19
0110
0000
0000
0000
,  // measure 20
1000
0000
1000
0000
,  // measure 21
1000
1000
1000
0000
,  // measure 22
0010
0000
1000
0000
,  // measure 23
0100
0100
0100
0000
,  // measure 24
0001
0000
0001
0000
,  // measure 25
0001
0001
0001
0000
,  // measure 26
0010
0000
0001
0000
,  // measure 27
2000
0000
3000
0000
,  // measure 28
0010
0010
0010
0000
,  // measure 29
0100
0100
0100
0000
,  // measure 30
0001
0000
1000
0000
,  // measure 31
0001
0001
0001
0000
,  // measure 32
0010
0010
0010
0000
,  // measure 33
0100
0100
0100
0000
,  // measure 34
1000
0000
0001
0000
,  // measure 35
2000
0000
0000
0000
,  // measure 36
3000
0000
0000
0000
,  // measure 37
1000
1000
1000
0000
,  // measure 38
1000
1000
1000
0000
,  // measure 39
0010
0000
0001
0000
,  // measure 40
0100
0000
1000
0000
,  // measure 41
0001
0001
0001
0000
,  // measure 42
0001
0001
0001
0000
,  // measure 43
1000
0000
0001
0000
,  // measure 44
1001
0000
0000
0000
,  // measure 45
0100
0000
0010
0000
,  // measure 46
0200
0000
0300
0000
,  // measure 47
2002
0000
0000
0000
,  // measure 48
0000
0000
0000
0000
,  // measure 49
3003
0000
0000
0000
,  // measure 50
0001
0000
0000
0000
,  // measure 51
1000
0000
0000
0000
,  // measure 52
2000
0000
3000
0000
,  // measure 53
0001
0000
0000
0000
,  // measure 54
0001
0000
0000
0000
,  // measure 55
0001
0000
0001
0000
,  // measure 56
1000
0000
0000
0000
,  // measure 57
0000
0010
0000
0010
,  // measure 58
0000
0010
0000
0010
,  // measure 59
0010
0000
0100
0000
,  // measure 60
0110
0000
0000
0000
,  // measure 61
0001
0001
0001
0000
,  // measure 62
0001
0001
0001
0000
,  // measure 63
0010
0000
1000
0000
,  // measure 64
0100
0000
0001
0000
,  // measure 65
1000
1000
1000
0000
,  // measure 66
1000
1000
1000
0000
,  // measure 67
0001
0000
1000
0000
,  // measure 68
1001
0000
0000
0000
,  // measure 69
0010
0000
0100
0000
,  // measure 70
0020
0000
0030
0000
,  // measure 71
0001
0000
1000
0000
,  // measure 72
0002
0000
0000
0000
,  // measure 73
0003
0000
0000
0000
;
