#VERSION:0.83;
#TITLE:No One Can Reach The Truth;
#SUBTITLE:;
#ARTIST:BEMANI Sound Team "TAG";
#TITLETRANSLIT:;
#SUBTITLETRANSLIT:;
#ARTISTTRANSLIT:;
#GENRE:BEMANI;
#ORIGIN:;
#CREDIT:;
#BANNER:No One Can Reach The Truth.png;
#BACKGROUND:No One Can Reach The Truth-bg.png;
#PREVIEWVID:;
#JACKET:No One Can Reach The Truth-jacket.png;
#CDIMAGE:;
#DISCIMAGE:;
#LYRICSPATH:;
#CDTITLE:../cdtitle.png;
#MUSIC:No One Can Reach The Truth.ogg;
#OFFSET:1.241000;
#SAMPLESTART:12.685000;
#SAMPLELENGTH:15.000000;
#SELECTABLE:YES;
#BPMS:0.000=155.000;
#STOPS:;
#DELAYS:;
#WARPS:;
#TIMESIGNATURES:0.000=4=4;
#TICKCOUNTS:0.000=4;
#COMBOS:0.000=1;
#SPEEDS:0.000=1.000=0.000=0;
#SCROLLS:0.000=1.000;
#FAKES:;
#LABELS:0.000=Song Start;
#BGCHANGES:-99.000=../bg.avi=1.000=0=0=1=====,
99999=-nosongbg-=1.000=0=0=0 // don't automatically add -songbackground-
;
#KEYSOUNDS:;
#ATTACKS:
;

//---------------dance-single - ----------------
#NOTEDATA:;
#CHARTNAME:;
#STEPSTYPE:dance-single;
#DESCRIPTION:;
#CHARTSTYLE:;
#DIFFICULTY:Beginner;
#METER:4;
#RADARVALUES:0.171066,0.304132,0.083898,0.152543,0.000000,157.000000,146.000000,11.000000,20.000000,0.000000,0.000000,0.000000,0.000000,0.000000,0.171066,0.304132,0.083898,0.152543,0.000000,157.000000,146.000000,11.000000,20.000000,0.000000,0.000000,0.000000,0.000000,0.000000;
#CREDIT:led_light;
#DISPLAYBPM:0.000000;
#NOTES:
0000
0000
0000
0000
,
0000
0000
0000
0000
,
0000
0000
0000
0000
,
0000
0000
0000
0000
,
0000
0000
0000
0000
,
0200
0000
0300
0000
,
0020
0000
0030
0000
,
0001
0000
1000
0000
,
0001
0001
0001
0000
,
2000
0000
0000
3000
,
0010
0000
0001
0000
,
0200
0000
0000
0000
,
0000
0000
0300
0000
,
1000
0000
0001
0000
,
1000
0000
0001
0000
,
0010
0000
0100
0000
,
0010
0000
0010
0000
,
0001
0001
0001
0000
,
2000
3000
0001
0000
,
1000
0000
0020
0000
,
0000
0030
0010
0000
,
0001
0000
0001
0000
,
1000
0000
0001
0000
,
0100
0000
0100
0000
,
1000
0000
0001
0000
,
1000
1000
1000
0000
,
0002
0003
1000
0000
,
0001
0000
0200
0000
,
0000
0300
0100
0000
,
1000
0000
1000
0000
,
0001
0000
1000
0000
,
0010
0000
0010
0000
,
0001
0000
1000
0000
,
0001
0000
0000
0000
,
0001
0000
0001
0000
,
1000
0000
0000
0000
,
1000
0000
1000
0000
,
0001
0000
0000
0000
,
1000
0000
0001
0000
,
0010
0000
0100
0000
,
0010
0000
0100
0000
,
1000
1000
1000
0000
,
0001
0001
0001
0000
,
1000
1000
1000
0000
,
0010
0000
0010
0000
,
0001
0001
0001
0000
,
1000
1000
1000
0000
,
0001
0001
0001
0000
,
1001
0000
0000
0000
,
2000
0000
0000
3000
,
0002
0000
0000
0003
,
0020
0000
0000
0030
,
0200
0000
0000
0300
,
0002
0000
0000
0003
,
2000
0000
0000
3000
,
0020
0000
0000
0030
,
0200
0000
0000
0300
,
1000
0000
0000
0000
,
0001
0000
0000
0000
,
0001
0000
0000
0000
,
1000
0000
0000
0000
,
1001
0000
0000
0000
,
0110
0000
0000
0000
,
1001
0000
0110
0000
,
1001
0000
0110
0000
,
0001
0001
0001
0000
,
1000
1000
1000
0000
,
0001
0001
0001
0000
,
0010
0000
0010
0000
,
1000
1000
1000
0000
,
0001
0001
0001
0000
,
1000
1000
1000
0000
,
1001
0000
0001
0000
,
0100
0100
0100
0000
,
2000
3000
0020
0030
,
0002
0003
0200
0300
,
1000
1000
1000
1000
,
0001
0001
0001
0001
,
0110
0000
1001
0000
,
0010
0010
0100
0110
;

//---------------dance-single - ----------------
#NOTEDATA:;
#CHARTNAME:;
#STEPSTYPE:dance-single;
#DESCRIPTION:;
#CHARTSTYLE:;
#DIFFICULTY:Challenge;
#METER:16;
#RADARVALUES:0.709323,0.883364,0.160170,0.579662,0.476695,651.000000,630.000000,21.000000,76.000000,0.000000,0.000000,0.000000,0.000000,0.000000,0.709323,0.883364,0.160170,0.579662,0.476695,651.000000,630.000000,21.000000,76.000000,0.000000,0.000000,0.000000,0.000000,0.000000;
#CREDIT:led_light;
#NOTES:
// measure 0
0000
0000
0000
0000
,  // measure 1
0000
0000
0000
0000
,  // measure 2
0000
0000
0000
0000
,  // measure 3
0000
0000
0000
0000
,  // measure 4
0000
0000
0000
0000
,  // measure 5
2100
0000
0000
0000
3001
0000
1000
0010
0200
0000
0000
0000
0310
0000
0000
0000
,  // measure 6
0102
0000
0000
0000
1003
0000
0001
0010
0200
0000
0000
0000
0310
0000
0000
0000
,  // measure 7
0110
0000
0100
0000
1000
0000
0001
0000
1001
0000
0001
0000
0100
0000
0010
1000
,  // measure 8
0001
0000
0100
0000
0001
0000
0001
0000
1000
0100
1000
0100
0010
0100
1000
0001
,  // measure 9
0020
0000
0130
0001
0100
0000
0100
0010
0100
0000
0100
1000
0100
0000
0100
0010
,  // measure 10
0002
0000
1003
0001
0010
0000
0001
1000
0020
0000
0230
0000
0301
0000
2000
0000
,  // measure 11
3020
0000
0130
1000
0100
0000
0100
0010
0100
0000
0100
0001
0100
0000
0100
0010
,  // measure 12
1000
0000
0001
0100
0001
0000
1000
0001
1000
0000
0200
0000
0302
0000
0203
0000
,  // measure 13
1300
0001
1001
0001
1001
0002
0103
0020
,  // measure 14
1030
0001
0200
0301
0101
0010
1000
0100
,  // measure 15
2100
0000
0000
0000
3001
0000
0100
0000
0120
0000
0000
0000
1030
0000
0001
0010
,  // measure 16
0100
0010
0000
0100
0010
0000
0100
1000
0001
1000
0010
0100
0010
1000
0100
0010
,  // measure 17
0001
0000
1000
0000
0010
0000
0001
0000
0010
0000
0100
0010
0000
0000
1000
0000
,  // measure 18
0002
0000
0013
0100
0001
0100
0001
0100
,  // measure 19
1000
0000
0001
1000
0001
0000
0100
0000
0020
0000
0000
0000
0100
0000
0000
0000
,  // measure 20
0001
0000
0100
0030
1000
0100
0001
0100
,  // measure 21
0020
0000
0000
0000
0031
0000
1000
0100
2000
0000
0000
0000
3001
0000
0100
0010
,  // measure 22
2000
0000
0000
0000
3001
0000
0010
0100
0010
0000
0001
0000
1000
0000
0010
0000
,  // measure 23
2000
0000
3000
1000
0100
0000
0010
0000
0002
0000
0003
0001
0100
0000
0010
0000
,  // measure 24
2000
0000
3000
1000
0001
0000
0010
0000
0100
0000
0010
0000
0001
0000
0001
1000
,  // measure 25
0001
0000
1000
0000
0010
0000
0001
0000
0010
0000
0100
0010
0000
0000
1000
0000
,  // measure 26
0002
0000
0013
0100
0001
0100
0001
0100
,  // measure 27
1000
0000
0001
1000
0001
0000
0100
0000
0020
0000
0000
0000
0100
0000
0000
0000
,  // measure 28
2030
0000
0100
3000
0010
0100
1000
0100
,  // measure 29
0020
0000
0000
0000
1030
0000
0001
0100
0002
0000
0000
0000
1003
0000
0100
0010
,  // measure 30
0002
0000
0000
0000
1003
0000
0010
0100
0010
0000
1000
0000
0001
0000
0100
0000
,  // measure 31
0002
0000
0003
0001
0000
0000
0010
0000
0200
0000
0300
0100
0000
0000
1000
0000
,  // measure 32
0020
0000
0030
0010
0000
0000
0001
0000
0010
0000
0010
1000
0010
1000
0001
0010
,  // measure 33
0200
0000
0310
0100
1000
0001
1000
0010
,  // measure 34
0200
0310
1000
0001
0100
0001
0010
0100
,  // measure 35
2000
0000
3001
1000
0001
0001
0100
0010
,  // measure 36
2000
0000
3100
0000
0010
0000
0010
0000
0100
0000
1000
0010
0100
0001
0010
0100
,  // measure 37
2000
0000
3100
1000
0001
1000
0010
0100
,  // measure 38
0001
0010
0011
0010
1010
0010
0110
0010
,  // measure 39
0012
0000
0000
0000
0013
0000
0010
0100
2000
0000
0000
0000
3010
0000
0010
0100
,  // measure 40
0002
0000
0000
0000
0013
0000
0000
0000
0010
0100
0000
0010
0100
0000
1000
0000
,  // measure 41
0002
0000
0013
0100
1000
0000
0100
0000
0001
0000
0100
0000
1000
0000
1000
0000
,  // measure 42
0002
0000
1003
0010
0100
0000
0010
0000
0001
0000
0010
0000
1000
0000
1000
0000
,  // measure 43
0002
0000
0013
0100
1000
0000
0100
0000
0001
0000
0100
0000
1000
0000
0001
0000
,  // measure 44
0020
0000
0000
0000
0130
0000
1000
0001
2000
0000
0000
0000
3010
0000
0000
0000
,  // measure 45
0100
0000
0000
0100
0001
0000
1000
0000
0001
0000
0010
0100
1000
0100
0010
0100
,  // measure 46
1000
0000
0000
0001
0010
0000
0100
0000
1000
0000
0001
1000
0010
0100
0001
0100
,  // measure 47
0010
0000
0000
0100
0001
0000
0010
0000
0100
0000
0100
0000
1000
0000
0001
0000
,  // measure 48
0000
0000
0110
0000
0000
0110
0000
1000
0001
0000
0100
0000
0010
0000
0000
0000
,  // measure 49
1000
0100
0010
0002
0000
1003
0100
1000
,  // measure 50
0000
0001
0100
0020
0000
0130
0001
0100
,  // measure 51
0000
0010
1000
0002
0000
0013
0001
0010
,  // measure 52
0000
0100
1000
0002
0000
0013
1000
0010
,  // measure 53
0001
0100
0010
2000
0000
3001
0100
0001
,  // measure 54
0000
1000
0100
0020
0000
0130
1000
0100
,  // measure 55
0000
0010
0001
2000
0000
3010
1000
0010
,  // measure 56
0000
0100
0001
2000
0000
3100
0010
0001
,  // measure 57
2000
0000
3010
1000
0000
1000
0010
0100
,  // measure 58
0001
0000
0010
0100
0000
0100
1000
0001
,  // measure 59
2000
0000
3001
0100
0000
0100
0010
1000
,  // measure 60
0001
0000
0100
0000
0010
0000
0010
0000
0000
0000
0100
0001
0010
0100
1000
0100
,  // measure 61
2000
3000
0001
1000
0000
0001
0100
0010
,  // measure 62
1010
0100
0001
0000
0010
0000
0100
0000
,  // measure 63
0022
0000
0000
0000
0033
0000
0100
1000
0002
0000
0000
0000
0003
0000
0100
0010
,  // measure 64
1000
0000
1000
0000
0001
0000
0001
0000
0010
0100
0010
0100
1000
0100
0010
0001
,  // measure 65
2000
0000
3001
1000
0010
0000
0100
0000
0001
0000
0010
0000
0100
0000
0100
0000
,  // measure 66
2000
0000
3001
1000
0100
0000
0010
0000
0001
0000
0100
0000
0010
0000
0010
0000
,  // measure 67
2000
0000
3010
0100
0001
0000
0010
0000
0100
0000
0001
0000
0100
0000
1000
0000
,  // measure 68
2001
0000
0000
0000
3010
0000
0001
0010
0002
0000
0000
0000
0013
0000
0000
0000
,  // measure 69
1010
0000
0000
1000
0100
0000
1000
0000
0010
0000
0100
0001
0010
0100
1000
0100
,  // measure 70
0010
0000
0000
0010
0100
0000
1000
0000
0001
0000
1000
0001
1000
0100
1000
0010
,  // measure 71
0100
0000
0000
0100
0010
0000
1000
0000
0001
0000
0010
0100
0010
0001
1000
0100
,  // measure 72
0020
0000
0000
0000
0130
0000
2000
0000
0001
0000
0000
0000
3010
0000
0100
0001
,  // measure 73
0010
0010
1000
0001
0100
0010
0001
0001
,  // measure 74
1000
0100
1000
0001
0010
0100
1000
0001
1000
0010
1000
0001
0100
0010
2000
0000
,  // measure 75
3001
0000
0000
0000
0000
0000
0010
0000
0100
0000
0010
0000
0200
0000
0000
0000
0000
0000
2300
0000
0000
0000
0000
0000
3002
0000
0000
0000
0000
0000
0103
0000
0000
0010
0000
0000
0220
0000
0000
0000
0000
0000
0330
0000
0000
0000
0000
0000
,  // measure 76
1000
0001
1000
0000
1000
0100
1000
0000
0100
0010
0100
0000
0100
0001
0100
0000
,  // measure 77
1000
0100
1000
0000
1000
0010
1000
0000
0010
0100
0010
0000
0010
0001
0010
0000
,  // measure 78
0100
0001
1000
0010
0100
0001
0010
0100
1000
0001
1000
0010
1000
0001
0010
0100
,  // measure 79
0020
0000
0130
0001
0000
0100
1000
0000
0010
0001
0000
0010
0100
0000
1001
0000
;

//---------------dance-single - ----------------
#NOTEDATA:;
#CHARTNAME:;
#STEPSTYPE:dance-single;
#DESCRIPTION:;
#CHARTSTYLE:;
#DIFFICULTY:Hard;
#METER:13;
#RADARVALUES:0.578572,0.639677,0.144915,0.427119,0.137288,531.000000,512.000000,19.000000,56.000000,0.000000,0.000000,0.000000,0.000000,0.000000,0.578572,0.639677,0.144915,0.427119,0.137288,531.000000,512.000000,19.000000,56.000000,0.000000,0.000000,0.000000,0.000000,0.000000;
#CREDIT:led_light;
#NOTES:
0000
0000
0000
0000
,
0000
0000
0000
0000
,
0000
0000
0000
0000
,
0000
0000
0000
0000
,
0000
0000
0000
0000
,
2100
0000
3001
1000
0020
0000
0130
0000
,
0102
0000
1003
0001
0020
0000
0130
0000
,
0110
0000
1000
0100
1100
0000
0001
0100
,
0101
0000
1010
0000
1000
0100
0010
0001
,
2000
3100
2000
3001
2000
3100
2000
3010
,
2000
3100
2000
3001
0100
0010
1000
0002
,
0103
0002
1003
0002
0103
0002
1003
0002
,
0013
0002
1003
0002
0103
0010
1000
0001
,
1000
0100
0010
0010
0001
1000
0010
1000
,
0001
0010
0100
0100
0010
0001
1000
0100
,
2000
0000
3100
0010
0002
0000
0103
0010
,
1000
0001
0000
1000
0000
0000
0100
0010
0001
0000
0010
0000
0100
0000
1000
0000
,
0001
0000
1000
0000
0100
0000
1000
0000
0010
0000
0000
0100
0000
0000
0200
0000
,
0001
0000
0301
0010
0100
0010
0100
1000
,
0001
0000
0000
0001
0000
0000
0020
0000
1000
0000
0000
0000
1000
0000
0000
0000
,
0100
0000
0100
0030
0001
1000
0010
0100
,
0002
0000
0013
1000
0020
0000
0031
1000
,
0002
0000
0103
1000
0100
0001
1000
0001
,
0010
0000
0000
0010
0000
0000
0010
0000
0100
0000
0000
0100
0000
0000
0100
0000
,
1000
0000
0000
1000
0000
0000
0010
0000
0100
0000
0001
0000
0100
0000
0010
0000
,
1000
0000
0001
0000
0100
0000
0001
0000
0010
0000
0000
0100
0000
0000
0200
0000
,
1000
0000
1300
0010
0100
0010
0100
0001
,
1000
0000
0000
1000
0000
0000
0020
0000
0001
0000
0000
0000
0001
0000
0000
0000
,
0100
0000
0100
0030
1000
0001
0010
0100
,
2000
0000
3010
0001
0020
0000
1030
0001
,
2000
0000
3100
0001
0100
1000
0001
1000
,
0010
0000
0000
0010
0000
0000
0100
0000
0001
0000
0000
0001
0000
0000
0010
0000
,
1000
0000
0000
1000
0000
0000
0010
0000
0100
0000
0010
0100
0010
0000
0001
0000
,
2000
0000
3010
1000
0001
0100
0001
0010
,
0200
0310
0001
1000
0100
1000
0010
0100
,
0002
0000
1003
0001
0100
0001
0010
0100
,
0020
0000
0130
1000
0000
0001
0010
0100
,
2000
0000
3001
0010
0100
0010
0001
0100
,
0010
0100
1000
0100
0010
0100
0001
1000
,
0002
0000
0013
0100
2000
0000
3010
0100
,
0002
0000
0000
0000
0013
0000
0000
0000
0100
0000
0000
0010
0000
0000
0010
0000
,
0001
0000
0000
1000
0100
0000
1000
0000
0010
0000
0100
0000
0001
0000
1000
0000
,
0010
0000
0000
1000
0100
0000
0010
0000
0001
0000
0010
0000
0100
0000
1000
0000
,
0001
0000
0000
1000
0010
0000
0001
0000
0010
0000
1000
0000
0100
0000
0010
0000
,
0002
0000
0013
0100
2000
0000
3001
0000
,
1000
0000
0000
0001
0100
0000
0001
0000
0010
0000
0100
0000
1000
0000
0001
0000
,
0010
0000
0000
0001
0100
0000
0010
0000
1000
0000
0010
0000
0100
0000
0001
0000
,
1000
0000
0000
0001
0010
0000
1000
0000
0010
0000
0001
0000
0100
0000
0010
0000
,
0000
0000
1000
0000
0000
1000
0000
1000
0100
0000
0010
0000
0001
0000
0000
0000
,
0010
0100
1000
0002
0000
1003
0001
0100
,
0000
0001
0100
0020
0000
0130
0010
1000
,
0000
0100
0010
0002
0000
0013
0100
1000
,
0000
0001
1000
0200
0000
1300
0010
0001
,
0010
0100
0001
2000
0000
3001
1000
0100
,
0000
1000
0100
0020
0000
0130
0010
0001
,
0000
0100
0010
2000
0000
3010
0100
0001
,
0000
1000
0001
0200
0000
0301
0010
1000
,
0020
0000
0031
1000
0000
1000
0001
1000
,
0010
0000
0001
1000
0000
1000
0100
0001
,
2000
0000
3001
1000
0000
0100
0001
0100
,
2000
0000
3001
0010
0000
1000
0010
0001
,
2001
0000
3100
1000
0000
0010
0100
0001
,
0101
0001
0010
0000
0100
0000
0010
0000
,
1100
0000
0000
0001
0101
0000
0000
1000
,
1010
0000
0011
0000
0010
0100
0010
0100
,
1000
0000
0000
0001
0100
0000
0001
0000
0010
0000
0100
0000
1000
0000
0001
0000
,
0010
0000
0000
0001
0100
0000
0010
0000
1000
0000
0010
0000
0100
0000
0001
0000
,
1000
0000
0000
0001
0010
0000
1000
0000
0010
0000
0001
0000
0100
0000
0010
0000
,
2000
0000
3010
0100
0002
0000
1003
0000
,
0001
0000
0000
1000
0100
0000
1000
0000
0010
0000
0100
0000
0001
0000
1000
0000
,
0010
0000
0000
1000
0100
0000
0010
0000
0001
0000
0010
0000
0100
0000
1000
0000
,
0001
0000
0000
1000
0010
0000
0001
0000
0010
0000
1000
0000
0100
0000
0010
0000
,
0002
0000
0000
0000
0013
0000
0200
0000
0001
0000
0000
0000
0310
0000
0001
0010
,
0001
1000
0010
0100
0010
1000
0100
0010
,
0100
1000
0001
0000
0010
0000
0001
1000
0010
0000
0100
0000
0001
1000
0002
0000
,
0000
0000
1003
0100
1000
0000
0001
0000
0010
0000
0100
0000
1001
0000
0000
0000
,
1000
0001
1000
0010
0100
0001
0100
0010
,
1000
0001
1000
0100
0010
0001
0010
0100
,
1000
0100
0001
0100
1000
0010
0001
0010
,
0110
0000
0000
1010
0000
0000
1001
0000
0000
0011
0000
0000
0110
0000
1001
0000
;

//---------------dance-single - ----------------
#NOTEDATA:;
#CHARTNAME:;
#STEPSTYPE:dance-single;
#DESCRIPTION:;
#CHARTSTYLE:;
#DIFFICULTY:Medium;
#METER:10;
#RADARVALUES:0.463075,0.487373,0.152543,0.266949,0.099153,425.000000,405.000000,20.000000,35.000000,0.000000,0.000000,0.000000,0.000000,0.000000,0.463075,0.487373,0.152543,0.266949,0.099153,425.000000,405.000000,20.000000,35.000000,0.000000,0.000000,0.000000,0.000000,0.000000;
#CREDIT:led_light;
#NOTES:
0000
0000
0000
0000
,
0000
0000
0000
0000
,
0000
0000
0000
0000
,
0000
0000
0000
0000
,
0000
0000
0000
0000
,
1001
0000
0000
0100
0020
0000
0030
0000
,
0110
0000
0000
1000
0002
0000
0003
0000
,
0101
0000
0010
0000
1100
0000
0010
0001
,
2000
0000
3100
0000
0001
0100
0001
0100
,
2000
0100
0001
0100
,
3020
0000
0100
0000
2030
0000
3100
0020
,
0001
0100
0001
0100
,
1000
0000
0100
0000
0031
0100
0010
1000
,
0000
0001
0100
0001
1000
0010
0000
0100
,
0000
0100
0010
0000
1000
0001
0010
0000
,
0200
0000
0300
1000
0002
0000
0003
0100
,
0020
0000
0030
0100
0002
0000
0003
0000
,
1000
0000
0100
0000
1000
0000
0010
0000
1000
0000
0000
0001
0000
0000
2000
0000
,
0100
0000
3001
1000
0010
0100
0010
0100
,
0001
0000
0000
0001
0000
0000
0010
0000
0200
0000
0000
0000
0001
0000
0000
0000
,
0000
0000
0301
0000
0100
0010
0100
0000
,
2000
0000
3100
0010
0002
0000
0013
0100
,
2000
0000
3010
0100
0001
0100
0010
0000
,
1000
0000
0000
1000
0000
0000
0100
0000
0010
0000
0000
0010
0000
0000
0100
0000
,
1000
0000
0000
1000
0000
0000
0010
0000
0200
0000
0000
0000
0300
0000
0000
0000
,
0001
0000
0100
0000
0001
0000
0010
0000
0001
0000
0000
1000
0000
0000
0002
0000
,
0100
0000
1003
0001
0010
0100
0010
0100
,
1000
0000
0000
1000
0000
0000
0010
0000
0200
0000
0000
0000
1000
0000
0000
0000
,
0320
0000
0001
0000
0130
0010
0100
0000
,
0002
0000
0103
0010
2000
0000
3010
0100
,
0002
0000
0013
0100
1000
0100
0010
0000
,
0001
0000
0000
0001
0000
0000
0100
0000
0010
0000
0000
0010
0000
0000
0100
0000
,
0001
0000
0000
0001
0000
0000
0010
0000
0200
0000
0000
0000
0300
0000
0000
0000
,
2100
0000
3001
0010
0000
0010
0001
0100
,
0010
0000
1000
0001
0000
0001
0100
0001
,
0010
0000
0100
0010
0000
0010
0001
1000
,
0100
0000
1000
0001
0000
1000
0010
0001
,
0010
0000
1000
0010
0000
0100
0001
0010
,
0100
1001
0010
1001
,
0101
0000
0000
1000
0010
0000
0000
0001
,
0100
0000
0000
0000
0000
0000
0000
0000
1000
0000
0000
1000
0000
0000
0001
0000
,
1000
0000
0000
0010
0000
0000
0100
0000
0001
0000
0000
0000
0101
0000
0000
0000
,
0001
0000
0000
0010
0000
0000
0100
0000
1000
0000
0000
0000
1100
0000
0000
0000
,
1000
0000
0000
0001
0000
0000
0100
0000
0010
0000
0000
0000
1010
0000
0000
0000
,
1001
0000
0010
0100
0020
0000
0130
0000
,
1000
0000
0000
0100
0000
0000
0010
0000
0001
0000
0010
0000
0100
0000
1000
0000
,
0001
0000
0000
0100
0000
0000
0010
0000
1000
0000
0010
0000
0100
0000
0001
0000
,
1000
0000
0000
0010
0000
0000
0100
0000
0001
0000
0010
0000
0100
0000
1000
0000
,
0000
0000
0001
0000
0000
0001
0000
0000
0001
0000
1000
0000
0001
0000
0000
0000
,
0001
0100
0010
2000
0000
0100
0000
3010
,
0000
0010
0100
0002
0000
0010
0000
0103
,
0000
0001
1000
0200
0000
0010
0000
1300
,
0000
0001
1000
0010
0000
0100
0010
0000
,
1000
0100
0010
0002
0000
0100
0000
0013
,
0000
0010
0100
2000
0000
0010
0000
3100
,
0000
1000
0001
0200
0000
0010
0000
0301
,
0000
1000
0001
0010
0000
0100
0010
0000
,
0001
0000
1000
0010
0000
0010
1000
0000
,
0001
0000
0100
0001
0000
1000
0100
0000
,
1000
0000
0001
0010
0000
0010
0001
1000
,
0001
0000
0100
0001
0000
0010
0100
1000
,
0001
0000
1000
0100
0000
1000
0010
0100
,
0010
0101
0010
1100
,
1001
0000
0000
0001
0100
0000
0000
1000
,
0010
0000
0000
0000
0001
0100
0001
0100
,
0010
0000
0000
1000
0000
0000
0100
0000
0010
0000
0000
0000
0011
0000
0000
0000
,
0100
0000
0000
1000
0000
0000
0010
0000
0100
0000
0000
0000
0101
0000
0000
0000
,
0010
0000
0000
1000
0000
0000
0001
0000
0010
0000
0000
0000
0100
0000
0000
0000
,
1100
0000
0000
0002
0200
0000
0303
0000
,
0100
0000
0000
0001
0000
0000
0010
0000
0100
0000
0010
0000
0010
0000
0000
0000
,
0100
0000
0000
1000
0000
0000
0010
0000
0100
0000
0010
0000
0010
0000
0000
0000
,
1000
0000
0000
0001
0000
0000
0010
0000
0100
0000
1000
0000
0100
0000
0010
0000
,
0001
0000
1000
0020
0100
0000
1030
0001
,
0010
0100
0010
0001
0000
0001
0100
0010
,
1000
0100
1000
0010
1000
0100
1000
0010
,
0000
0100
0001
0010
0100
0000
0110
0000
,
1000
0100
1000
0000
0001
0010
0001
0000
,
1000
0010
1000
0000
0001
0100
0001
0000
,
1000
0100
0010
0100
1000
0010
0100
0010
,
1000
0000
0000
0100
0000
0000
0001
0000
0000
0100
0000
0000
0010
0000
0110
0000
;

//---------------dance-single - ----------------
#NOTEDATA:;
#CHARTNAME:;
#STEPSTYPE:dance-single;
#DESCRIPTION:;
#CHARTSTYLE:;
#DIFFICULTY:Easy;
#METER:7;
#RADARVALUES:0.325787,0.426452,0.312712,0.350848,0.011441,299.000000,258.000000,41.000000,46.000000,0.000000,0.000000,0.000000,0.000000,0.000000,0.325787,0.426452,0.312712,0.350848,0.011441,299.000000,258.000000,41.000000,46.000000,0.000000,0.000000,0.000000,0.000000,0.000000;
#CREDIT:led_light;
#NOTES:
0000
0000
0000
0000
,
0000
0000
0000
0000
,
0000
0000
0000
0000
,
0000
0000
0000
0000
,
0000
0000
0000
0000
,
1001
0000
0020
0030
,
0110
0000
0002
0003
,
1001
0000
0110
0000
,
1100
1100
0101
1010
,
1002
0100
1000
0100
,
2003
0100
3002
0100
,
0023
0100
1000
0100
,
1000
0100
0031
1000
,
0001
0001
1000
0001
,
0001
0010
0100
0010
,
0002
0003
2000
3000
,
0010
0100
0220
0330
,
0001
0010
1000
0010
,
0002
0003
0010
0010
,
0100
1000
0020
0001
,
0000
0031
0001
0010
,
2000
0010
3002
0100
,
2003
0100
3010
0100
,
1000
1100
0001
0101
,
1001
1100
0022
0033
,
1000
0010
0001
0010
,
2000
3000
0010
0010
,
0100
0001
0020
0000
,
2030
0000
3010
0010
,
0002
0010
2003
0100
,
3002
0100
0013
0100
,
0001
0101
1000
1100
,
0010
0101
0220
0330
,
1001
0001
0001
0010
,
1000
0010
0001
1000
,
0001
0000
1000
0100
,
0001
0100
1000
1000
,
1100
0000
0001
1000
,
0010
0101
0010
1100
,
0110
0000
1010
0000
,
0011
0000
0010
0100
,
1000
1000
0001
0011
,
0100
0100
0010
1010
,
0001
0001
1000
1100
,
0020
0030
0002
0003
,
1000
0100
0001
0001
,
1000
0010
0001
0001
,
1000
0000
0100
0000
0001
0000
0100
0010
,
0000
0000
0100
0000
0000
0100
0000
0000
0100
0000
0000
0000
0010
0000
0000
0000
,
0002
0200
0000
0303
,
2000
0200
0000
3300
,
0020
0200
0000
0330
,
2000
0002
3000
0013
,
0200
2000
0000
3300
,
0020
2000
0000
3030
,
0002
2000
0000
3003
,
0010
0100
0100
1000
,
0001
0000
0001
1000
,
0010
0000
0100
0010
0000
0010
0000
0000
,
1000
0000
0001
0001
,
0010
0000
0100
0010
0000
0000
0010
0000
,
1001
0000
0001
0100
,
0110
1000
0001
1000
,
0110
0000
0101
0000
,
1100
0000
0100
0010
,
0001
0001
1000
1100
,
0010
0010
0100
0101
,
1000
1000
0001
0011
,
0200
0300
2000
3000
,
0001
0010
1000
1000
,
0001
0100
1000
1000
,
0001
0010
1000
0010
,
0002
0003
2000
3000
,
0010
0001
0010
1000
,
0100
0101
0010
1010
,
0001
1000
0002
0003
,
0110
0001
0001
0010
,
0110
1000
1000
0010
,
1000
0100
0010
0000
0001
0010
0100
0000
,
1000
0000
0000
1000
0000
0000
0001
0000
0000
0001
0000
0000
0100
0000
0010
0000
;
