#TITLE:ニッポン笑顔百景;
#SUBTITLE:(pocotan Remix);
#ARTIST:pocotan;
#TITLETRANSLIT:Nippon Egao Hyakkei;
#SUBTITLETRANSLIT:;
#ARTISTTRANSLIT:;
#GENRE:Anime/Game;
#CREDIT:;
#BANNER:Nippon Egao Hyakkei (pocotan Remix).png;
#BACKGROUND:Nippon Egao Hyakkei (pocotan Remix)-bg.png;
#LYRICSPATH:;
#CDTITLE:../cdtitle.png;
#MUSIC:Nippon Egao Hyakkei (pocotan Remix).ogg;
#OFFSET:1.227000;
#SAMPLESTART:61.613998;
#SAMPLELENGTH:15.000000;
#LASTBEATHINT:0.718833;
#SELECTABLE:YES;
#BPMS:0.000000=190.000000
;
#STOPS:
;
#BGCHANGES:-99.000=../bg.avi=1.000=0=0=1=====,
99999=-nosongbg-=1.000=0=0=0 // don't automatically add -songbackground-
;
#KEYSOUNDS:;
#ATTACKS:;

//---------------dance-single - ----------------
#NOTES:
     dance-single:
     :
     Beginner:
     5:
     0.252857,0.372196,0.206776,0.008271,0.000000,214.000000,189.000000,25.000000,1.000000,0.000000,0.000000,0.252857,0.372196,0.206776,0.008271,0.000000,214.000000,189.000000,25.000000,1.000000,0.000000,0.000000:
// measure 0
0000
0000
0000
0000
,  // measure 1
0000
0000
0000
0000
,  // measure 2
0000
0000
0000
0000
,  // measure 3
0000
0000
0000
0000
,  // measure 4
0000
0000
0000
0000
,  // measure 5
0010
0000
0100
0000
,  // measure 6
0010
0010
0010
0000
,  // measure 7
0001
0000
1000
0000
,  // measure 8
0001
0001
0001
0000
,  // measure 9
0010
0000
0010
0000
,  // measure 10
0100
0000
0010
0000
,  // measure 11
1000
0000
0100
0000
,  // measure 12
0001
0001
0001
0000
,  // measure 13
0001
0000
0001
0000
,  // measure 14
1000
0000
1000
0000
,  // measure 15
0100
0000
0100
0000
,  // measure 16
1000
1000
1000
0000
,  // measure 17
0010
0000
0010
0000
,  // measure 18
0100
0000
0100
0000
,  // measure 19
0010
0000
0010
0000
,  // measure 20
1000
0000
0001
0000
,  // measure 21
0010
0000
0010
0000
,  // measure 22
0100
0000
0100
0000
,  // measure 23
1000
0000
0001
0000
,  // measure 24
1000
1000
1000
0000
,  // measure 25
1001
0000
0000
0000
,  // measure 26
0100
0000
0000
0000
,  // measure 27
1001
0000
0000
0000
,  // measure 28
0010
0000
0000
0000
,  // measure 29
1000
0000
0100
0000
,  // measure 30
0001
0000
0010
0000
,  // measure 31
0100
0100
0100
0000
,  // measure 32
0100
0100
0200
0000
,  // measure 33
0300
0000
0000
0000
,  // measure 34
0001
0000
0001
0000
,  // measure 35
1000
0000
0000
0000
,  // measure 36
0100
0000
0100
0000
,  // measure 37
0010
0000
0000
0000
,  // measure 38
1001
0000
0000
0000
,  // measure 39
0110
0000
0000
0000
,  // measure 40
1001
0000
0110
0000
,  // measure 41
0100
0100
0100
0000
,  // measure 42
1000
0000
0001
0000
,  // measure 43
1000
0000
0100
0000
,  // measure 44
0001
0000
0001
0000
,  // measure 45
0010
0000
0100
0000
,  // measure 46
1001
0000
0000
0000
,  // measure 47
0110
0000
0000
0000
,  // measure 48
0100
0100
0100
0100
,  // measure 49
0010
0010
0010
0000
,  // measure 50
1000
0000
1000
0000
,  // measure 51
0100
0010
0100
0000
,  // measure 52
0001
0000
0001
0000
,  // measure 53
0100
0010
0100
0000
,  // measure 54
1001
0000
0000
0000
,  // measure 55
0110
0000
0000
0000
,  // measure 56
1001
0000
0110
0000
,  // measure 57
0010
0100
0010
0100
,  // measure 58
0001
0000
0001
0000
,  // measure 59
0010
0100
0010
0000
,  // measure 60
1000
0000
1000
0000
,  // measure 61
0010
0100
0010
0000
,  // measure 62
1001
0000
0000
0000
,  // measure 63
0110
0000
0000
0000
,  // measure 64
1001
0000
0110
0000
,  // measure 65
0100
0010
0100
0010
,  // measure 66
0110
0000
0110
0000
,  // measure 67
1001
0000
1001
0000
,  // measure 68
0100
0100
0100
0100
,  // measure 69
0010
0010
0010
0000
,  // measure 70
0110
0000
0110
0000
,  // measure 71
1001
0000
1001
0000
,  // measure 72
0010
0010
0000
0010
,  // measure 73
0100
0100
0100
0000
,  // measure 74
0001
0000
0001
0000
,  // measure 75
1000
0000
1000
0000
,  // measure 76
0001
0000
0010
0000
,  // measure 77
0001
0000
0100
0100
,  // measure 78
1000
0000
1000
0000
,  // measure 79
0001
0000
0001
0000
,  // measure 80
1000
0000
0100
0000
,  // measure 81
1000
0000
0010
0010
,  // measure 82
0001
0001
0001
0000
,  // measure 83
1000
1000
1000
0000
,  // measure 84
0100
0010
0100
0000
,  // measure 85
0010
0100
0010
0000
,  // measure 86
0001
0001
0001
0000
,  // measure 87
1000
1000
1000
0000
,  // measure 88
0010
0010
0010
0000
,  // measure 89
0100
0100
0100
0000
,  // measure 90
1001
0000
0000
0000
;

//---------------dance-single - ----------------
#NOTES:
     dance-single:
     :
     Challenge:
     18:
     0.900360,1.228247,0.512804,0.082710,0.467313,762.000000,700.000000,62.000000,10.000000,0.000000,0.000000,0.900360,1.228247,0.512804,0.082710,0.467313,762.000000,700.000000,62.000000,10.000000,0.000000,0.000000:
// measure 0
0000
0000
0000
0000
,  // measure 1
0000
0000
0000
0000
,  // measure 2
0000
0000
0000
0000
,  // measure 3
0000
0000
0000
0000
,  // measure 4
0200
0000
0000
0300
,  // measure 5
0110
0000
0001
0000
1000
0100
1000
0000
0100
0000
1000
0000
0001
0100
0001
0000
,  // measure 6
0100
0000
0001
0000
1000
0100
0010
0000
0001
0100
0010
0000
0100
0000
0001
0000
,  // measure 7
1000
0100
0001
0100
1000
0010
0001
0010
,  // measure 8
1000
0000
0100
0000
0010
0000
0001
0000
0100
0010
1000
0001
0100
0000
0000
0000
,  // measure 9
0001
0010
0001
1000
0100
0000
0010
0001
0100
0000
0001
0000
1000
0000
1000
0000
,  // measure 10
0010
0000
0000
0010
0100
0000
0001
0000
0010
0000
0000
0010
0100
0000
1000
0000
,  // measure 11
0001
0000
0000
1000
0010
0000
0010
0000
1000
0000
0001
0100
0010
0000
0010
0000
,  // measure 12
1000
0100
1000
0001
0100
0001
1000
0010
1000
0001
0010
0001
1000
0100
0010
0001
,  // measure 13
0100
0000
0010
0000
0001
0000
0010
0000
0100
0000
0001
0010
0000
0100
0010
0000
,  // measure 14
0100
0000
1000
0000
0010
0000
0100
0000
1000
0000
0100
0010
0100
0000
0001
0000
,  // measure 15
0010
0000
0001
0010
0100
0000
0001
0000
0100
0000
0010
0001
0100
0000
0010
0000
,  // measure 16
1100
0101
0110
1001
,  // measure 17
0012
0000
1003
0001
0010
0001
1000
0001
,  // measure 18
0100
0010
1000
0001
0100
0010
1000
0001
,  // measure 19
0010
0100
1000
0001
0100
0010
1000
0200
,  // measure 20
0000
0310
0001
0200
0000
0310
0001
0010
,  // measure 21
2000
0000
3001
1000
0010
1000
0001
1000
,  // measure 22
0100
0010
0001
1000
0100
0010
0001
1000
,  // measure 23
0010
0100
0010
0000
0010
1000
0100
0001
,  // measure 24
0010
0100
0010
0100
0010
0000
0010
0000
,  // measure 25
1001
0010
0100
0001
0100
0010
1000
0200
,  // measure 26
0000
0310
0001
0100
1000
0000
0101
0000
,  // measure 27
0001
0100
0010
1000
0010
0100
0001
0020
,  // measure 28
0000
0130
1000
0010
0001
0000
1010
0000
,  // measure 29
0100
0001
0010
2000
0000
3001
0100
1000
,  // measure 30
0001
1000
0010
0002
0000
1003
0100
0001
,  // measure 31
0010
1000
0010
0001
0010
0000
0010
0100
,  // measure 32
0010
1000
0010
0001
0020
0000
0000
0000
,  // measure 33
0030
0000
0000
0000
0000
0000
1000
0100
,  // measure 34
0001
0000
1000
0100
0001
0000
1000
0100
,  // measure 35
0010
0000
0001
0010
0100
0000
1000
0000
0001
0000
0000
0000
1000
0000
0010
0000
,  // measure 36
0001
0000
1000
0010
0001
0000
1000
0010
,  // measure 37
0001
0010
1000
0100
0001
0000
0100
0010
,  // measure 38
1001
0100
0100
0100
,  // measure 39
1001
0010
0010
0010
,  // measure 40
1001
0100
1001
0010
,  // measure 41
1000
0000
0001
0000
1000
0000
0001
0000
1000
0001
1000
0001
1000
0001
1000
0001
,  // measure 42
0010
0000
1000
0001
0010
0100
1000
0001
,  // measure 43
0010
0000
0100
1000
0100
0000
1000
0000
0001
0000
0000
0000
0100
0000
0001
0000
,  // measure 44
1000
0000
0100
0001
1000
0010
0100
0001
,  // measure 45
1000
0000
1010
0000
0011
0000
1000
0001
,  // measure 46
0100
0010
0100
0010
0100
0010
0100
0010
,  // measure 47
1001
0010
0100
1001
0100
0010
0100
0010
,  // measure 48
1000
0010
1000
0010
0100
0001
0100
0001
0010
0001
0010
0001
1000
0100
1000
0100
,  // measure 49
0010
0000
1100
0000
0011
0000
0010
0001
,  // measure 50
1000
0100
0010
0001
1000
0100
0010
0001
,  // measure 51
0100
0000
0010
1000
0010
0000
1000
0000
0001
0000
0010
0000
0100
0000
1000
0000
,  // measure 52
0001
0100
0010
1000
0001
0100
0010
1000
,  // measure 53
0001
0000
0010
0000
0100
0000
1000
0000
0100
0000
0010
0100
0010
0000
0001
0000
,  // measure 54
1000
0000
0110
0000
0110
0000
0010
1000
,  // measure 55
0001
0000
0010
0100
0010
0000
1000
0000
0010
0000
0010
0000
0100
0000
0010
0000
,  // measure 56
0001
0000
0011
0000
1000
0000
1010
0100
,  // measure 57
0001
0010
0001
1000
0100
1000
0001
0100
0001
1000
0010
1000
0001
0010
0100
1000
,  // measure 58
0001
0100
0010
1000
0001
0100
0010
1000
,  // measure 59
0100
0000
0010
0001
0010
0000
0001
0000
1000
0000
0010
0000
0100
0000
0001
0000
,  // measure 60
1000
0100
0010
0001
1000
0100
0010
0001
,  // measure 61
1000
0000
0010
0000
0100
0000
0001
0000
0100
0000
0010
0100
0010
0000
1000
0000
,  // measure 62
0001
0000
0110
0000
0110
0000
0010
0001
,  // measure 63
1000
0000
0010
0100
0010
0000
0001
0000
0010
0000
0010
0000
0100
0000
0010
0000
,  // measure 64
1000
0000
1010
0000
0001
0000
0011
0100
,  // measure 65
1000
0010
1000
0001
0100
0001
1000
0100
1000
0001
0010
0001
1000
0010
0100
0001
,  // measure 66
0101
0101
0101
0000
1010
1010
1010
0000
,  // measure 67
1001
1001
1001
0000
0110
0110
0110
0000
,  // measure 68
0001
0000
0000
0100
0010
0000
0010
0000
0100
0000
0100
0000
0010
0000
0010
0000
,  // measure 69
0110
0100
0110
0010
1001
0000
0011
0000
,  // measure 70
1010
1001
1100
0000
0011
1001
0101
0000
,  // measure 71
1010
1001
1100
0000
0011
1001
0101
0000
,  // measure 72
1010
1000
0100
1100
0000
0110
0010
0001
,  // measure 73
1001
1000
1001
0001
1001
0000
0110
0000
,  // measure 74
0100
0001
0100
0000
0001
0000
1000
0000
0100
0010
0100
0010
0000
0100
1000
0000
,  // measure 75
0001
0010
0001
0000
0100
0000
0001
0000
1000
0010
1000
0010
0000
1000
0001
0000
,  // measure 76
0010
0100
0010
0000
0001
0000
1000
0000
0010
0100
0010
0100
0000
0001
1000
0000
,  // measure 77
0100
0010
0001
0000
0010
0100
0000
0100
0010
0001
1000
0010
0100
0001
1000
0100
,  // measure 78
0010
0001
0010
0000
0001
0000
1000
0000
0010
0100
0010
0100
0000
0010
1000
0000
,  // measure 79
0001
0100
0001
0000
0010
0000
0001
0000
1000
0100
1000
0100
0000
1000
0001
0000
,  // measure 80
0100
0010
0100
0000
0001
0000
1000
0000
0100
0010
0100
0010
0000
0001
1000
0000
,  // measure 81
0100
1000
0001
0000
0100
0000
0010
0000
0100
0001
1000
0000
0100
0000
0010
0000
,  // measure 82
0001
0010
0001
0100
0010
1000
0100
1000
,  // measure 83
0010
0100
0001
0010
0001
0100
0010
1000
,  // measure 84
0100
0010
1000
0100
1000
0010
0001
0100
,  // measure 85
1000
0000
0010
0000
1000
0000
0100
0000
0001
0000
0000
0010
0100
0000
0010
0000
,  // measure 86
0001
0001
0100
0100
1000
1000
0010
0010
,  // measure 87
0100
0100
0001
0001
1000
1000
0010
0010
,  // measure 88
1000
0100
1000
0100
0010
0001
0010
0001
1000
0010
1000
0010
0100
0001
0100
0001
,  // measure 89
1000
0100
1000
0001
0100
0001
1000
0010
1000
0001
0010
0001
0100
1000
0100
0001
,  // measure 90
1000
0000
0000
0000
;

//---------------dance-single - ----------------
#NOTES:
     dance-single:
     :
     Hard:
     14:
     0.716034,0.744392,0.223318,0.132336,0.082710,606.000000,579.000000,27.000000,16.000000,0.000000,0.000000,0.716034,0.744392,0.223318,0.132336,0.082710,606.000000,579.000000,27.000000,16.000000,0.000000,0.000000:
// measure 0
0000
0000
0000
0000
,  // measure 1
0000
0000
0000
0000
,  // measure 2
0000
0000
0000
0000
,  // measure 3
0000
0000
0000
0000
,  // measure 4
0000
0000
0000
0000
,  // measure 5
1000
0100
0010
0010
0001
0100
0010
0010
,  // measure 6
0001
0010
1000
0100
0001
0100
1000
0001
,  // measure 7
1000
0010
0001
0010
1000
0001
0010
0100
,  // measure 8
0010
0001
0100
0010
1000
0000
1001
0000
,  // measure 9
0010
0010
0001
0001
1000
0001
0100
0000
,  // measure 10
0010
0000
0000
1000
0010
0000
1000
0000
0100
0000
0000
0010
0001
0000
1000
0000
,  // measure 11
0001
0000
0000
0010
0100
0000
1000
0000
0001
0000
0100
0000
0020
0000
0000
0000
,  // measure 12
0130
0010
0100
0010
0100
0010
0100
0010
,  // measure 13
1000
0000
0100
0000
0001
0000
0100
0000
1000
0000
0000
1000
0000
0000
1000
0000
,  // measure 14
0010
0000
0100
0000
1000
0000
0100
0000
0010
0000
0000
0010
0000
0000
0010
0000
,  // measure 15
0100
0100
1000
0000
0010
0010
0001
0001
,  // measure 16
0100
0100
0011
1010
,  // measure 17
1002
0000
0103
0001
1000
0001
1000
0100
,  // measure 18
0010
0001
0010
0100
0010
0001
0100
0010
,  // measure 19
1000
0010
2000
0000
3001
0100
0010
2000
,  // measure 20
0000
3100
0010
0002
0000
0013
0100
1000
,  // measure 21
0002
0000
0013
0001
1000
0001
1000
0010
,  // measure 22
0100
0001
0100
0010
0100
0001
0010
0100
,  // measure 23
1000
0100
2000
0000
3001
0010
0100
1000
,  // measure 24
0010
0100
0010
0100
0010
0000
0010
0000
,  // measure 25
1001
0001
1000
0001
0010
1000
0010
0002
,  // measure 26
0000
1003
0100
0010
0001
0000
1100
0000
,  // measure 27
0001
0010
0100
1000
0010
0001
0010
2000
,  // measure 28
0000
3001
0100
0010
1000
0000
1001
0000
,  // measure 29
0001
0100
0010
2000
0000
3010
0100
0001
,  // measure 30
1000
0100
0010
0002
0000
0013
0100
1000
,  // measure 31
0010
1000
0010
0100
0010
0000
0010
0001
,  // measure 32
0010
0100
0010
1000
0020
0000
0000
0000
,  // measure 33
0030
0000
0000
0000
0000
0000
1000
0100
,  // measure 34
0001
0000
1000
0010
0001
0000
1000
0100
,  // measure 35
0001
1000
0010
0100
0010
0000
0001
0100
,  // measure 36
1000
0000
0001
0010
1000
0000
0001
0100
,  // measure 37
1000
0001
0010
0100
0010
0000
1000
0001
,  // measure 38
1001
0010
0010
0010
,  // measure 39
1001
0100
0100
0100
,  // measure 40
1001
0100
1001
0010
,  // measure 41
0100
0010
0100
0010
0100
0100
0100
0100
,  // measure 42
0010
0000
0001
0100
0010
0000
0100
0001
,  // measure 43
0010
0001
0010
0100
1000
0000
0100
0010
,  // measure 44
0001
0000
0100
0010
0001
0000
0010
1000
,  // measure 45
0010
0000
0101
0000
1001
0000
0001
0100
,  // measure 46
0020
0100
0100
0130
,  // measure 47
1010
0000
0001
0110
0001
0000
0001
0000
,  // measure 48
1000
0100
0010
0001
1000
0100
0010
0001
,  // measure 49
0100
0000
0100
0000
0110
0000
1000
0100
,  // measure 50
0001
0000
1000
0010
0001
0000
1000
0010
,  // measure 51
0001
1000
0100
0001
1000
0000
0001
0010
,  // measure 52
1000
0000
0001
0100
1000
0000
0001
0100
,  // measure 53
1000
0001
0010
0100
0010
0000
1000
0100
,  // measure 54
0010
0000
0110
0000
0110
0000
0001
0100
,  // measure 55
0010
1000
0100
0001
0100
0000
1000
0100
,  // measure 56
0010
1001
0100
1001
,  // measure 57
0001
0100
0001
0100
0010
1000
0010
1000
,  // measure 58
0002
0000
1003
0100
0010
0001
1000
0100
,  // measure 59
0001
1000
0010
0001
1000
0100
0010
0100
,  // measure 60
1000
0001
1000
0010
0100
0001
1000
0010
,  // measure 61
0001
0010
1000
0001
1000
0100
0010
0001
,  // measure 62
2001
0100
0100
3100
,  // measure 63
1002
0000
0103
0010
1000
0100
0010
0100
,  // measure 64
0110
0000
0001
0000
0110
0000
1000
1000
,  // measure 65
0001
0100
0010
1000
0001
0100
0010
1000
,  // measure 66
0100
0100
0100
0000
0001
0001
0001
0000
,  // measure 67
0010
0010
0010
0000
1000
1000
1000
0000
,  // measure 68
0001
0000
0000
0100
0001
0000
0001
0000
1000
0000
1000
0000
0010
0000
0010
0000
,  // measure 69
0100
0001
0010
0100
1000
0000
1001
0000
,  // measure 70
1000
1000
1000
0000
0001
0001
0001
0000
,  // measure 71
1000
1000
1000
0000
0001
0001
0001
0000
,  // measure 72
0100
0100
0010
0100
0000
0010
0100
0010
,  // measure 73
1000
0100
0001
0010
1000
0000
1001
0000
,  // measure 74
0001
0000
0010
0000
0100
0000
1000
0000
0010
0000
1000
0010
0000
1000
0010
0000
,  // measure 75
0100
0000
0001
0000
1000
0000
0001
0000
0010
0000
0100
0010
0000
0100
0010
0000
,  // measure 76
0100
0000
1000
0000
0100
0000
0010
0000
0001
0000
0100
0010
0000
0100
0010
0000
,  // measure 77
1000
0001
0010
0010
0100
0010
0001
0001
,  // measure 78
1000
0000
0100
0000
0010
0000
0001
0000
0100
0000
0001
0100
0000
0001
0100
0000
,  // measure 79
0010
0000
1000
0000
0001
0000
1000
0000
0100
0000
0010
0100
0000
0010
0100
0000
,  // measure 80
0010
0000
0001
0000
0010
0000
0100
0000
1000
0000
0010
0100
0000
0010
0100
0000
,  // measure 81
0001
0000
1000
0000
0100
0000
0010
0000
0100
1000
0100
0000
1000
0000
0001
0000
,  // measure 82
1000
0010
1000
0010
0100
0001
0100
0001
,  // measure 83
1000
0010
0100
0001
1000
0100
0001
0100
,  // measure 84
1000
0100
1000
0100
0010
0001
0010
0001
,  // measure 85
1000
0000
0100
0000
0010
0000
0001
0000
1000
0000
0000
0010
0001
0000
0010
0000
,  // measure 86
1000
0001
0010
0100
1000
0100
0010
0001
,  // measure 87
1000
0001
0100
0010
1000
0010
0100
0001
,  // measure 88
1000
1000
0100
0100
0010
0010
0001
0001
,  // measure 89
1000
0100
0010
0001
0100
1000
0100
0001
,  // measure 90
1001
0000
0000
0000
;

//---------------dance-single - ----------------
#NOTES:
     dance-single:
     :
     Medium:
     12:
     0.584880,0.669953,0.330841,0.140607,0.016542,495.000000,455.000000,40.000000,17.000000,0.000000,0.000000,0.584880,0.669953,0.330841,0.140607,0.016542,495.000000,455.000000,40.000000,17.000000,0.000000,0.000000:
// measure 0
0000
0000
0000
0000
,  // measure 1
0000
0000
0000
0000
,  // measure 2
0000
0000
0000
0000
,  // measure 3
0000
0000
0000
0000
,  // measure 4
0000
0000
0000
0000
,  // measure 5
1000
0100
1000
0100
0001
0100
1000
0000
,  // measure 6
0001
0010
1000
0010
0001
0010
0001
0000
,  // measure 7
1000
0100
1000
0000
0100
0010
0100
0000
,  // measure 8
1000
0001
0100
0010
1000
0000
1001
0000
,  // measure 9
0001
0100
0001
0000
1000
0000
1001
0000
,  // measure 10
0010
0000
0000
0010
1000
0000
0000
0000
0010
0000
0000
0010
0001
0000
0000
0000
,  // measure 11
0010
0000
0000
1000
0100
0000
0010
0000
0001
0000
0100
0000
0020
0000
0000
0000
,  // measure 12
0130
0010
0100
0010
0100
0010
0100
0000
,  // measure 13
0001
0100
0001
0000
1000
0000
1100
0000
,  // measure 14
1000
0100
1000
0000
0001
0000
0101
0000
,  // measure 15
0100
1000
0100
0000
0010
1000
0010
0000
,  // measure 16
0011
0011
0110
0110
,  // measure 17
1001
0000
0001
0001
0100
0000
0010
0000
,  // measure 18
2000
0000
3100
0100
0010
0000
0002
0000
,  // measure 19
0013
0100
0020
0000
0130
1000
0100
2000
,  // measure 20
0000
3020
0000
0032
0000
0013
0100
0010
,  // measure 21
2000
0000
3001
0001
0010
0000
0100
0000
,  // measure 22
2000
0000
3010
0010
0100
0000
0002
0000
,  // measure 23
0103
0010
0200
0000
0310
1000
0010
1000
,  // measure 24
0100
0010
0100
0000
0010
0000
0010
0000
,  // measure 25
0001
0100
0001
0000
0100
0010
0100
0010
,  // measure 26
0000
1000
0100
0000
1000
0000
1001
0000
,  // measure 27
0001
0010
0100
0000
1000
0010
1000
0010
,  // measure 28
0000
0100
0001
0000
0100
0000
1001
0000
,  // measure 29
0010
1000
0010
1000
0000
1000
0100
0000
,  // measure 30
0010
0001
0010
0001
0000
0001
0100
0000
,  // measure 31
0010
0100
0010
0000
0100
0000
0100
0000
,  // measure 32
0010
0100
0010
0000
0200
0000
0000
0000
,  // measure 33
0300
0000
0000
1001
,  // measure 34
0001
0001
1000
1000
,  // measure 35
0001
0100
0010
0000
1000
0000
0001
0000
,  // measure 36
1000
1000
0001
0001
,  // measure 37
1000
0100
0010
0000
0001
0000
1000
0000
,  // measure 38
1100
0010
0010
0010
,  // measure 39
0101
0010
0010
0010
,  // measure 40
1001
0100
1001
0010
,  // measure 41
0001
1000
0001
1000
0001
1000
0001
0000
,  // measure 42
0100
0000
0010
1000
0010
0000
1000
0100
,  // measure 43
1000
0100
1000
0000
0001
0000
0001
0000
,  // measure 44
0010
0000
0100
1000
0100
0000
1000
0010
,  // measure 45
1000
0000
0010
0000
0110
0000
0001
1000
,  // measure 46
0002
0100
0100
0103
,  // measure 47
2001
3100
1002
0103
,  // measure 48
0010
1000
0010
0000
1000
0100
1000
0000
,  // measure 49
0001
0001
0110
0000
,  // measure 50
0001
0100
1000
0100
,  // measure 51
0001
0100
0001
0000
0100
0000
0010
0000
,  // measure 52
1000
0100
0001
0100
,  // measure 53
1000
0100
1000
0000
0010
0000
0100
0000
,  // measure 54
1001
0110
0110
0000
,  // measure 55
1001
0000
0001
0010
0100
0000
1000
0000
,  // measure 56
0001
0011
1000
1010
,  // measure 57
0100
0010
0100
0010
0100
0010
0100
0000
,  // measure 58
1001
0000
0001
0100
0001
0000
0001
0100
,  // measure 59
0010
1000
0100
0010
0001
0000
1000
0100
,  // measure 60
1000
0000
1000
0100
0010
0001
0100
0010
,  // measure 61
1000
0000
0001
0000
1001
0000
0001
0100
,  // measure 62
0020
0100
0100
0130
,  // measure 63
1001
0000
1000
0100
0020
0000
0130
0000
,  // measure 64
1100
1000
0011
0001
,  // measure 65
0100
0010
0100
0010
0100
0010
0100
0010
,  // measure 66
1000
0100
1000
0000
0001
0010
0001
0000
,  // measure 67
0100
0001
0100
0000
0010
1000
0010
0000
,  // measure 68
0100
0000
0000
0100
0010
0000
0000
0000
0100
0000
0100
0000
0001
0000
0000
0000
,  // measure 69
1000
0100
0010
0000
0001
0000
1001
0000
,  // measure 70
0001
0010
0001
0000
1000
0100
1000
0000
,  // measure 71
0010
1000
0010
0000
0100
0001
0100
0000
,  // measure 72
0010
0100
0010
0100
0000
0001
1000
0000
,  // measure 73
0001
0010
0100
0000
1000
0000
1001
0000
,  // measure 74
0001
0100
0001
0000
1000
0000
1010
0000
,  // measure 75
0100
0001
0100
0000
0001
0000
0011
0000
,  // measure 76
0100
1000
0100
0000
1000
0000
1001
0000
,  // measure 77
0001
0100
0010
0000
0100
0010
1000
0000
,  // measure 78
1000
0100
1000
0000
0001
0000
0011
0000
,  // measure 79
0100
1000
0100
0000
1000
0000
1010
0000
,  // measure 80
0100
0001
0100
0000
0001
0000
1001
0000
,  // measure 81
1000
0100
0010
0000
0100
0010
0001
0000
,  // measure 82
1000
1000
0100
0100
,  // measure 83
0001
0001
0010
0010
,  // measure 84
1000
0100
1000
0000
0100
0001
0100
0000
,  // measure 85
0001
0010
0001
0000
0010
1000
0010
0000
,  // measure 86
1000
0100
0010
0000
0100
0010
0001
0000
,  // measure 87
0001
0100
0010
0000
0100
0010
1000
0000
,  // measure 88
1000
0100
0010
0001
1000
0100
0010
0001
,  // measure 89
0100
0010
1000
0001
1000
0100
0010
0001
,  // measure 90
1001
0000
0000
0000
;

//---------------dance-single - ----------------
#NOTES:
     dance-single:
     :
     Easy:
     10:
     0.461996,0.521075,0.322570,0.107523,0.000000,391.000000,352.000000,39.000000,13.000000,0.000000,0.000000,0.461996,0.521075,0.322570,0.107523,0.000000,391.000000,352.000000,39.000000,13.000000,0.000000,0.000000:
// measure 0
0000
0000
0000
0000
,  // measure 1
0000
0000
0000
0000
,  // measure 2
0000
0000
0000
0000
,  // measure 3
0000
0000
0000
0000
,  // measure 4
0000
0000
0000
0000
,  // measure 5
0010
0010
1000
1000
,  // measure 6
0100
0001
0010
1010
,  // measure 7
0001
0011
0001
0101
,  // measure 8
1000
0010
0100
1001
,  // measure 9
0001
0010
0001
0000
0100
0000
0100
0000
,  // measure 10
0010
0011
0010
1010
,  // measure 11
2000
3100
0002
0013
,  // measure 12
1000
0100
1000
0100
0010
0000
1001
0000
,  // measure 13
0001
0100
0001
0000
0100
0000
1100
0000
,  // measure 14
1000
0010
1000
0000
0010
0000
1010
0000
,  // measure 15
0010
0011
0001
0101
,  // measure 16
0010
0010
0110
0010
,  // measure 17
1001
0000
0100
1000
0100
0000
1000
0000
,  // measure 18
0001
0000
0100
0001
0100
0000
0010
0000
,  // measure 19
1000
0001
1000
0000
0001
0000
0001
0000
,  // measure 20
1000
0100
0001
0100
,  // measure 21
1001
0000
0010
1000
0010
0000
1000
0000
,  // measure 22
0001
0000
0010
0001
0010
0000
0100
0000
,  // measure 23
1000
0001
1000
0000
0001
1000
0001
0000
,  // measure 24
0100
0100
0100
0100
,  // measure 25
1001
0000
0100
0000
1000
0010
1000
0000
,  // measure 26
0100
0010
0001
0000
,  // measure 27
0001
0000
0010
0000
0001
0100
0001
0000
,  // measure 28
0010
0100
1000
0000
,  // measure 29
0001
0100
0001
0000
0010
0000
0010
0000
,  // measure 30
1000
0100
1000
0000
0010
0000
0010
0000
,  // measure 31
0100
0100
0010
0010
,  // measure 32
1000
0001
2000
0000
,  // measure 33
3000
0000
0000
0000
,  // measure 34
0001
0000
0001
0000
,  // measure 35
0100
0001
0100
0000
,  // measure 36
1000
0000
1000
0000
,  // measure 37
0100
1000
0100
0000
,  // measure 38
0110
0100
0100
0000
,  // measure 39
1001
0001
0001
0000
,  // measure 40
0110
0010
0110
0100
,  // measure 41
0001
0100
0001
0000
2000
0000
3020
0000
,  // measure 42
0130
0100
0010
0010
,  // measure 43
0100
0001
1000
0000
0001
0000
0000
0000
,  // measure 44
0010
0010
0100
0100
,  // measure 45
1000
1000
0010
0000
,  // measure 46
1001
0100
0100
0000
,  // measure 47
1001
0000
0010
0100
0010
0000
0000
0000
,  // measure 48
2000
3200
0302
0023
,  // measure 49
1030
1000
1000
0000
,  // measure 50
1001
0000
0001
0100
0001
0000
1000
0010
,  // measure 51
0001
0000
0010
0000
1000
0000
0001
0010
,  // measure 52
0001
0000
1000
0100
1000
0000
0001
0010
,  // measure 53
1000
0000
0010
0000
0001
0000
1000
0001
,  // measure 54
2000
0010
3010
0000
,  // measure 55
0002
0010
0013
0000
,  // measure 56
1100
0100
0101
0100
,  // measure 57
1000
0100
1000
0000
0100
0010
0001
0000
,  // measure 58
1001
0000
1000
0100
1000
0000
0001
0010
,  // measure 59
1000
0000
0010
0000
0001
0000
1000
0010
,  // measure 60
1000
0000
0001
0100
0001
0000
1000
0010
,  // measure 61
0001
0000
0010
0000
1000
0000
0001
1000
,  // measure 62
0002
0010
0013
0000
,  // measure 63
2000
0010
3010
0000
,  // measure 64
0101
0100
1100
0100
,  // measure 65
0001
0100
0001
0000
0100
0010
1000
0000
,  // measure 66
1001
0000
0101
0000
,  // measure 67
1100
0000
0011
0000
,  // measure 68
1000
0000
1000
0000
0001
0010
0001
0000
,  // measure 69
1000
0100
1000
0000
0010
0000
0000
0000
,  // measure 70
1001
0000
0011
0000
,  // measure 71
1010
0000
0101
0000
,  // measure 72
1000
0000
0001
0100
0000
0100
0001
0000
,  // measure 73
1000
0010
1000
0000
0100
0000
0000
0000
,  // measure 74
0010
0001
0010
0000
0100
0000
0100
0000
,  // measure 75
1000
1000
0010
0100
,  // measure 76
0010
1000
0010
0000
0100
0000
0100
0000
,  // measure 77
0001
0001
1000
0110
,  // measure 78
0001
0100
0001
0000
1000
0000
1000
0000
,  // measure 79
0010
0010
1000
0001
,  // measure 80
0010
0100
0010
0000
0100
0000
0100
0000
,  // measure 81
1000
1000
0001
0110
,  // measure 82
1000
1000
0100
0100
,  // measure 83
0001
0001
0010
0010
,  // measure 84
1000
0100
0001
0100
,  // measure 85
1000
0010
0001
0110
,  // measure 86
1000
0001
1000
0000
0001
0000
0001
0000
,  // measure 87
0010
0010
0100
0100
,  // measure 88
1000
0100
0010
0000
0001
0000
0100
0000
,  // measure 89
0010
1000
0100
0001
,  // measure 90
1001
0000
0000
0000
;
