#VERSION:0.83;
#TITLE:Narkotik Kal;
#SUBTITLE:;
#ARTIST:Hard Bass School;
#TITLETRANSLIT:;
#SUBTITLETRANSLIT:;
#ARTISTTRANSLIT:;
#GENRE:World Music;
#ORIGIN:;
#CREDIT:;
#BANNER:Narkotik Kal.png;
#BACKGROUND:Narkotik Kal-bg.png;
#PREVIEWVID:;
#JACKET:Narkotik Kal-jacket.png;
#CDIMAGE:;
#DISCIMAGE:;
#LYRICSPATH:;
#CDTITLE:../cdtitle.png;
#MUSIC:Narkotik Kal.ogg;
#OFFSET:0.908000;
#SAMPLESTART:96.341461;
#SAMPLELENGTH:15.000000;
#SELECTABLE:YES;
#BPMS:0.000=150.000;
#STOPS:;
#DELAYS:;
#WARPS:;
#TIMESIGNATURES:0.000=4=4;
#TICKCOUNTS:0.000=4;
#COMBOS:0.000=1;
#SPEEDS:0.000=1.000=0.000=0;
#SCROLLS:0.000=1.000;
#FAKES:;
#LABELS:0.000=Song Start;
#BGCHANGES:-99.000=../bg.avi=1.000=0=0=1=====,
99999=-nosongbg-=1.000=0=0=0 // don't automatically add -songbackground-
;
#KEYSOUNDS:;
#ATTACKS:
;

//---------------dance-single - ----------------
#NOTEDATA:;
#CHARTNAME:;
#STEPSTYPE:dance-single;
#DESCRIPTION:;
#CHARTSTYLE:;
#DIFFICULTY:Beginner;
#METER:4;
#RADARVALUES:0.157578,0.244400,0.021628,0.086513,0.000000,153.000000,150.000000,3.000000,12.000000,0.000000,0.000000,0.000000,0.000000,0.000000,0.157578,0.244400,0.021628,0.086513,0.000000,153.000000,150.000000,3.000000,12.000000,0.000000,0.000000,0.000000,0.000000,0.000000;
#CREDIT:led_light;
#NOTES:
// measure 0
0000
0000
0000
0000
,  // measure 1
0000
0000
0000
0000
,  // measure 2
0000
0000
0000
0000
,  // measure 3
0000
0000
0000
0000
,  // measure 4
0000
0000
0000
0000
,  // measure 5
0000
0000
0000
0000
,  // measure 6
0000
0000
0000
0000
,  // measure 7
1001
0000
0000
0000
,  // measure 8
0000
0000
0000
0000
,  // measure 9
1000
0000
0001
0000
,  // measure 10
1000
0000
0001
0000
,  // measure 11
0010
0000
0100
0000
,  // measure 12
0010
0000
0100
0000
,  // measure 13
1000
0000
1000
0000
,  // measure 14
0001
0000
1000
0000
,  // measure 15
0010
0000
0100
0000
,  // measure 16
0001
0000
0001
0000
,  // measure 17
1000
1000
1000
0000
,  // measure 18
0001
0000
1000
0000
,  // measure 19
0010
0010
0010
0000
,  // measure 20
0001
0000
0010
0000
,  // measure 21
1000
1000
1000
0000
,  // measure 22
0001
0000
1000
0000
,  // measure 23
0100
0100
0100
0000
,  // measure 24
0010
0020
0030
0000
,  // measure 25
0001
0001
0001
0000
,  // measure 26
1000
0000
0001
0000
,  // measure 27
0100
0100
0100
0000
,  // measure 28
1000
0000
0100
0000
,  // measure 29
0001
0001
0001
0000
,  // measure 30
1000
0000
0001
0000
,  // measure 31
0020
0030
0010
0000
,  // measure 32
0100
0000
0100
0000
,  // measure 33
0020
0000
0000
0000
,  // measure 34
0030
0000
0000
0000
,  // measure 35
0002
0000
0003
0000
,  // measure 36
0002
0000
0003
0000
,  // measure 37
0200
0000
0300
0000
,  // measure 38
0200
0000
0300
0000
,  // measure 39
2000
0000
3000
0000
,  // measure 40
2000
0000
3000
0000
,  // measure 41
0020
0000
0030
0000
,  // measure 42
0020
0000
0030
0000
,  // measure 43
0001
0001
0001
0000
,  // measure 44
0001
0001
0001
0000
,  // measure 45
0010
0010
0010
0000
,  // measure 46
0010
0010
0010
0000
,  // measure 47
1000
1000
1000
0000
,  // measure 48
1000
1000
1000
0000
,  // measure 49
0100
0100
0100
0000
,  // measure 50
0100
0100
0100
0000
,  // measure 51
1001
0000
0000
0000
,  // measure 52
0000
0000
0000
0000
,  // measure 53
0010
0010
0010
0000
,  // measure 54
0100
0000
0010
0000
,  // measure 55
1000
1000
1000
0000
,  // measure 56
0100
0000
0010
0000
,  // measure 57
0001
0001
0001
0000
,  // measure 58
1000
0000
0001
0000
,  // measure 59
0010
0010
0010
0000
,  // measure 60
1000
0000
0001
0000
,  // measure 61
0100
0100
0100
0000
,  // measure 62
0010
0000
0100
0000
,  // measure 63
1000
1000
1000
0000
,  // measure 64
0010
0000
0100
0000
,  // measure 65
0001
0001
0001
0000
,  // measure 66
1000
0000
0001
0000
,  // measure 67
0100
0100
0100
0000
,  // measure 68
0110
0000
0000
0000
,  // measure 69
1000
0000
0000
0000
,  // measure 70
0000
0000
0000
0000
,  // measure 71
1000
0000
0000
0000
,  // measure 72
0000
0000
0000
0000
,  // measure 73
0001
0000
0000
0000
,  // measure 74
0000
0000
0000
0000
,  // measure 75
0001
0000
0000
0000
,  // measure 76
0000
0000
0000
0000
,  // measure 77
1000
0000
1000
0000
,  // measure 78
1000
0000
1000
0000
,  // measure 79
0001
0000
0001
0000
,  // measure 80
0001
0000
0001
0000
,  // measure 81
1000
0000
1000
0000
,  // measure 82
0001
0000
0001
0000
,  // measure 83
0010
0010
0010
0010
,  // measure 84
0020
0000
0000
0030
;

//---------------dance-single - ----------------
#NOTEDATA:;
#CHARTNAME:;
#STEPSTYPE:dance-single;
#DESCRIPTION:;
#CHARTSTYLE:;
#DIFFICULTY:Easy;
#METER:7;
#RADARVALUES:0.326485,0.488800,0.338844,0.100932,0.000000,317.000000,270.000000,47.000000,14.000000,0.000000,0.000000,0.000000,0.000000,0.000000,0.326485,0.488800,0.338844,0.100932,0.000000,317.000000,270.000000,47.000000,14.000000,0.000000,0.000000,0.000000,0.000000,0.000000;
#CREDIT:led_light;
#NOTES:
// measure 0
0000
0000
0000
0000
,  // measure 1
0000
0000
0000
0000
,  // measure 2
0000
0000
0000
0000
,  // measure 3
0000
0000
0000
0000
,  // measure 4
0000
0000
0000
0000
,  // measure 5
0000
0000
0000
0000
,  // measure 6
0000
0000
0000
0000
,  // measure 7
1001
0000
0000
0000
,  // measure 8
0000
0000
0000
0000
,  // measure 9
0110
0100
0010
0010
,  // measure 10
0100
0001
1000
0100
,  // measure 11
0010
0010
0100
0100
,  // measure 12
0010
0001
1000
0010
,  // measure 13
0000
0001
0010
0010
,  // measure 14
1000
0001
0010
0100
,  // measure 15
0010
0010
0001
1000
,  // measure 16
1200
0300
0201
0300
,  // measure 17
1001
0100
0010
1001
,  // measure 18
0010
0101
0010
1100
,  // measure 19
0001
1000
0010
0011
,  // measure 20
1000
1010
0001
0101
,  // measure 21
1000
0001
0010
0110
,  // measure 22
1000
0002
0003
0001
,  // measure 23
1000
0010
0001
1000
,  // measure 24
0100
0020
0030
0010
,  // measure 25
1001
0100
0010
1001
,  // measure 26
0010
1100
0010
0101
,  // measure 27
1000
0001
0010
1010
,  // measure 28
0001
0011
1000
1100
,  // measure 29
0001
1000
0010
0110
,  // measure 30
0001
0010
0100
1000
,  // measure 31
0110
0001
1000
1000
,  // measure 32
1001
0010
0100
0010
,  // measure 33
0002
0000
0000
0000
,  // measure 34
1003
0000
0000
0000
,  // measure 35
2001
0100
3100
0100
,  // measure 36
0001
0001
0001
0001
,  // measure 37
0010
0010
0010
0010
,  // measure 38
1000
1000
1000
1000
,  // measure 39
0002
0100
0103
0100
,  // measure 40
1000
1000
1000
1000
,  // measure 41
0010
0010
0010
0010
,  // measure 42
0001
0001
0001
0001
,  // measure 43
1001
0010
0100
0100
,  // measure 44
0010
0010
0001
0100
,  // measure 45
1000
1000
0001
0001
,  // measure 46
0010
1000
0100
0010
,  // measure 47
0001
0100
0010
0010
,  // measure 48
0100
0100
0001
0010
,  // measure 49
1000
1000
0001
0001
,  // measure 50
0100
1000
0010
0100
,  // measure 51
1001
0000
0100
0000
,  // measure 52
0100
0000
0100
0000
,  // measure 53
0010
0010
0010
1100
,  // measure 54
0001
0010
0100
1000
,  // measure 55
0010
0010
0010
0101
,  // measure 56
0010
1000
0100
0001
,  // measure 57
0100
0100
0100
0011
,  // measure 58
1000
0100
0010
0001
,  // measure 59
0100
0100
0100
1010
,  // measure 60
0100
0001
0010
0100
,  // measure 61
1001
0100
0100
1010
,  // measure 62
0001
0010
1000
0100
,  // measure 63
0001
0001
0001
0110
,  // measure 64
1000
0100
0010
0001
,  // measure 65
1000
0010
0010
0101
,  // measure 66
1000
0100
0001
0010
,  // measure 67
1000
1000
1000
0110
,  // measure 68
2002
0000
0000
3003
,  // measure 69
0110
0001
0000
0001
,  // measure 70
0000
0001
0000
0002
,  // measure 71
0003
1000
0000
1000
,  // measure 72
0000
1000
0000
2000
,  // measure 73
3000
0100
0000
0100
,  // measure 74
0000
0100
0000
0200
,  // measure 75
0300
0010
0000
0010
,  // measure 76
0000
0010
0000
0020
,  // measure 77
0130
0100
0100
0011
,  // measure 78
1000
0100
0010
0001
,  // measure 79
0100
0100
0100
1010
,  // measure 80
0100
0001
0010
1000
,  // measure 81
0110
0100
1001
0100
,  // measure 82
0110
0010
1001
0010
,  // measure 83
1010
1100
0101
0011
,  // measure 84
1200
0000
0000
0301
;

//---------------dance-single - ----------------
#NOTEDATA:;
#CHARTNAME:;
#STEPSTYPE:dance-single;
#DESCRIPTION:;
#CHARTSTYLE:;
#DIFFICULTY:Medium;
#METER:10;
#RADARVALUES:0.417118,0.488800,0.180236,0.122561,0.014419,405.000000,380.000000,25.000000,17.000000,0.000000,0.000000,0.000000,0.000000,0.000000,0.417118,0.488800,0.180236,0.122561,0.014419,405.000000,380.000000,25.000000,17.000000,0.000000,0.000000,0.000000,0.000000,0.000000;
#CREDIT:led_light;
#NOTES:
// measure 0
0000
0000
0000
0000
,  // measure 1
0000
0000
0000
0000
,  // measure 2
0000
0000
0000
0000
,  // measure 3
0000
0000
0000
0000
,  // measure 4
0000
0000
0000
0000
,  // measure 5
0000
0000
0000
0000
,  // measure 6
0000
0000
0000
0000
,  // measure 7
1001
0000
0000
0000
,  // measure 8
0000
0000
0000
0000
,  // measure 9
0110
0000
1000
0000
1000
0100
0010
0000
,  // measure 10
0001
0000
0001
0000
1000
0100
1000
0000
,  // measure 11
0001
0000
1000
0000
0010
0001
0010
0000
,  // measure 12
0100
0000
0100
1000
0100
0001
1000
0000
,  // measure 13
0001
0000
0101
0000
0001
0010
0100
0000
,  // measure 14
0010
0001
0010
0000
0100
1000
0001
0000
,  // measure 15
1000
0000
1100
0000
1000
0010
0100
0000
,  // measure 16
2001
3100
1001
0100
,  // measure 17
0110
0000
0001
0000
0001
0010
0100
0000
,  // measure 18
1000
0000
1000
0000
0001
0010
0001
0000
,  // measure 19
1000
0010
0100
0000
1000
0100
0010
0000
,  // measure 20
0001
0010
0100
0001
0010
0000
0011
0000
,  // measure 21
1000
0100
1000
0000
0010
0001
0010
0000
,  // measure 22
1000
0100
1000
0010
0000
0010
0100
0000
,  // measure 23
0001
0100
0001
0000
0010
1000
0010
0000
,  // measure 24
0001
0100
0002
0000
0003
0010
0100
0000
,  // measure 25
0110
0000
0200
0000
1300
0010
0100
0000
,  // measure 26
0001
0100
0001
0000
1000
0010
1000
0000
,  // measure 27
0001
1000
0100
0000
0001
0100
0001
0000
,  // measure 28
0100
0000
0010
1000
0010
0001
1000
0000
,  // measure 29
0110
0000
0001
0000
0001
0100
0010
0000
,  // measure 30
0100
0001
0100
0000
0010
1000
0001
0000
,  // measure 31
0110
0000
1000
0000
1000
0100
0010
0000
,  // measure 32
0001
0010
0100
0000
1000
0010
0100
0000
,  // measure 33
0002
0000
0000
0000
,  // measure 34
1003
0000
0000
0000
,  // measure 35
2100
0100
3100
0100
,  // measure 36
0100
0100
0100
0100
,  // measure 37
0001
0001
0001
0001
,  // measure 38
0001
0001
0001
0001
,  // measure 39
0010
0010
0010
0010
,  // measure 40
0010
0010
0010
0010
,  // measure 41
1000
1000
1000
1000
,  // measure 42
1000
0000
1000
0000
1000
0000
1000
0001
,  // measure 43
0100
0010
0100
0010
0100
0000
0110
0000
,  // measure 44
0001
0010
0100
1000
0001
0000
0001
0000
,  // measure 45
0010
0100
0010
0100
0010
0000
0110
0000
,  // measure 46
0001
0100
0010
1000
0001
0000
0001
0000
,  // measure 47
0010
0100
0010
0100
0010
0000
0011
0000
,  // measure 48
0100
1000
0010
0100
0001
0000
0001
0000
,  // measure 49
0100
0010
0100
0010
0100
0000
0101
0000
,  // measure 50
1000
0100
0010
0001
0020
0200
0000
0330
,  // measure 51
1002
0000
0103
0000
,  // measure 52
2000
0000
3100
0000
,  // measure 53
1000
0100
0010
0001
0001
0000
0110
0000
,  // measure 54
1000
0001
0010
0000
0001
1000
0010
0100
,  // measure 55
0001
0010
0100
1000
1000
0000
0110
0000
,  // measure 56
0001
1000
0010
0000
0001
0010
1000
0001
,  // measure 57
0001
0100
0010
1000
1000
0000
0110
0000
,  // measure 58
0001
1000
0010
0000
1000
0001
0010
0100
,  // measure 59
1000
0010
0100
0001
0001
0000
0110
0000
,  // measure 60
1000
0001
0010
0000
1000
0010
0001
1000
,  // measure 61
1000
0100
0010
0001
0001
0000
0010
0100
,  // measure 62
1000
1000
0001
1000
0010
0000
0200
0000
,  // measure 63
0301
0010
0100
1000
1000
0000
0100
0010
,  // measure 64
0001
1000
0010
0001
0010
0000
1000
0000
,  // measure 65
0001
0010
0100
1000
1000
0000
0100
0010
,  // measure 66
0001
0001
1000
0001
0100
0000
0010
0000
,  // measure 67
1000
0100
0010
0001
0001
0000
0010
0000
,  // measure 68
0220
0000
0000
0000
0000
0000
0000
0330
,  // measure 69
1001
0100
0000
0100
,  // measure 70
0000
0100
0000
0200
,  // measure 71
0300
1000
0000
1000
,  // measure 72
0000
1000
0000
2000
,  // measure 73
3000
0010
0000
0010
,  // measure 74
0000
0010
0000
0020
,  // measure 75
0030
0001
0000
0001
,  // measure 76
0000
0001
0000
0002
,  // measure 77
1003
0100
0001
0100
0100
0000
0110
0000
,  // measure 78
0001
1000
0100
1000
0001
0000
0001
0000
,  // measure 79
1000
0010
0001
0010
0010
0000
0110
0000
,  // measure 80
0001
1000
0010
1000
0001
0000
0001
0000
,  // measure 81
1000
0100
1000
0000
0100
0001
0100
0000
,  // measure 82
0001
0010
0001
0000
0010
1000
0010
0000
,  // measure 83
1000
0000
1000
0100
0000
0100
0001
0000
0001
0010
0000
0010
,  // measure 84
2000
0000
0000
3001
;

//---------------dance-single - ----------------
#NOTEDATA:;
#CHARTNAME:;
#STEPSTYPE:dance-single;
#DESCRIPTION:;
#CHARTSTYLE:;
#DIFFICULTY:Hard;
#METER:13;
#RADARVALUES:0.535559,0.611000,0.216283,0.187445,0.133375,520.000000,490.000000,30.000000,26.000000,0.000000,0.000000,0.000000,0.000000,0.000000,0.535559,0.611000,0.216283,0.187445,0.133375,520.000000,490.000000,30.000000,26.000000,0.000000,0.000000,0.000000,0.000000,0.000000;
#CREDIT:led_light;
#NOTES:
// measure 0
0000
0000
0000
0000
,  // measure 1
0000
0000
0000
0000
,  // measure 2
0000
0000
0000
0000
,  // measure 3
0000
0000
0000
0000
,  // measure 4
0000
0000
0000
0000
,  // measure 5
0000
0000
0000
0000
,  // measure 6
0000
0000
0000
0000
,  // measure 7
1001
0000
0000
0000
,  // measure 8
0000
0000
0000
0000
,  // measure 9
0110
0000
0000
0000
0001
0000
1000
0000
0100
0010
0000
0010
0001
0000
0000
0000
,  // measure 10
1000
0100
0010
0100
1000
0001
0100
0000
,  // measure 11
0110
0000
0010
0000
1000
0000
0001
0000
0010
0100
0000
0100
1000
0000
0000
0000
,  // measure 12
0001
0100
0010
0100
0001
0010
0100
1000
,  // measure 13
0001
0000
0000
0000
0101
0000
0001
0000
0010
0100
0000
0100
0010
0000
0001
0000
,  // measure 14
1000
0010
0100
0010
1000
0100
0010
0001
,  // measure 15
1000
0000
0100
0000
0001
0000
0100
0000
1000
0100
1000
0000
0001
0000
0100
0000
,  // measure 16
0110
0000
1000
0100
0000
0000
0110
0000
0001
0100
0000
0000
,  // measure 17
0110
0000
1000
0000
0001
0000
1000
0000
0100
0010
0000
0010
0001
0000
1000
0000
,  // measure 18
0010
0100
0010
0001
0010
1000
0001
0010
,  // measure 19
0100
0000
0001
0000
0100
0000
1000
0000
0001
0010
0000
0010
1000
0000
0010
0000
,  // measure 20
0001
1000
0010
0100
1000
0100
0010
1000
,  // measure 21
0001
0000
0010
0000
0100
0000
0010
0000
0001
0100
0000
0100
0010
0000
1000
0000
,  // measure 22
0001
1000
0100
0020
0001
0031
1000
0001
,  // measure 23
1000
0000
0010
0000
0100
0000
0001
0000
0010
0100
0000
0100
1000
0000
0001
0000
,  // measure 24
0010
0100
0020
0001
0031
1000
0010
0100
,  // measure 25
0110
0000
0001
0000
1000
0000
0001
0000
0010
0100
0000
0100
1000
0000
0001
0000
,  // measure 26
0100
0010
0100
1000
0100
0001
0010
0000
,  // measure 27
0110
0000
0100
0000
0010
0000
0001
0000
1000
0100
0000
0100
0001
0000
0100
0000
,  // measure 28
1000
0001
0010
0100
0001
0100
0010
0001
,  // measure 29
0011
0000
0000
0000
1000
0000
0001
0000
1000
0010
0000
0010
0100
0000
0001
0000
,  // measure 30
0010
0100
1000
0100
0010
0010
0001
1000
,  // measure 31
2001
0000
0000
0000
3100
0000
1000
0000
0010
0100
0000
0100
0001
0000
1000
0000
,  // measure 32
1001
0001
0010
1000
0001
0001
0100
1000
,  // measure 33
0002
0000
0000
0000
,  // measure 34
1003
0000
0000
0000
,  // measure 35
2100
0000
0100
0000
3100
0000
0100
0020
,  // measure 36
0001
0001
0001
0001
,  // measure 37
0032
0000
0100
0000
0103
0000
0100
0020
,  // measure 38
1000
1000
2030
0001
,  // measure 39
3002
0000
0010
0000
0013
0000
0010
0200
,  // measure 40
0010
0010
0010
0010
,  // measure 41
2300
0000
0100
0000
3100
0000
0100
0020
,  // measure 42
0100
0000
0100
0000
0100
0000
0130
0010
,  // measure 43
1001
0010
0100
0010
1000
0000
0110
0001
,  // measure 44
1000
1000
0100
0010
0001
2000
0100
0000
,  // measure 45
3001
0100
0010
0100
1000
0000
0110
0001
,  // measure 46
1000
1000
0010
0100
0001
1000
0010
0010
,  // measure 47
1000
0100
0010
0100
0001
0000
0110
1000
,  // measure 48
0001
0001
0010
0100
1000
0002
0010
0000
,  // measure 49
1003
0010
0100
0010
0001
0000
0110
1000
,  // measure 50
0001
0001
0100
0010
1000
0001
0100
0010
,  // measure 51
1001
0000
0000
0002
0103
0000
0000
2000
,  // measure 52
3100
0000
0000
0002
0103
0000
0000
0000
,  // measure 53
1000
0000
0100
0000
0001
0000
0100
0000
1000
0000
0000
0100
0001
0000
0100
0000
,  // measure 54
1000
0000
0001
0000
1000
0000
0010
0000
0001
0000
1000
0000
0100
0010
0100
0000
,  // measure 55
0001
0000
0010
0000
1000
0000
0010
0000
0001
0000
0000
1000
0100
0000
1000
0000
,  // measure 56
0010
0000
0001
0000
0010
0000
1000
0000
0001
0000
0010
0000
0100
1000
0001
0000
,  // measure 57
1000
0000
0010
0000
0001
0000
0010
0000
1000
0000
0000
0010
0001
0000
0010
0000
,  // measure 58
1000
0000
0001
0000
1000
0000
0100
0000
0001
0000
1000
0000
0010
0100
0010
0000
,  // measure 59
0001
0000
0100
0000
1000
0000
0100
0000
0001
0000
0000
1000
0010
0000
1000
0000
,  // measure 60
0100
0000
0001
0000
0100
0000
1000
0000
0001
0000
0100
0000
0010
1000
0001
0000
,  // measure 61
1000
0100
0001
0100
1000
0000
1100
0001
,  // measure 62
1000
0010
0001
0010
1000
0001
0010
0100
,  // measure 63
0010
0010
0001
1000
0100
0000
0110
0001
,  // measure 64
1000
0010
0001
0010
1000
0001
0010
0100
,  // measure 65
1000
0100
0001
0100
1000
0000
1100
0001
,  // measure 66
1000
0010
0001
0010
1000
0001
0010
0100
,  // measure 67
0010
0010
0001
1000
0100
0000
0110
0001
,  // measure 68
1001
0000
0000
0000
0000
0200
0000
0310
,  // measure 69
2001
0100
0000
0100
,  // measure 70
0000
0100
0000
3200
,  // measure 71
0302
0100
0000
0100
,  // measure 72
0000
0100
0000
0203
,  // measure 73
1300
0100
0000
0100
,  // measure 74
0000
0100
0000
0200
,  // measure 75
0301
0010
0000
0010
,  // measure 76
0000
0010
0000
0020
,  // measure 77
1030
0001
0100
0010
1000
0000
1000
0001
,  // measure 78
1000
0100
0010
0001
1000
0000
1000
0000
,  // measure 79
0001
1000
0010
0100
0001
0000
0001
1000
,  // measure 80
0001
0010
0100
1000
0001
0000
0001
0000
,  // measure 81
1001
1000
0100
0000
1001
0001
0100
0000
,  // measure 82
1010
1000
0100
0000
0011
0001
0100
0000
,  // measure 83
1100
0000
0010
0001
0000
0100
0010
0000
1000
0100
0000
0010
,  // measure 84
0002
0000
0000
1003
;
