#TITLE:Monster;
#SUBTITLE:;
#ARTIST:Basset;
#TITLETRANSLIT:;
#SUBTITLETRANSLIT:;
#ARTISTTRANSLIT:;
#GENRE:Friday Night Funkin';
#CREDIT:;
#BANNER:Monster.png;
#BACKGROUND:../bg.png;
#LYRICSPATH:;
#CDTITLE:../cdtitle.png;
#MUSIC:Monster.ogg;
#OFFSET:2.515000;
#SAMPLESTART:12.635000;
#SAMPLELENGTH:15.000000;
#LASTBEATHINT:2.398750;
#SELECTABLE:YES;
#BPMS:0.000000=95.000000
,70.000000=98.000000
,71.500000=101.000000
,72.250000=102.500000
,73.000000=103.000000
,74.000000=105.019997
,138.000000=105.750000
,139.000000=106.000000
,140.000000=95.040001
,196.000000=132.000000
,228.000000=129.500000
,228.500000=119.000000
,229.000000=118.000000
,229.500000=101.000000
,230.000000=116.300003
,231.000000=132.000000
,232.000000=120.000000
;
#STOPS:
;
#BGCHANGES: -1.000=Monster.avi=1.000=0=0=0=StretchNoLoop====,
99999=-nosongbg-=1.000=0=0=0 // don't automatically add -songbackground-
;
#KEYSOUNDS:;
#ATTACKS:;

//---------------dance-single - FNF Hard----------------
#NOTES:
     dance-single:
     :
     Edit:
     12:
     0.348944,0.479024,0.168844,0.574069,0.163216,434.000000,404.000000,30.000000,102.000000,0.000000,0.000000,0.348944,0.479024,0.168844,0.574069,0.163216,434.000000,404.000000,30.000000,102.000000,0.000000,0.000000:
// measure 0
0000
0000
0000
0000
,  // measure 1
0000
0000
0000
0000
,  // measure 2
0020
0000
0030
0001
0020
0000
0030
0001
,  // measure 3
0200
0000
0000
0000
0000
0000
0000
0300
0000
0000
0000
0000
0000
0000
0000
0000
,  // measure 4
0020
0000
0030
0001
0020
0000
0030
0001
,  // measure 5
0200
0000
0000
0000
0000
0000
0000
0300
0000
0000
0000
0000
0000
0000
0000
0000
,  // measure 6
0000
0000
0000
0000
0010
0000
0100
0000
0002
0003
0000
0000
0100
0000
1000
0010
,  // measure 7
0001
1000
0001
0100
0020
0030
2000
3000
,  // measure 8
0000
0000
0000
0000
0010
0000
0100
0000
0002
0003
0000
0000
0100
0000
1000
0010
,  // measure 9
0001
1000
0001
0100
0020
0030
2000
3000
,  // measure 10
0000
0000
0001
0010
2000
3000
0010
0100
,  // measure 11
2000
3000
0020
0030
0002
0000
0000
0003
,  // measure 12
0000
0000
0001
0010
2000
3000
0010
0100
,  // measure 13
2000
3000
0020
0030
0002
0000
0000
0003
,  // measure 14
0020
0000
0000
0030
0000
0000
1010
0000
0010
0000
0100
0000
0010
0000
1001
0000
,  // measure 15
1001
0000
1000
0000
0010
0000
0002
0000
0000
0003
0000
0000
0020
0000
0000
0030
,  // measure 16
0000
1010
0010
0100
0010
1001
1001
1000
,  // measure 17
0010
0000
0002
0000
0000
0003
0000
0000
0000
0000
0000
0000
0000
0000
0000
0000
,  // measure 18
0000
0000
0000
0000
0000
0000
0000
0000
0000
0000
0001
1100
0000
0000
0100
0000
,  // measure 19
0011
0001
1000
0011
2000
3000
0200
0000
,  // measure 20
0000
0000
0300
0000
0000
0000
0000
0000
0000
0000
0001
1100
0000
0000
0100
0000
,  // measure 21
0011
0001
1000
0011
2000
3000
0200
0000
,  // measure 22
0000
0300
0000
0000
0000
0010
0001
1000
,  // measure 23
0001
0101
0100
1000
2020
0000
0000
3030
,  // measure 24
0001
0010
0001
0000
0000
0100
1001
0000
0000
0000
0010
0000
0001
0000
1000
0000
,  // measure 25
0001
0101
0100
1000
2020
0000
0000
3030
,  // measure 26
0001
0010
0001
0000
0000
0100
1001
0000
0001
0010
0001
0000
0100
0010
0100
0000
,  // measure 27
0010
0100
1000
0100
0001
0100
2000
3000
0000
0000
2002
3003
0000
0000
0020
0030
,  // measure 28
0000
0000
1001
0000
0020
0030
0000
0000
0001
0010
0001
0000
0100
0010
0100
0000
,  // measure 29
0010
0100
1000
0100
0001
0100
2000
3000
0000
0000
2002
3003
0000
0000
0020
0030
,  // measure 30
0000
0000
1001
0000
0020
0030
0000
0000
0020
0000
0000
0000
0000
0000
0030
0000
,  // measure 31
0200
0000
0000
0000
0000
0000
0300
0000
0001
0100
1000
0100
0001
0100
1000
0100
,  // measure 32
0010
0010
0010
0010
0020
0000
0000
0030
,  // measure 33
0200
0000
0000
0000
0000
0000
0300
0000
0001
0100
1000
0100
0001
0100
1000
0100
,  // measure 34
0010
0010
0010
0010
0000
0000
0000
0000
,  // measure 35
0000
0002
0003
2000
3000
0100
0020
0030
,  // measure 36
0002
0003
2000
3000
0100
0020
0030
0001
,  // measure 37
0100
0010
1000
0001
0200
0300
0001
0100
,  // measure 38
0010
0000
1000
0000
0001
0000
0200
0000
0310
0000
1000
0100
0001
0000
0020
0030
,  // measure 39
0000
0000
0010
0000
1000
0100
0001
0000
0020
0030
0000
0000
0000
0000
0010
0000
,  // measure 40
0000
0001
0100
0000
0100
0000
0000
0000
0010
0000
0000
0001
0100
0000
0100
0000
,  // measure 41
0000
0000
0010
1000
0010
0000
0002
0000
0003
0000
0100
0000
0002
0003
0000
0000
,  // measure 42
0010
1000
0010
0000
0002
0000
0003
0000
0100
0000
0002
0003
2000
0000
3000
0000
,  // measure 43
0100
0001
1000
0000
0010
0000
1000
0000
1000
0000
2000
0000
3000
0000
0100
0001
,  // measure 44
1000
0010
1000
1000
0002
0003
0200
0300
,  // measure 45
1000
0001
1000
0001
0200
0300
0002
0003
,  // measure 46
0200
0300
1000
0001
1000
0001
0200
0300
,  // measure 47
0000
0000
0000
0000
,  // measure 48
0000
0000
0000
0000
,  // measure 49
0000
0010
0010
0010
0010
1000
1000
0200
,  // measure 50
0300
0000
0000
0000
0000
0000
0000
0010
,  // measure 51
0002
0000
0000
0000
0000
0000
0000
0003
0002
0000
0003
0000
1000
0000
0020
0000
,  // measure 52
0030
0200
0000
0000
0300
0000
0000
0000
,  // measure 53
0000
0010
0010
0010
0010
1000
1000
0200
,  // measure 54
0300
0000
0000
0000
0000
0000
0000
0010
,  // measure 55
0002
0000
0000
0000
0000
0000
0000
0003
0002
0000
0003
0000
1000
0000
0020
0000
,  // measure 56
0030
0200
0000
0000
0300
0000
0000
0000
,  // measure 57
0000
0000
0000
0000
,  // measure 58
0000
0000
0010
2002
3003
0000
0100
0000
0011
0000
0001
0000
1000
0000
0011
0000
,  // measure 59
2000
3000
0002
0000
0003
0000
0000
0000
,  // measure 60
0000
0000
0010
2002
3003
0000
0100
0000
0011
0000
0001
0000
1000
0000
0011
0000
,  // measure 61
2000
3000
0002
0000
0003
0000
0000
0000
,  // measure 62
0000
0001
0100
1000
0010
0001
1000
0010
,  // measure 63
0002
0000
0000
0000
0003
0000
0000
0000
0010
1000
0010
0000
0000
0001
1000
0000
,  // measure 64
0000
0001
0100
1000
0010
0001
1000
0010
,  // measure 65
0002
0000
0000
0000
0003
0000
0000
0000
0010
1000
0010
0000
0000
0001
1000
0000
,  // measure 66
0001
0010
0001
0000
1000
0010
1000
0000
0010
0001
0010
1000
0010
0001
0200
0300
,  // measure 67
0000
0000
0002
0003
0000
0000
2000
3000
0000
0000
1001
0000
2000
3000
0000
0000
,  // measure 68
0001
0010
0001
0000
1000
0010
1000
0000
0010
0001
0010
1000
0010
0001
0200
0300
,  // measure 69
0000
0000
0002
0003
0000
0000
2000
3000
0000
0000
1001
0000
2000
3000
0000
0000
,  // measure 70
0020
0000
0000
0030
0200
0000
0000
0300
,  // measure 71
0001
0100
1000
0100
0001
0100
1000
0100
0001
0000
0001
0000
0001
0000
0001
0000
,  // measure 72
0020
0000
0000
0030
0200
0000
0000
0300
,  // measure 73
0001
0100
1000
0100
0001
0100
1000
0100
0001
0000
0001
0000
0001
0000
0001
0000
,  // measure 74
0000
0100
1000
0010
0100
1000
0001
0010
,  // measure 75
0001
0200
0000
0300
0000
0000
0000
0000
,  // measure 76
0000
0100
1000
0010
0100
1000
0001
0010
,  // measure 77
0001
0200
0000
0300
0000
0000
0000
0000
;

//---------------dance-single - ----------------
#NOTES:
     dance-single:
     :
     Hard:
     13:
     0.491255,0.600240,0.225125,0.326431,0.205427,611.000000,571.000000,40.000000,58.000000,0.000000,0.000000,0.491255,0.600240,0.225125,0.326431,0.205427,611.000000,571.000000,40.000000,58.000000,0.000000,0.000000:
// measure 0
0000
0000
0000
0000
,  // measure 1
0000
0000
0000
0000
,  // measure 2
0020
0000
0030
0001
0200
0000
0300
0001
,  // measure 3
2000
0000
3000
0000
,  // measure 4
0200
0000
0300
1000
0020
0000
0030
1000
,  // measure 5
0002
0000
0003
0000
,  // measure 6
0000
0000
0000
0000
0100
0000
0001
0000
1000
0000
0000
0000
0100
0000
1000
0001
,  // measure 7
1000
0010
0100
0001
2000
3000
0220
0000
,  // measure 8
0330
0000
0000
0000
0010
0000
1000
0000
0001
0000
0000
0000
0010
0000
0001
1000
,  // measure 9
0001
0100
0010
1000
0002
0003
0220
0000
,  // measure 10
0330
0000
0001
1000
0020
0030
1000
0001
,  // measure 11
0010
0100
2000
0000
,  // measure 12
3000
0000
0001
1000
0200
0300
1000
0001
,  // measure 13
0100
0000
0010
0000
2000
0000
0000
3000
,  // measure 14
0020
0000
0000
1030
0100
1000
0001
0100
,  // measure 15
1000
0100
0001
2000
0000
3000
0200
0000
,  // measure 16
0000
1300
0010
1000
0001
0010
1000
0010
,  // measure 17
0001
0000
2000
0000
3100
0000
1000
0000
0001
0100
0001
1000
0100
1000
0010
0100
,  // measure 18
0010
1000
0100
0010
0001
0000
0010
0000
1001
0000
0001
1000
0000
0100
0010
0000
,  // measure 19
0001
0100
0010
1000
2000
3100
0002
0103
,  // measure 20
1000
0000
0001
0000
1000
0000
1000
0000
0010
0000
1000
0001
0000
0100
0010
0000
,  // measure 21
1000
0000
0100
0000
0010
0000
0001
0000
0001
0100
0001
0000
1000
0100
1000
0000
,  // measure 22
0001
0010
0100
1000
0010
0000
0110
0000
0100
0000
0001
0000
1000
0000
0010
0000
,  // measure 23
0100
0001
0010
0100
2000
0000
0001
3000
,  // measure 24
0001
0100
0001
0000
1000
0001
1000
0000
0010
0000
1000
0000
0001
0000
0100
0000
,  // measure 25
0010
1000
0100
0010
0002
0000
0003
0000
,  // measure 26
1000
0010
1000
0000
0001
1000
0001
0000
0100
0001
0100
0000
0010
0100
0010
0000
,  // measure 27
1000
0100
0010
0000
0100
0000
1000
0000
0001
0000
0101
0000
0000
0000
1100
0000
,  // measure 28
0000
0000
0011
0000
0110
0000
0000
0000
0100
1000
0100
0000
0010
0100
0010
0000
,  // measure 29
0001
0100
0010
0000
0100
0000
0001
0000
1000
0000
1100
0000
0000
0000
0101
0000
,  // measure 30
0000
1010
0110
0000
0002
0000
0103
0000
,  // measure 31
2000
0000
0000
0000
3100
0000
0000
0000
0001
0100
0001
0000
0100
0010
1000
0000
,  // measure 32
0001
0101
1000
1100
2000
0000
3100
0000
,  // measure 33
0002
0000
0000
0000
0103
0000
0000
0000
1000
0100
1000
0000
0100
0010
0001
0000
,  // measure 34
1000
1100
0001
0101
2000
0000
3001
0000
,  // measure 35
1000
0100
1000
0100
0001
0100
1000
0001
,  // measure 36
0100
0001
0100
1000
0100
0001
1000
0010
,  // measure 37
0110
0001
0010
0100
1000
0001
0100
0110
,  // measure 38
1000
0000
0100
0000
0010
0000
0001
0000
1000
0000
0100
0010
0001
0000
1000
0000
,  // measure 39
0001
0000
1000
0000
0010
0100
0001
0000
1000
0000
0001
0000
0100
0000
0100
0000
,  // measure 40
0001
0010
0100
0000
1000
0000
0010
0000
0010
0000
1000
0100
0010
0000
0001
0000
,  // measure 41
1000
0000
0010
1000
0010
0000
0200
0000
0010
0000
1300
0000
0100
0000
0001
0000
,  // measure 42
0010
0001
0010
0000
0200
0000
0010
0000
0301
0000
0100
0000
2000
0000
3000
0000
,  // measure 43
1000
0001
1000
0000
0001
0000
0100
0000
0010
0000
2000
0000
3000
0000
0100
0010
,  // measure 44
0100
1000
0001
0001
2000
3000
0020
0030
,  // measure 45
0100
0001
1000
0010
0001
0010
2000
3000
,  // measure 46
0002
0000
0003
0000
0010
0000
0100
0000
1000
0000
0010
0000
1000
0100
1000
0100
,  // measure 47
0010
0001
0100
1000
0200
0000
0000
0000
,  // measure 48
0310
0010
0110
0110
0000
0100
1002
0000
,  // measure 49
1003
0100
0001
0100
1000
0100
0001
0100
,  // measure 50
1000
0000
0012
0000
2003
0000
3100
1000
,  // measure 51
0002
0000
0103
0000
2000
0000
3100
0001
,  // measure 52
1000
0100
1000
0000
0002
0000
2003
0000
,  // measure 53
3001
0010
1000
0010
0001
0010
1000
0010
,  // measure 54
0001
0000
2100
0000
3002
0000
0013
0001
,  // measure 55
2000
0000
3010
0000
0002
0000
0013
1000
,  // measure 56
0001
0010
0001
0000
1000
0001
0010
0100
,  // measure 57
1000
0100
0001
0100
2000
0000
3002
0000
,  // measure 58
0103
0000
0010
1000
0000
1000
0010
0000
0100
0000
1000
0000
0100
0000
0010
0000
,  // measure 59
2000
3100
0020
0031
1000
0010
0100
0001
,  // measure 60
0010
0000
0100
1000
0000
1000
0100
0000
0010
0000
1000
0000
0010
0000
0100
0000
,  // measure 61
1000
0010
1000
0000
0001
0010
0001
0000
1000
0010
0100
0001
1000
0000
1001
0000
,  // measure 62
0001
1000
0100
1000
0001
0010
0100
1000
,  // measure 63
0001
0000
0100
0000
0001
0000
0100
0000
0010
0001
0010
0000
0010
1000
0010
0000
,  // measure 64
1000
0001
0010
0001
1000
0100
0010
0001
,  // measure 65
1000
0100
1000
0000
0010
0100
0010
0100
1000
0100
1000
0000
0100
0010
0100
0000
,  // measure 66
0001
0100
0001
0000
0001
1000
0001
0000
1000
0100
0010
0001
0010
0100
1000
0000
,  // measure 67
0001
0101
1000
1100
0010
0011
1010
0001
,  // measure 68
1000
0100
1000
0000
1000
0001
1000
0000
0001
0100
0010
1000
0010
0100
0001
0000
,  // measure 69
1000
1100
0001
0101
0010
1010
0011
1000
,  // measure 70
0002
0010
0013
0001
0200
1000
1300
0100
,  // measure 71
0001
1000
0100
0010
0100
1000
0001
0100
0001
0000
1001
0000
0010
0000
0110
0000
,  // measure 72
0002
0100
0103
0001
0020
1000
1030
0010
,  // measure 73
0001
1000
0010
0100
0010
1000
0001
0010
0001
0000
1001
0000
0100
0000
0110
0000
,  // measure 74
0001
0010
1000
0010
0001
0010
1000
0010
,  // measure 75
0001
1000
1001
0000
0001
0100
0110
0000
,  // measure 76
1000
0100
0001
0100
1000
0100
0001
0100
,  // measure 77
1000
0001
1001
0000
0010
0000
1010
0000
,  // measure 78
0001
1000
0200
0000
0000
0000
0000
0000
,  // measure 79
0300
0000
0000
0000
;

//---------------dance-single - ----------------
#NOTES:
     dance-single:
     :
     Medium:
     10:
     0.353768,0.377929,0.123819,0.326431,0.005628,440.000000,418.000000,22.000000,58.000000,0.000000,0.000000,0.353768,0.377929,0.123819,0.326431,0.005628,440.000000,418.000000,22.000000,58.000000,0.000000,0.000000:
// measure 0
0000
0000
0000
0000
,  // measure 1
0000
0000
0000
0000
,  // measure 2
0020
0000
0030
1000
0200
0000
0300
0001
,  // measure 3
0200
0000
0300
0000
,  // measure 4
0020
0000
0030
0001
0200
0000
0300
1000
,  // measure 5
0200
0000
0300
0000
,  // measure 6
0000
0000
0001
1000
0100
0000
1000
0001
,  // measure 7
0001
0100
0001
1000
1000
0000
0200
0000
,  // measure 8
0300
0000
1000
0001
0010
0000
0001
1000
,  // measure 9
1000
0010
1000
0001
0001
0000
0020
0000
,  // measure 10
0030
0000
0100
0100
0010
0000
0100
0100
,  // measure 11
1000
0001
2000
0000
,  // measure 12
3000
0000
0010
0010
0100
0000
0010
0010
,  // measure 13
1000
0000
0001
0000
2000
0000
0000
3000
,  // measure 14
0002
0000
0003
0100
0001
1000
0001
0100
,  // measure 15
0001
0010
0100
2000
0000
3000
0002
0000
,  // measure 16
0003
0010
0001
1000
0001
0010
0001
0100
,  // measure 17
0010
0000
2000
0000
0000
0000
3000
0000
0001
0000
0000
0001
0000
0000
1000
0000
,  // measure 18
0000
1000
0000
0000
0001
0000
1000
0000
0001
0000
0000
0000
1100
0000
0000
0000
,  // measure 19
0001
0010
1000
0010
0002
0003
2000
3000
,  // measure 20
0001
0100
0010
0000
1000
0000
0011
0000
,  // measure 21
1000
0100
0001
0100
1000
1000
0001
0001
,  // measure 22
1000
0010
0100
0110
0000
0001
0010
0001
,  // measure 23
0010
0100
1000
0001
2000
0000
3010
0000
,  // measure 24
1000
1000
0000
0011
0000
1000
0010
1000
,  // measure 25
0010
0100
0001
1000
0002
0000
0013
0000
,  // measure 26
0001
0001
0000
1010
1000
0100
0010
0100
,  // measure 27
1000
0100
0010
0001
0000
1000
0000
0110
,  // measure 28
0000
1000
1001
0000
0001
0100
0010
0100
,  // measure 29
0001
0100
0010
1000
0000
0001
0000
0110
,  // measure 30
0000
0001
1001
0000
2000
0000
3100
0000
,  // measure 31
0002
0000
0103
0000
1000
0100
0001
0100
,  // measure 32
1000
0001
1000
1100
0002
0000
0013
0000
,  // measure 33
2000
0000
3010
0000
0001
0010
1000
0010
,  // measure 34
0001
1000
0001
0011
2000
0000
3001
0000
,  // measure 35
0001
0200
0000
0320
0000
1030
0100
1000
,  // measure 36
0020
0000
0230
0000
0301
0010
0100
0000
,  // measure 37
0011
0000
0001
1000
0001
0100
0000
0100
,  // measure 38
0000
0010
1000
0001
1000
0100
0010
0001
,  // measure 39
0000
1000
0100
0010
0001
0000
0000
0001
,  // measure 40
0100
0010
1000
0000
0001
0010
0100
0100
,  // measure 41
1000
0001
1000
0002
0003
0100
0001
1000
,  // measure 42
0010
1000
0020
0030
0100
0010
2000
3000
,  // measure 43
1000
0100
0001
0100
1000
0002
0003
0001
,  // measure 44
0100
1000
0100
0001
2000
3000
2200
3300
,  // measure 45
0001
0010
0001
0010
0100
0010
0002
0003
,  // measure 46
0022
0033
1000
0100
1000
0100
0010
0100
,  // measure 47
1000
0001
0100
0010
2000
0000
0000
0000
,  // measure 48
3001
0001
0100
0001
0000
0100
0002
0000
,  // measure 49
1003
0000
1000
0000
0100
1000
0001
0000
,  // measure 50
0010
0002
2003
3002
,  // measure 51
2003
3100
0002
0103
,  // measure 52
1000
0100
0010
0000
0010
0100
1000
0000
,  // measure 53
0001
0100
0001
0000
0001
0100
0001
1000
,  // measure 54
0010
2000
3002
2003
,  // measure 55
3002
0103
2000
3100
,  // measure 56
0001
0100
0010
0000
0010
0100
0001
1000
,  // measure 57
0002
0000
0000
1003
,  // measure 58
0100
0000
1001
0000
0001
0010
1000
0010
,  // measure 59
0002
0000
0103
0000
0010
1000
0010
0000
,  // measure 60
0100
0000
1001
0000
1000
0010
0001
0010
,  // measure 61
1000
0100
1000
0100
0010
0001
0010
0000
,  // measure 62
0001
0100
0010
0000
1000
0100
0010
0000
,  // measure 63
0200
0000
0300
0000
1000
0001
0000
1000
,  // measure 64
0001
0010
0100
0000
1000
0010
0100
0000
,  // measure 65
0020
0000
0030
0000
1000
0001
0000
1000
,  // measure 66
0001
1000
0100
1000
0001
1000
0010
0100
,  // measure 67
0000
0001
0000
1100
0000
0001
0101
0000
,  // measure 68
1000
0001
0100
0001
1000
0001
0010
0100
,  // measure 69
0000
1000
0000
0101
0000
1000
1100
0000
,  // measure 70
2000
3010
0002
0013
,  // measure 71
1000
0010
0001
0010
1000
0001
1000
1010
,  // measure 72
0002
0103
2000
3100
,  // measure 73
0001
0100
1000
0100
0001
1000
0001
0101
,  // measure 74
0010
1000
0100
0000
0100
0000
1000
0000
,  // measure 75
1000
0001
0010
0000
0100
0000
0010
0000
,  // measure 76
0100
1000
0010
0000
0010
0000
1000
0000
,  // measure 77
1000
0001
0100
0000
0010
0000
0100
0000
,  // measure 78
0001
1000
0200
0000
0000
0000
0000
0000
,  // measure 79
0300
0000
0000
0000
;

//---------------dance-single - ----------------
#NOTES:
     dance-single:
     :
     Easy:
     6:
     0.191356,0.244542,0.033769,0.202613,0.000000,238.000000,232.000000,6.000000,36.000000,0.000000,0.000000,0.191356,0.244542,0.033769,0.202613,0.000000,238.000000,232.000000,6.000000,36.000000,0.000000,0.000000:
// measure 0
0000
0000
0000
0000
,  // measure 1
0000
0000
0000
0000
,  // measure 2
0002
0003
2000
3000
,  // measure 3
0200
0000
0300
0000
,  // measure 4
2000
3000
0002
0003
,  // measure 5
0020
0000
0030
0000
,  // measure 6
0000
0001
0100
0000
,  // measure 7
0001
1000
0100
0020
,  // measure 8
0030
0001
0010
0000
,  // measure 9
0001
1000
0010
0200
,  // measure 10
0300
0001
1000
0000
,  // measure 11
0001
1000
0200
0000
,  // measure 12
0300
1000
0001
0000
,  // measure 13
1000
0001
0020
0000
,  // measure 14
0230
0300
1000
1000
,  // measure 15
0001
0200
0000
0320
,  // measure 16
0030
1000
1000
0001
,  // measure 17
0020
0000
0130
0100
,  // measure 18
0010
0100
1000
1001
,  // measure 19
0001
1000
0100
0020
,  // measure 20
0000
0030
0001
1001
,  // measure 21
1000
0001
0100
0100
,  // measure 22
0010
0010
0000
1000
,  // measure 23
0100
0010
0002
0003
,  // measure 24
1000
0001
0000
0001
,  // measure 25
0100
0010
2000
3000
,  // measure 26
0001
1000
0001
0001
,  // measure 27
1000
0100
0000
1000
,  // measure 28
0000
1000
0010
0010
,  // measure 29
0100
0001
0000
0100
,  // measure 30
0000
0100
0002
0003
,  // measure 31
2000
3000
0100
0010
,  // measure 32
0100
0100
2000
3000
,  // measure 33
0002
0003
0010
0100
,  // measure 34
0010
0010
0002
0003
,  // measure 35
0000
1000
1000
1000
,  // measure 36
0000
0001
0000
0001
0000
0001
0000
0000
,  // measure 37
0100
0000
0001
0000
0010
0000
0000
0100
,  // measure 38
0000
1000
0000
0010
1000
0000
1000
0000
,  // measure 39
0000
0001
0000
0001
0000
0000
0000
1000
,  // measure 40
0000
0100
0100
0000
0001
0000
0010
0010
,  // measure 41
0000
1000
0100
1000
0000
0001
0000
0000
,  // measure 42
0001
0100
0001
0000
1000
0000
0100
0000
,  // measure 43
0010
0000
0100
0000
0000
0100
0000
0010
,  // measure 44
0000
0100
0000
0000
0001
0000
1000
0000
,  // measure 45
0000
1000
0000
0010
0000
0000
1000
0000
,  // measure 46
0001
0000
0000
0010
0000
0001
0000
0000
,  // measure 47
1000
0001
0200
0000
,  // measure 48
0310
0010
0000
0010
,  // measure 49
1000
0000
1000
0001
,  // measure 50
1000
0000
1000
0100
,  // measure 51
0020
0030
0002
0003
,  // measure 52
0010
0010
0001
0001
,  // measure 53
1000
0001
1000
0001
,  // measure 54
1000
0000
1000
0010
,  // measure 55
0200
0300
0002
0003
,  // measure 56
0100
0100
0001
1000
,  // measure 57
0002
0000
0000
0003
,  // measure 58
1000
1100
1000
1001
,  // measure 59
0001
0200
0000
0300
,  // measure 60
0000
0101
0001
1001
,  // measure 61
1000
0100
1000
1000
,  // measure 62
0000
0001
0100
0010
,  // measure 63
2000
3000
0001
1000
,  // measure 64
0000
1000
0100
0010
,  // measure 65
0002
0003
1000
0001
,  // measure 66
1000
1000
0001
0100
,  // measure 67
0000
0001
0000
0001
,  // measure 68
0010
0010
0100
1000
,  // measure 69
0000
0100
0000
0100
,  // measure 70
2000
3000
0002
0003
,  // measure 71
0100
0010
0100
0100
,  // measure 72
0002
0003
2000
3000
,  // measure 73
0010
0100
0010
0010
,  // measure 74
1000
0100
0001
0100
,  // measure 75
1000
0000
1000
0000
,  // measure 76
0001
0010
1000
0010
,  // measure 77
0001
0000
0001
0000
,  // measure 78
1000
0020
0000
0000
,  // measure 79
0030
0000
0000
0000
;

//---------------dance-single - ----------------
#NOTES:
     dance-single:
     :
     Beginner:
     3:
     0.098090,0.133387,0.000000,0.095678,0.000000,122.000000,122.000000,0.000000,17.000000,0.000000,0.000000,0.098090,0.133387,0.000000,0.095678,0.000000,122.000000,122.000000,0.000000,17.000000,0.000000,0.000000:
// measure 0
0000
0000
0000
0000
,  // measure 1
0000
0000
0000
0000
,  // measure 2
0020
0000
0030
0000
,  // measure 3
0200
0000
0300
0000
,  // measure 4
0020
0000
0030
0000
,  // measure 5
0200
0000
0300
0000
,  // measure 6
0000
0000
1000
0000
,  // measure 7
0100
0000
0001
0000
,  // measure 8
0000
0000
0001
0000
,  // measure 9
0100
0000
1000
0000
,  // measure 10
0000
0000
1000
0000
,  // measure 11
0001
0000
0200
0000
,  // measure 12
0300
0000
0001
0000
,  // measure 13
1000
0000
0100
0000
,  // measure 14
2000
0000
3000
0000
,  // measure 15
1000
0000
0000
0002
,  // measure 16
0000
0003
0000
0001
,  // measure 17
0000
0000
0000
0000
,  // measure 18
0000
0000
1000
0000
,  // measure 19
1000
0000
0001
0000
,  // measure 20
0000
0000
0001
0000
,  // measure 21
0001
0000
1000
0000
,  // measure 22
0001
0000
0000
0100
,  // measure 23
0100
0000
0100
0000
,  // measure 24
0000
0000
0000
0010
,  // measure 25
0010
0000
0010
0000
,  // measure 26
0000
0000
1000
0000
,  // measure 27
0001
0000
0000
0100
,  // measure 28
0000
0100
0100
0000
,  // measure 29
0010
0000
0000
0001
,  // measure 30
0000
0001
0002
0003
,  // measure 31
2000
3000
0001
0000
,  // measure 32
0010
0010
0020
0030
,  // measure 33
0200
0300
0010
0000
,  // measure 34
1000
1000
2000
3000
,  // measure 35
0001
0000
0000
0000
0000
0000
0000
0001
,  // measure 36
0000
0000
0000
1000
,  // measure 37
0000
0000
0000
0000
0000
1000
0000
0000
,  // measure 38
0000
0000
0100
0000
,  // measure 39
0000
0100
0000
0000
0000
0000
0010
0000
,  // measure 40
0000
0000
0000
0010
0000
0000
0000
0000
,  // measure 41
0001
0000
0000
0000
0000
0000
0000
0001
,  // measure 42
0000
0000
0000
1000
,  // measure 43
0000
0000
0000
0000
0000
0001
0000
0000
,  // measure 44
0000
0000
1000
0000
,  // measure 45
0000
1000
0000
0000
0000
0000
0010
0000
,  // measure 46
0000
0000
0000
0010
0000
0000
0000
0000
,  // measure 47
0000
0000
0000
0000
,  // measure 48
0000
0000
0000
0000
,  // measure 49
0100
0000
0100
0000
,  // measure 50
0010
0000
0000
0000
,  // measure 51
1000
0000
0001
0000
,  // measure 52
1000
0000
0000
0000
,  // measure 53
0010
0000
0010
0000
,  // measure 54
0100
0000
0000
0000
,  // measure 55
0001
0000
1000
0000
,  // measure 56
0001
0000
0000
0000
,  // measure 57
0000
0000
0000
0000
,  // measure 58
1000
0000
0100
0000
,  // measure 59
0001
0000
0000
0000
,  // measure 60
0001
0000
0100
0000
,  // measure 61
1000
0000
0001
0000
,  // measure 62
0000
1000
1000
0000
,  // measure 63
1000
0000
0000
0000
,  // measure 64
0000
0001
0001
0000
,  // measure 65
0001
0000
0000
0000
,  // measure 66
0010
0000
0100
0100
,  // measure 67
0000
0001
0000
0001
,  // measure 68
0001
0000
1000
1000
,  // measure 69
0000
0100
0000
0100
,  // measure 70
0200
0300
0020
0030
,  // measure 71
0100
0000
0001
0001
,  // measure 72
0002
0003
2000
3000
,  // measure 73
0001
0000
0010
0010
,  // measure 74
0000
0100
0000
0100
,  // measure 75
0100
0000
0000
0000
,  // measure 76
0000
0010
0000
0010
,  // measure 77
0010
0000
0001
0000
,  // measure 78
1000
0002
0000
0000
,  // measure 79
0003
0000
0000
0000
;
