#TITLE:Mitotsudaira;
#SUBTITLE:;
#ARTIST:ETIA.;
#TITLETRANSLIT:;
#SUBTITLETRANSLIT:;
#ARTISTTRANSLIT:;
#GENRE:J-Music;
#CREDIT:;
#BANNER:Mitotsudaira.png;
#BACKGROUND:Mitotsudaira-bg.png;
#LYRICSPATH:;
#CDTITLE:../cdtitle.png;
#MUSIC:Mitotsudaira.ogg;
#OFFSET:-0.117000;
#SAMPLESTART:30.111000;
#SAMPLELENGTH:15.000000;
#SELECTABLE:YES;
#BPMS:0.000000=136.000000
,132.000000=68.000000
,148.000000=136.000000
,244.000000=68.000000
,244.500000=136.000000
;
#STOPS:
;
#BGCHANGES:-99.000=../bg.avi=1.000=0=0=1=====,
99999=-nosongbg-=1.000=0=0=0 // don't automatically add -songbackground-
;
#KEYSOUNDS:;
#ATTACKS:;

//---------------dance-single - ----------------
#NOTES:
     dance-single:
     :
     Challenge:
     15:
     0.631257,0.893681,0.078652,0.815118,0.786518,618.000000,607.000000,11.000000,114.000000,4.000000,0.000000,0.631257,0.893681,0.078652,0.815118,0.786518,618.000000,607.000000,11.000000,114.000000,4.000000,0.000000:
// measure 0
0000
0000
0000
0000
,  // measure 1
0000
0000
0000
0000
,  // measure 2
0000
0000
0000
0000
,  // measure 3
0000
0000
0000
0000
,  // measure 4
0000
0000
0000
0000
,  // measure 5
0000
0000
0000
0000
,  // measure 6
0000
0000
0000
0000
,  // measure 7
0000
0000
0000
0000
,  // measure 8
2002
0000
0000
0000
0000
0000
0000
0000
3003
0000
0000
0010
0100
0000
0010
0000
,  // measure 9
1001
0000
0001
0010
0100
1000
0000
0100
0000
1000
0002
0000
2003
0000
3010
0000
,  // measure 10
0100
0001
0100
0000
0001
0000
0010
0000
0100
1000
0100
0000
0010
0000
0001
0000
,  // measure 11
1000
0000
0001
0100
0010
1000
0000
0001
0000
0010
0200
0000
2300
0000
3001
0000
,  // measure 12
1000
0001
0100
0000
1000
0000
0100
0000
0001
1000
0100
0000
0001
0000
0100
0000
,  // measure 13
1001
0000
1000
0100
0010
0001
0000
0010
0000
0001
2000
0000
3002
0000
0103
0000
,  // measure 14
0010
1000
0010
0000
1000
0000
0100
0000
0010
0001
0010
0000
0100
0000
1000
0000
,  // measure 15
0001
0000
1000
0010
0100
0001
0000
1000
0000
0100
0020
0000
0032
0000
1003
0000
,  // measure 16
0001
0010
0100
1000
0001
0010
0100
1000
0001
0100
0010
1000
0001
0010
0100
0000
,  // measure 17
0010
0001
0200
0000
1000
0000
0300
0000
0010
1000
0200
0000
0001
0000
0300
0000
,  // measure 18
0010
0001
0200
0000
1000
0000
0300
0000
0010
1000
0200
0000
0001
0000
0300
0000
,  // measure 19
1000
0010
0200
0000
1000
0000
0300
0000
0001
0010
0200
0000
0001
0000
0300
0000
,  // measure 20
1000
0010
0200
0000
1000
0000
0300
0000
0001
0010
0200
0000
0001
0000
0300
0000
,  // measure 21
0010
0001
0200
0000
1300
0000
0100
0000
0010
1000
0200
0000
0301
0000
0100
0000
,  // measure 22
0010
0001
0200
0000
1300
0000
0100
0000
0010
1000
0200
0000
0301
0000
0100
0000
,  // measure 23
1000
0010
0200
0000
1300
0000
0100
0000
0001
0010
0200
0000
0301
0000
0100
0000
,  // measure 24
1000
0010
0200
0000
1300
0000
0100
0000
0001
0010
0200
0000
0301
0000
0100
0000
,  // measure 25
1001
0000
1000
0010
0100
0001
0000
0100
0000
0001
2000
0000
3002
0000
0013
0000
,  // measure 26
0100
1000
0100
0000
1000
0000
0010
0000
0100
0001
0100
0000
0010
0000
1000
0000
,  // measure 27
0001
0000
1000
0100
0010
0001
0000
1000
0000
0010
0200
0000
0302
0000
1003
0000
,  // measure 28
0001
1000
0100
0000
0001
0000
0100
0000
1000
0001
0100
0000
1000
0000
0100
0000
,  // measure 29
1001
0000
0001
0100
0010
1000
0000
0010
0000
1000
0002
0000
2003
0000
3100
0000
,  // measure 30
0010
0001
0010
0000
0001
0000
0100
0000
0010
1000
0010
0000
0100
0000
0001
0000
,  // measure 31
1000
0000
0001
0010
0100
1000
0000
0001
0000
0100
0020
0000
2030
0000
3001
0000
,  // measure 32
1000
0010
0100
0001
1000
0010
0100
0001
1000
0100
0010
0001
1000
0010
0100
0001
,  // measure 33
2000
0000
0000
0000
0000
0000
0000
0000
0000
0000
0000
0000
0000
0000
0000
0000
0000
0000
3020
0000
0000
0000
0000
0000
0000
0000
0000
0000
0000
0000
0000
0000
0000
0000
0000
0000
0230
0000
0000
0000
0000
0000
0000
0000
0000
0000
0000
0000
0302
0000
0000
0000
0000
0000
0000
0000
0000
0000
0000
0000
0000
0000
0000
0000
0000
0000
0000
0000
0000
0000
0000
0000
0023
0000
0000
0000
0000
0000
0000
0000
0000
0000
0000
0000
0000
0000
0000
0000
0000
0000
0000
0000
0000
0000
0000
0000
0230
0000
0000
0000
0000
0000
0000
0000
0000
0000
0000
0000
0000
0000
0000
0000
0000
0000
0000
0000
0000
0000
0000
0000
0000
0000
0000
0000
0000
0000
0000
0000
0000
0000
0000
0000
0000
0000
0000
0000
0000
0000
0000
0000
0000
0000
0000
0000
0320
0000
0000
0000
0000
0000
0000
0000
0000
0000
0000
0000
0000
0000
0000
0000
0032
0000
0000
0000
0000
0000
0000
0000
0000
0000
0000
0000
0000
0000
0000
0000
0203
0000
0000
0000
0000
0000
0000
0000
0000
0000
0000
0000
0000
0000
0000
0000
,  // measure 34
0320
0000
0000
0000
0000
0000
2030
0000
0000
0000
0000
0000
3200
0000
0000
0000
0002
0000
0000
0000
0300
0000
0000
0000
0203
0000
0000
0320
0000
0000
0032
0000
,  // measure 35
2003
0000
0000
3020
0000
0000
0032
0000
2003
0000
0000
3200
0000
0000
0302
0000
2003
0000
0000
3200
0000
0000
0302
0000
2003
0000
0000
3020
0000
0000
0032
0000
,  // measure 36
0000
0000
2000
0000
0000
0000
0000
0000
0000
0000
0000
0000
0003
0000
0000
0000
3020
0000
0000
0032
0000
0000
0023
0000
2030
0000
0000
3002
0000
0000
0023
0000
,  // measure 37
0000
0200
0000
0000
0000
0000
0000
0000
,  // measure 38
0000
0000
0000
0000
,  // measure 39
0330
0000
0000
0000
,  // measure 40
0000
0000
0000
0000
,  // measure 41
1001
0000
1000
0000
0100
0000
0100
0000
0001
0000
0001
0000
0010
0000
0010
1000
,  // measure 42
0001
0000
0001
0000
0010
0000
0010
0000
1000
0000
1000
0000
0100
0001
0100
0001
,  // measure 43
1000
0000
0000
0001
0000
0000
0010
0000
0100
0000
1000
0000
0100
0000
0000
0010
0000
0000
0001
0000
1000
0000
0001
0000
1000
0000
0000
0001
0000
0000
0100
0000
0010
0000
1000
0000
0010
0000
0000
0100
0000
0000
0001
0000
0000
1000
0000
0000
,  // measure 44
0200
0010
0000
0310
0001
0000
0001
0000
1000
0000
1000
0000
0220
0000
0330
0000
,  // measure 45
1001
0000
0001
0020
0000
0130
1000
0001
0010
0000
0200
0000
1300
0010
0000
0100
,  // measure 46
0002
0000
1003
0100
1000
0000
0001
0000
0200
0000
0310
1000
0000
1000
0100
0010
,  // measure 47
0002
0000
0013
0100
1000
0000
0010
0000
0001
0000
0020
0000
1030
0001
0000
0001
,  // measure 48
0010
2000
0000
3010
0200
0000
0310
0002
0000
1003
0020
0000
0130
0001
2000
0000
,  // measure 49
3100
0000
1000
0001
0200
0000
0310
0000
2000
0000
3001
0000
0010
0100
0000
0100
,  // measure 50
2000
0000
3001
0010
0100
0000
0010
0000
0002
0000
0103
0020
0000
1030
0200
0000
,  // measure 51
0320
0000
0130
1000
0000
0010
0100
0000
0002
0000
0013
0100
0000
0010
0001
0000
,  // measure 52
0100
0020
0000
1030
0200
0000
1300
0020
0000
0130
0002
0000
0013
0100
1000
0000
,  // measure 53
1001
0000
0001
0200
0000
0310
1000
0001
0100
0000
0020
0000
1030
0100
0000
0010
,  // measure 54
0002
0000
1003
0010
1000
0000
0001
0000
0020
0000
0130
1000
0000
1000
0010
0100
,  // measure 55
0002
0000
0103
0010
1000
0000
0100
0000
0001
0000
0200
0000
1300
0001
0000
0001
,  // measure 56
0100
2000
0000
3100
0020
0000
0130
0002
0000
1003
0200
0000
0310
0001
2000
0000
,  // measure 57
3020
0000
0130
0001
0010
0000
0100
0000
0020
0000
0031
0100
0010
0000
1000
0000
,  // measure 58
0200
0000
1300
0010
0100
0000
0001
0000
0020
0000
0130
0010
0001
0100
0010
0000
,  // measure 59
1000
0100
1000
0100
0001
0100
0001
0100
1000
0010
1000
0010
0001
0010
0001
0010
,  // measure 60
1000
0000
0100
0000
1000
0000
0100
0000
0000
0010
0000
0000
0001
0000
1000
0000
0001
0000
1000
0000
0000
0010
0000
0000
0100
0000
0001
0000
0100
0000
0001
0000
0000
0010
0000
0000
0100
0000
0000
1000
0000
0000
0001
0000
0000
0000
0000
0000
,  // measure 61
MMMM
0000
1001
0000
0001
0010
0100
0000
0100
1000
0001
0000
0001
1000
0010
0000
,  // measure 62
0010
0100
0001
0000
0001
1000
0100
0000
0100
0010
0001
0000
0001
1000
0010
0000
,  // measure 63
0010
0100
0001
1000
0000
0100
0000
1000
0002
0000
0023
0000
0130
0000
1000
0000
,  // measure 64
1000
0001
0100
0000
0100
0010
1000
0000
1000
0001
0010
0000
0100
0000
1001
0000
,  // measure 65
1000
0000
0010
0000
0010
0000
0001
0000
0001
0000
0100
0000
0100
1000
0001
0000
,  // measure 66
0001
0000
0100
0000
0100
0000
1000
0000
1000
0000
0010
0001
0010
0001
1000
0001
,  // measure 67
0100
0000
0010
0000
1000
0000
0010
0000
0000
0100
0000
0000
0001
0000
1000
0000
0001
0000
1000
0000
0000
0001
0000
0000
0010
0000
0100
0000
1000
0000
0100
0000
0000
0010
0000
0000
0001
0000
0000
1000
0000
0000
0001
0000
0000
0010
0000
0000
,  // measure 68
0100
1000
0001
0010
0100
1000
0001
0100
0010
1000
0001
0010
0100
2000
0000
0000
,  // measure 69
0000
0000
0000
0000
0000
0000
0000
3000
0000
0000
0000
0000
0000
0000
0000
0000
;

//---------------dance-single - ----------------
#NOTES:
     dance-single:
     :
     Beginner:
     3:
     0.096016,0.172520,0.014300,0.057201,0.000000,94.000000,92.000000,2.000000,8.000000,0.000000,0.000000,0.096016,0.172520,0.014300,0.057201,0.000000,94.000000,92.000000,2.000000,8.000000,0.000000,0.000000:
0000
0000
0000
0000
,
0000
0000
0000
0000
,
0000
0000
0000
0000
,
0000
0000
0000
0000
,
0000
0000
0000
0000
,
0000
0000
0000
0000
,
0000
0000
0000
0000
,
0000
0000
0000
0000
,
0000
0000
0000
0000
,
1000
0000
0000
0000
,
1000
0000
0000
0000
,
0001
0000
0000
0000
,
0001
0000
0000
0000
,
1000
0000
0000
0000
,
1000
0000
0000
0000
,
0001
0000
0000
0000
,
1001
0000
0000
0000
,
0100
0000
0100
0000
,
0100
0000
0000
0000
,
0010
0000
0010
0000
,
0010
0000
0000
0000
,
0100
0000
0100
0000
,
0100
0000
0000
0000
,
0010
0000
0010
0000
,
0010
0000
0000
0000
,
1000
0000
1000
0000
,
1000
0000
0000
0000
,
0001
0000
0001
0000
,
0001
0000
0000
0000
,
1000
0000
1000
0000
,
1000
0000
0000
0000
,
0001
0000
0001
0000
,
1001
0000
0000
0000
,
2000
0000
3000
0000
,
0200
0000
0300
0000
,
0002
0000
0003
0000
,
0020
0000
0030
0000
,
2000
0000
0000
0000
,
0000
0000
0000
0000
,
3000
0000
0000
0000
,
0000
0000
0000
0000
,
0010
0000
0010
0000
,
0100
0000
0100
0000
,
0010
0010
0010
0010
,
0020
0000
0030
0000
,
1000
0000
0001
0000
,
1000
0000
0001
0000
,
1000
0000
0010
0000
,
0001
0000
0100
0000
,
1000
0000
0010
0000
,
0100
0000
0001
0000
,
0001
0000
1000
0000
,
0100
0000
0010
0000
,
0001
0000
1000
0000
,
0001
0000
1000
0000
,
0001
0000
0100
0000
,
1000
0000
0010
0000
,
0001
0000
0100
0000
,
0010
0000
1000
0000
,
0001
0000
0010
0000
,
0100
0100
0100
0100
,
0000
0020
0000
0000
0000
0000
0000
0030
,
0000
0000
0000
0000
0000
0000
0000
0001
,
0000
0000
0000
0000
0000
0000
0000
1000
,
0000
0000
0000
0000
0000
0000
0000
0010
,
0000
0000
0000
0010
0000
0000
0000
0100
,
0000
0000
0000
0100
0000
0000
0000
0010
,
0000
0010
0000
0010
0000
0010
0000
0020
,
0000
0000
0000
0000
0000
0000
0000
0000
0000
0000
0000
0000
0000
0000
0000
0030
;

//---------------dance-single - ----------------
#NOTES:
     dance-single:
     :
     Hard:
     12:
     0.489275,0.570963,0.164454,0.657815,0.400409,479.000000,456.000000,23.000000,92.000000,0.000000,0.000000,0.489275,0.570963,0.164454,0.657815,0.400409,479.000000,456.000000,23.000000,92.000000,0.000000,0.000000:
0000
0000
0000
0000
,
0000
0000
0000
0000
,
0000
0000
0000
0000
,
0000
0000
0000
0000
,
0000
0000
0000
0000
,
0000
0000
0000
0000
,
0000
0000
0000
0000
,
0000
0000
0000
0000
,
0220
0000
0000
0330
,
1001
0000
0100
0010
0000
0001
0000
0100
0000
0010
2000
0000
3100
0000
0010
0000
,
0001
0100
0101
0010
1000
0100
1100
0010
,
0001
0000
1000
0010
0000
0100
0000
0001
0000
1000
0200
0000
1300
0000
0010
0000
,
0100
0001
0011
0010
0100
1000
1010
0100
,
0001
0000
1000
0100
0000
0001
0000
0100
0000
1000
0020
0000
0130
0000
0001
0000
,
0010
0100
1100
1000
0010
0100
0101
0001
,
0010
0000
0100
0010
0000
0001
0000
0100
0000
0010
1000
0000
0100
0000
0010
0000
,
2002
0000
0000
3003
,
2000
0100
0000
0000
3010
0000
0000
0000
0002
0100
0000
0000
0013
0000
0000
0000
,
2000
0100
0000
0000
3010
0000
0000
0000
0002
0100
0000
0000
0013
0000
0000
0000
,
2000
0010
0000
0000
3100
0000
0000
0000
0002
0010
0000
0000
0103
0000
0000
0000
,
2000
0010
0000
0000
3100
0000
0000
0000
0002
0010
0000
0000
0103
0000
0000
0000
,
1000
0100
2000
0000
0010
0000
3000
0000
0001
0100
0002
0000
0010
0000
0003
0000
,
1000
0100
2000
0000
0010
0000
3000
0000
0001
0100
0002
0000
0010
0000
0003
0000
,
1000
0010
2000
0000
0100
0000
3000
0000
0001
0010
0002
0000
0100
0000
0003
0000
,
1000
0010
2000
0000
0100
0000
3000
0000
0001
0010
0002
0000
0100
0000
0003
0000
,
1001
0000
0100
0010
0000
0001
0000
0100
0000
0010
2000
0000
3100
0000
0010
0000
,
0001
0100
0101
0010
1000
0100
1100
0010
,
0001
0000
1000
0010
0000
0100
0000
0001
0000
1000
0200
0000
1300
0000
0010
0000
,
0100
0001
0011
0010
0100
1000
1010
0100
,
0001
0000
1000
0100
0000
0001
0000
0100
0000
1000
0020
0000
0130
0000
0001
0000
,
0010
0100
1100
1000
0010
0100
0101
0001
,
0010
0000
0100
0010
0000
0001
0000
0100
0000
0010
1000
0000
0100
0000
0010
0000
,
2002
0000
0000
3003
,
0002
0000
0000
0000
0000
0000
0000
0000
0000
0000
0000
0000
0000
0000
0000
0000
0000
0000
2003
0000
0000
0000
0000
0000
0000
0000
0000
0000
0000
0000
0000
0000
0000
0000
0000
0000
3020
0000
0000
0000
0000
0000
0000
0000
0000
0000
0000
0000
0230
0000
0000
0000
0000
0000
0000
0000
0000
0000
0000
0000
0000
0000
0000
0000
0000
0000
0000
0000
0000
0000
0000
0000
0302
0000
0000
0000
0000
0000
0000
0000
0000
0000
0000
0000
0000
0000
0000
0000
0000
0000
0000
0000
0000
0000
0000
0000
0023
0000
0000
0000
0000
0000
0000
0000
0000
0000
0000
0000
0000
0000
0000
0000
0000
0000
0000
0000
0000
0000
0000
0000
0000
0000
0000
0000
0000
0000
0000
0000
0000
0000
0000
0000
0000
0000
0000
0000
0000
0000
0000
0000
0000
0000
0000
0000
0032
0000
0000
0000
0000
0000
0000
0000
0000
0000
0000
0000
0000
0000
0000
0000
0203
0000
0000
0000
0000
0000
0000
0000
0000
0000
0000
0000
0000
0000
0000
0000
0320
0000
0000
0000
0000
0000
0000
0000
0000
0000
0000
0000
0000
0000
0000
0000
,
2030
0000
0000
0000
0000
0000
3002
0000
0000
0000
0000
0000
0023
0000
0000
0000
2000
0000
0000
0000
0030
0000
0000
0000
3020
0000
0000
0032
0000
0000
2003
0000
,
3002
0000
0000
0203
0000
0000
0320
0000
2030
0000
0000
3200
0000
0000
0320
0000
0032
0000
0000
0203
0000
0000
0320
0000
2030
0000
0000
3200
0000
0000
0320
0000
,
0000
0000
0002
0000
0000
0000
0000
0000
0000
0000
0000
0000
0030
0000
0000
0000
2003
0000
0000
3020
0000
0000
0230
0000
0302
0000
0000
0023
0000
0000
0230
0000
,
0000
2000
0000
0000
0000
0000
0000
0000
,
0000
0000
0000
0000
,
3300
0000
0000
0000
,
0000
0000
0000
0000
,
1000
0000
0100
0000
0010
0000
0100
0000
1000
0000
0100
0000
0010
0000
0001
0100
,
0010
0000
0100
0000
0001
0000
0100
0000
0010
0000
0100
0000
0001
0000
0010
0100
,
1000
0100
1000
0000
0001
0010
0001
0000
1000
0010
1000
0000
0001
0100
0001
0000
,
2000
0100
0000
0000
3001
0000
0001
0000
1000
0000
1000
0000
0110
0000
0000
0000
,
2001
0000
0000
3001
0010
0000
0100
0000
1000
0000
0100
0000
0010
0000
0001
0000
,
2000
0000
0000
3010
0001
0000
0010
0000
1000
0000
0001
0000
0010
0000
0100
0000
,
2000
0000
0000
3001
0010
0000
0100
0000
0010
0000
0001
0000
0100
0000
0010
0000
,
1000
0100
0000
0010
0100
0000
0001
0100
0000
0010
0100
0000
1000
0000
0001
0000
,
2000
0000
0000
3010
0100
0000
0001
0000
1000
0000
0100
0000
0010
0000
0100
0000
,
2000
0000
0000
3001
0010
0000
0100
0000
2000
0000
0000
3010
0001
0000
0010
0000
,
2000
0000
0000
3001
0100
0000
0010
0000
1000
0000
0001
0000
0010
0000
0100
0000
,
0020
0000
0000
0031
0100
0000
0010
0000
2000
0000
0000
3100
0010
0000
0001
0000
,
1002
0000
0000
1003
0010
0000
0100
0000
0001
0000
0100
0000
0010
0000
1000
0000
,
0002
0000
0000
0013
1000
0000
0010
0000
0001
0000
1000
0000
0010
0000
0100
0000
,
0002
0000
0000
1003
0010
0000
0100
0000
0010
0000
1000
0000
0100
0000
0010
0000
,
0001
0100
0000
0010
0100
0000
1000
0100
0000
0010
0100
0000
0001
0000
1000
0000
,
0002
0000
0000
0013
0100
0000
1000
0000
0002
0000
0000
0103
0010
0000
0100
0000
,
0002
0000
0000
1003
0010
0000
0100
0000
0002
0000
0000
0013
1000
0000
0010
0000
,
0001
1000
0100
0010
0001
1000
0010
0100
,
0002
0000
1003
0010
0100
0000
0010
1000
0100
0000
0010
0001
0100
0000
0020
0000
,
0030
1001
0100
1000
0100
0001
0100
1000
,
0010
0001
0010
1000
0010
0001
0010
1000
,
0001
1000
0000
0100
0000
0001
0000
0100
2000
0000
3001
0000
1000
0000
0100
0000
,
0010
0011
0001
0100
0010
1010
1000
0001
,
0010
0000
0100
0000
0010
0000
0001
0000
0010
0000
0100
0000
1000
0010
0100
0000
,
0010
0000
1000
0000
0010
0000
0100
0000
0010
0000
1000
0000
0100
0010
0001
0010
,
0001
0000
1000
0100
1000
0000
0001
0100
0001
0000
1000
0010
1000
0000
0002
0000
,
0023
0230
2300
3020
0230
0302
2000
0000
,
0000
0000
0000
0000
0000
0000
0000
3003
0000
0000
0000
0000
0000
0000
0000
0000
;

//---------------dance-single - ----------------
#NOTES:
     dance-single:
     :
     Easy:
     6:
     0.282942,0.345040,0.357508,0.400409,0.000000,277.000000,227.000000,50.000000,56.000000,0.000000,0.000000,0.282942,0.345040,0.357508,0.400409,0.000000,277.000000,227.000000,50.000000,56.000000,0.000000,0.000000:
0000
0000
0000
0000
,
0000
0000
0000
0000
,
0000
0000
0000
0000
,
0000
0000
0000
0000
,
0000
0000
0000
0000
,
0000
0000
0000
0000
,
0000
0000
0000
0000
,
0000
0000
0000
0000
,
2002
0000
0000
3003
,
0001
0010
0100
1001
,
0001
0101
0010
1010
,
0100
0001
0010
0110
,
1000
1001
0001
0110
,
1000
0100
0010
1001
,
1000
1010
0100
0101
,
0010
1000
0100
0110
,
2002
0000
0000
3003
,
0010
0101
0010
1100
,
0010
0101
0010
1100
,
0100
1010
0100
0011
,
0100
1010
0100
0011
,
0010
0101
0010
1100
,
0010
0101
0010
1100
,
0100
1010
0100
0011
,
0100
1010
0100
0011
,
1000
0010
0100
1001
,
1000
1100
0010
0011
,
0100
1000
0010
0110
,
0001
1001
1000
0110
,
0001
0100
0010
1001
,
0001
0011
0100
1100
,
0010
0001
0100
0110
,
2002
0000
0000
3003
,
0002
0023
0230
2300
3002
0000
2003
0000
,
3020
0000
0230
0302
2003
0000
0100
0000
,
3002
0023
2030
3200
,
0302
0000
0000
0000
0023
0230
2300
3002
,
2003
0000
0000
0000
,
0000
0000
0000
0000
,
3000
0000
0000
0000
,
0000
0000
0000
0000
,
1001
0100
0100
0100
,
1001
0010
0010
0010
,
0001
0010
1000
0000
1000
0010
0001
0000
,
0200
1000
0301
1001
,
0002
0010
0100
1000
,
2003
0100
3020
0100
,
2030
0100
0010
0001
,
3002
0010
2003
0100
,
3020
0001
0100
1000
,
0230
0001
0320
0001
,
2030
0010
0100
0001
,
3002
0023
0230
2300
,
3002
0100
0010
1000
,
2003
0010
3200
0010
,
2300
0010
0100
0001
,
3002
0100
2003
0010
,
3200
0001
0010
1000
,
0320
0001
0230
0001
,
2300
0100
0010
0001
,
3002
0203
2300
3020
,
0030
0100
0000
0010
0000
1001
0000
1000
,
0000
1010
0000
0100
0000
0101
0000
0010
,
0000
1000
0000
0100
0000
0110
0000
0001
,
0000
1001
0000
1000
0000
0110
0000
1001
,
0000
0100
0000
0100
0000
0100
0000
1001
,
0000
0010
0000
0010
0000
0010
0000
0001
,
0010
1000
0000
1000
0010
0001
0000
0200
,
0000
0000
1000
0000
0000
0000
0001
0000
0000
0000
0010
0000
0000
0000
0000
0300
;

//---------------dance-single - ----------------
#NOTES:
     dance-single:
     :
     Medium:
     9:
     0.348315,0.496489,0.200205,0.536262,0.117978,341.000000,313.000000,28.000000,75.000000,0.000000,0.000000,0.348315,0.496489,0.200205,0.536262,0.117978,341.000000,313.000000,28.000000,75.000000,0.000000,0.000000:
0000
0000
0000
0000
,
0000
0000
0000
0000
,
0000
0000
0000
0000
,
0000
0000
0000
0000
,
0000
0000
0000
0000
,
0000
0000
0000
0000
,
0000
0000
0000
0000
,
0000
0000
0000
0000
,
2002
0000
0000
3003
,
1000
0100
0001
0000
0100
0000
1001
0000
,
0001
0110
1000
1001
,
0001
0010
1000
0000
0010
0000
0110
0000
,
0001
1001
1000
0110
,
0001
0010
1000
0000
0010
0000
1001
0000
,
1000
0110
0001
1001
,
1000
0100
0001
0000
0100
0000
0110
0000
,
2002
0000
0000
3003
,
0001
0010
1000
0000
1000
0010
0001
0000
,
1000
0010
0001
0000
0001
0010
1000
0000
,
1000
0100
0001
0000
0001
0100
1000
0000
,
0001
0100
1000
0000
1000
0100
0001
0000
,
0100
0001
0010
0000
0100
0010
0001
0000
,
1000
0010
0100
0000
0010
1000
0100
0000
,
0010
0001
0100
0000
0010
0100
0001
0000
,
1000
0100
0010
0000
0100
1000
0010
0000
,
1000
0010
0001
0000
0010
0000
1001
0000
,
0001
0110
1000
1001
,
0001
0100
1000
0000
0100
0000
0110
0000
,
0001
1001
1000
0110
,
0001
0100
1000
0000
0100
0000
1001
0000
,
1000
0110
0001
1001
,
1000
0010
0001
0000
0010
0000
0110
0000
,
2002
0000
0000
3003
,
0001
0000
0000
0000
0000
0000
0000
0000
0000
0000
0000
0000
0000
0000
0000
0000
0000
0000
0010
0000
0000
0000
0000
0000
0000
0000
0000
0000
0000
0000
0000
0000
0000
0000
0000
0000
0100
0000
0000
0000
0000
0000
0000
0000
0000
0000
0000
0000
2000
0000
0000
0000
0000
0000
0000
0000
0000
0000
0000
0000
0000
0000
0000
0000
0000
0000
0000
0000
0000
0000
0000
0000
3020
0000
0000
0000
0000
0000
0000
0000
0000
0000
0000
0000
0000
0000
0000
0000
0000
0000
0000
0000
0000
0000
0000
0000
0230
0000
0000
0000
0000
0000
0000
0000
0000
0000
0000
0000
0000
0000
0000
0000
0000
0000
0000
0000
0000
0000
0000
0000
0000
0000
0000
0000
0000
0000
0000
0000
0000
0000
0000
0000
0000
0000
0000
0000
0000
0000
0000
0000
0000
0000
0000
0000
0301
0000
0000
0000
0000
0000
0000
0000
0000
0000
0000
0000
0000
0000
0000
0000
1000
0000
0000
0000
0000
0000
0000
0000
0000
0000
0000
0000
0000
0000
0000
0000
0100
0000
0000
0000
0000
0000
0000
0000
0000
0000
0000
0000
0000
0000
0000
0000
,
0020
0000
0000
0000
0000
0000
0230
0000
0000
0000
0000
0000
2300
0000
0000
0000
3002
0000
0000
0000
0000
0000
0000
0000
1003
0000
0000
0010
0000
0000
0100
0000
,
0001
0000
0000
0100
0000
0000
0010
0000
1000
0000
0000
0100
0000
0000
0010
0000
0001
0000
0000
0010
0000
0000
0100
0000
1000
0000
0000
0010
0000
0000
0100
0000
,
0000
0000
0002
0000
0000
0000
0000
0000
0000
0000
0000
0000
0000
0000
0000
0000
1003
0000
0000
0100
0000
0000
0010
0000
0001
0000
0000
0100
0000
0000
0010
0000
,
0000
2000
0000
0000
0000
0000
0000
0000
,
0000
0000
0000
0000
,
3000
0000
0000
0000
,
0000
0000
0000
0000
,
1000
0100
1000
0100
0001
0100
0001
0100
,
1000
0010
1000
0010
0001
0010
0001
0010
,
1000
0100
0001
0100
1000
0010
0001
0010
,
2000
0000
3001
1000
0001
1000
0110
0000
,
0002
1000
0010
2003
,
3200
0001
2300
0010
,
3002
0000
0013
0100
2000
0000
0100
0000
,
3020
0000
0100
0000
2030
0000
3100
0010
,
0002
0000
0000
2003
0000
0000
3002
0000
0010
0000
0000
0000
2003
0000
0000
0000
,
3020
0000
0000
0000
0100
0000
0000
0000
2030
0000
0000
3200
0000
0000
0302
0000
,
0203
0010
0001
1000
,
0320
0000
0000
0032
0000
0000
0203
0000
0320
0000
0000
2030
0000
0000
3200
0000
,
0320
0000
0000
0230
0000
0000
2300
0000
3020
0000
0000
0000
0230
0000
0000
0000
,
0302
0000
0000
0000
0010
0000
0000
0000
2003
0000
0000
3020
0000
0000
0230
0000
,
0302
0000
1003
0100
0020
0000
0032
0000
,
2003
0000
0000
0000
0001
0000
0000
0000
3020
0000
0000
0230
0000
0000
0302
0000
,
2003
0000
0000
3200
0000
0000
0320
0000
0032
0000
0000
0203
0000
0000
0320
0000
,
2030
0000
0000
3200
0000
0000
0320
0000
0032
0000
0000
0203
0000
0000
0320
0000
,
1030
0200
0010
0000
0001
0000
0010
0000
,
2300
0000
0000
3020
0000
0000
0230
0000
0302
0000
0000
0023
0000
0000
0230
0000
,
0300
1001
0000
0001
0010
1000
0000
0010
,
0001
0100
0000
0010
1000
0100
0000
1000
,
0010
0001
0000
0010
0000
0110
0000
0001
,
0000
1001
0000
1000
0000
0110
0000
0001
,
0100
0001
0100
1000
0100
1000
0100
0001
,
0010
0001
0010
1000
0010
1000
0010
0001
,
0100
1000
0100
0001
0010
1000
0010
0001
,
1000
0010
0100
0001
0010
0100
2000
0000
,
0000
0000
0000
0000
0000
0000
0000
3000
0000
0000
0000
0000
0000
0000
0000
0000
;

//---------------dance-double - ----------------
#NOTES:
     dance-double:
     :
     Easy:
     6:
     0.259449,0.345040,0.286006,0.378959,0.000000,254.000000,214.000000,40.000000,53.000000,0.000000,0.000000,0.259449,0.345040,0.286006,0.378959,0.000000,254.000000,214.000000,40.000000,53.000000,0.000000,0.000000:
00000000
00000000
00000000
00000000
,
00000000
00000000
00000000
00000000
,
00000000
00000000
00000000
00000000
,
00000000
00000000
00000000
00000000
,
00000000
00000000
00000000
00000000
,
00000000
00000000
00000000
00000000
,
00000000
00000000
00000000
00000000
,
00000000
00000000
00000000
00000000
,
00022000
00000000
00000000
00033000
,
00010000
00001000
00000010
00000010
,
00000001
00000011
00001000
00001100
,
00000001
00000100
00000010
00000010
,
00001000
00000110
00000001
00000110
,
00001000
00010000
01000000
01000000
,
10000000
11000000
00010000
00110000
,
10000000
00100000
01000000
00001000
,
00022000
00000000
00000000
00033000
,
00100000
00011000
00000100
00011000
,
00100000
00011000
00000100
00011000
,
01000000
00011000
00000010
00011000
,
01000000
00011000
00000010
00011000
,
00100000
00011000
00000100
00011000
,
00100000
00011000
00000100
00011000
,
01000000
00011000
00000010
00011000
,
01000000
00011000
00000010
00011000
,
00010000
00001000
00000010
00000010
,
00000001
00000011
00001000
00001100
,
00000001
00000100
00000010
00000010
,
00001000
00000110
00000001
00000110
,
00001000
00010000
01000000
01000000
,
10000000
11000000
00010000
00110000
,
10000000
00100000
01000000
00001000
,
00022000
00000000
00000000
00033000
,
00002000
00023000
02030000
23000000
30020000
00000000
20030000
00000000
,
30200000
00000000
02300000
03002000
00023000
00000000
01000000
00000000
,
00032000
00000010
00023000
00100000
,
00032000
00000000
00000000
00000000
00003020
00000032
00000203
00002300
,
00023000
00000000
00000000
00000000
,
00000000
00000000
00000000
00000000
,
00030000
00000000
00000000
00000000
,
00000000
00000000
00000000
00000000
,
00011000
00000100
00000100
00000100
,
00011000
01000000
01000000
01000000
,
00010000
00100000
00001000
00000000
00010000
00000010
00001000
00000000
,
00000002
00000000
00000003
00001001
,
00002000
00000100
00000001
00000100
,
00003020
00000100
00001000
00000100
,
00020030
00000000
00001000
00001000
,
00030200
00000000
00020300
00000000
,
00032000
00010000
00100000
00010000
,
02003000
00100000
00010000
00100000
,
03020000
00000000
20030000
00000000
,
30020000
00230000
02300000
23000000
,
30020000
00100000
10000000
00100000
,
02030000
00100000
00010000
00100000
,
03002000
00000000
00010000
00010000
,
00203000
00000000
00302000
00000000
,
00023000
01000000
00032000
00000010
,
00023000
00100000
00032000
00000100
,
00023000
00000000
00000000
00000000
,
02030000
23000000
30200000
00320000
,
00030000
00001000
00000000
00000010
00000000
00000010
00000000
00000001
,
00000000
00000011
00000000
00001000
00000000
00001100
00000000
00000001
,
00000000
00000100
00000000
00000010
00000000
00000010
00000000
00001000
,
00000000
00000110
00000000
00000001
00000000
00000110
00000000
00011000
,
00000000
01000000
00000000
01000000
00000000
01000000
00000000
00011000
,
00000000
00000100
00000000
00000100
00000000
00000100
00000000
00001000
,
00000010
00010000
00000000
00001000
00100000
00010000
00000000
20000000
,
00000000
00000000
01000000
00000000
00000000
00000000
00100000
00000000
00000000
00000000
00010000
00000000
00000000
00000000
00000000
30000000
;

//---------------dance-double - ----------------
#NOTES:
     dance-double:
     :
     Hard:
     11:
     0.425945,0.521314,0.164454,0.386109,0.107252,417.000000,394.000000,23.000000,54.000000,0.000000,0.000000,0.425945,0.521314,0.164454,0.386109,0.107252,417.000000,394.000000,23.000000,54.000000,0.000000,0.000000:
00000000
00000000
00000000
00000000
,
00000000
00000000
00000000
00000000
,
00000000
00000000
00000000
00000000
,
00000000
00000000
00000000
00000000
,
00000000
00000000
00000000
00000000
,
00000000
00000000
00000000
00000000
,
00000000
00000000
00000000
00000000
,
00000000
00000000
00000000
00000000
,
00022000
00000000
00000000
00033000
,
00011000
00010000
00001000
00000010
00000100
00000010
00000001
00000000
,
00000010
00011000
00001000
00000011
,
00000010
00001000
00010000
00100000
10000000
01000000
00100000
00000000
,
01000000
00011000
00010000
11000000
,
00100000
00010000
00001000
00000010
00000100
00000010
00000001
00000000
,
00000010
00011000
00001000
00000011
,
00000010
00001000
00010000
00100000
10000000
00100000
00010000
00000000
,
00022000
00000000
00000000
00033000
,
00001000
00000010
00000001
00000000
00000001
00000010
00001000
00000000
,
00001000
00000010
00000001
00000000
00000001
00000010
00001000
00000000
,
00010000
00100000
10000000
00000000
10000000
00100000
00010000
00000000
,
00010000
00100000
10000000
00000000
10000000
00100000
00010000
00000000
,
00001000
00000010
00000001
00000000
00000010
00001000
00010000
00000000
,
00001000
00000010
00000001
00000000
00000010
00001000
00010000
00000000
,
00010000
00100000
10000000
00000000
00100000
00010000
00001000
00000000
,
00010000
00100000
10000000
00000000
00100000
00010000
00001000
00000000
,
00011000
00001000
00010000
00100000
01000000
00100000
10000000
00000000
,
00100000
00010000
00001000
00000000
00010000
00100000
10000000
00000000
,
00100000
00010000
00001000
00000010
00000001
00000100
00000010
00000000
,
00000100
00001000
00010000
00000000
00001000
00000100
00000001
00000000
,
00000010
00001000
00010000
00100000
01000000
00100000
10000000
00000000
,
00100000
00010000
00001000
00000000
00010000
00100000
10000000
00000000
,
00100000
00010000
00001000
00000010
00000001
00000010
00001000
00000000
,
00022000
00000000
00000000
00033000
,
00002000
00000000
00000000
00000000
00000000
00000000
00000000
00000000
00000000
00000000
00000000
00000000
00000000
00000000
00000000
00000000
00000000
00000000
00023000
00000000
00000000
00000000
00000000
00000000
00000000
00000000
00000000
00000000
00000000
00000000
00000000
00000000
00000000
00000000
00000000
00000000
00230000
00000000
00000000
00000000
00000000
00000000
00000000
00000000
00000000
00000000
00000000
00000000
02300000
00000000
00000000
00000000
00000000
00000000
00000000
00000000
00000000
00000000
00000000
00000000
00000000
00000000
00000000
00000000
00000000
00000000
00000000
00000000
00000000
00000000
00000000
00000000
23000000
00000000
00000000
00000000
00000000
00000000
00000000
00000000
00000000
00000000
00000000
00000000
00000000
00000000
00000000
00000000
00000000
00000000
00000000
00000000
00000000
00000000
00000000
00000000
32000000
00000000
00000000
00000000
00000000
00000000
00000000
00000000
00000000
00000000
00000000
00000000
00000000
00000000
00000000
00000000
00000000
00000000
00000000
00000000
00000000
00000000
00000000
00000000
00000000
00000000
00000000
00000000
00000000
00000000
00000000
00000000
00000000
00000000
00000000
00000000
00000000
00000000
00000000
00000000
00000000
00000000
00000000
00000000
00000000
00000000
00000000
00000000
03200000
00000000
00000000
00000000
00000000
00000000
00000000
00000000
00000000
00000000
00000000
00000000
00000000
00000000
00000000
00000000
00320000
00000000
00000000
00000000
00000000
00000000
00000000
00000000
00000000
00000000
00000000
00000000
00000000
00000000
00000000
00000000
00032000
00000000
00000000
00000000
00000000
00000000
00000000
00000000
00000000
00000000
00000000
00000000
00000000
00000000
00000000
00000000
,
00003020
00000000
00000000
00000000
00000000
00000000
00000032
00000000
00000000
00000000
00000000
00000000
00000203
00000000
00000000
00000000
00002300
00000000
00000000
00000000
00000000
00000000
00000000
00000000
00023000
00000000
00000000
02030000
00000000
00000000
23000000
00000000
,
30200000
00000000
00000000
00320000
00000000
00000000
00032000
00000000
00003020
00000000
00000000
00002030
00000000
00000000
00023000
00000000
02030000
00000000
00000000
03020000
00000000
00000000
00032000
00000000
00003200
00000000
00000000
00000302
00000000
00000000
00000023
00000000
,
00000000
00000000
00000200
00000000
00000000
00000000
00000000
00000000
00000000
00000000
00000000
00000000
00000030
00000000
00000000
00000000
00000320
00000000
00000000
00000032
00000000
00000000
00000203
00000000
00002300
00000000
00000000
00023000
00000000
00000000
02030000
00000000
,
00000000
20000000
00000000
00000000
00000000
00000000
00000000
00000000
,
00000000
00000000
00000000
00000000
,
33000000
00000000
00000000
00000000
,
00000000
00000000
00000000
00000000
,
10000000
01000000
00010000
01000000
10000000
01000000
00100000
00100000
,
00001000
00000100
00000001
00000100
00001000
00000100
00000010
00000010
,
00010000
00010010
00001000
00101000
00010000
00010100
00001000
01001000
,
00020000
00000000
00031000
00010000
00001000
00010000
00011000
00000000
,
00011000
00010000
01000000
00010000
00001000
00000100
00000001
00000010
,
00000100
00000010
00000001
00000100
00001000
00010000
00001000
00001000
,
00010000
01000000
10000000
00100000
01000000
00100000
10000000
00010000
,
00100000
01000000
00000000
00100000
00010000
00000000
00100000
00001000
00000000
00010000
00000010
00000000
00000100
00000000
00000010
00000000
,
00000001
00000010
00001000
00000001
00000010
00001000
00010000
01000000
,
10000000
01000000
00010000
10000000
00100000
00010000
10000000
00100000
,
01000000
00001000
00010000
00001000
00100000
00001000
00010000
00001000
,
02000000
00000000
00000000
03001000
00010000
00000000
00000100
00000000
00002000
00000000
00000000
00003010
00010000
00000000
00001000
00000000
,
00011000
00010000
01000000
00010000
00001000
00000100
00000001
00000010
,
00000100
00000010
00000001
00000100
00001000
00010000
00001000
00001000
,
00010000
01000000
10000000
00100000
01000000
00100000
10000000
00010000
,
00100000
01000000
00000000
00100000
00010000
00000000
00100000
00001000
00000000
00010000
00000010
00000000
00000100
00000000
00000010
00000000
,
00001000
00000100
00000010
00000001
00000100
00001000
00010000
00100000
,
10000000
01000000
00100000
00010000
01000000
00100000
00010000
00001000
,
00000010
00000100
00010000
00000100
00000010
00000100
00010000
00000100
,
00000010
00000010
00000001
00000001
00000100
00001000
00010000
02000000
,
03000000
10010000
00010000
00100000
01000000
00100000
00001000
00010000
,
00100000
01000000
00100000
00010000
00001000
00010000
01000000
00100000
,
01000000
00010000
00001000
00010000
00100000
10000000
00000000
00100000
,
00010000
00001000
00000000
00010000
00100000
10000000
00000000
10000000
,
01000000
00010000
01000000
10000000
01000000
00100000
00100000
00001000
,
00000100
00000001
00000100
00001000
00000100
00000010
00000010
00010000
,
00010010
00001000
00101000
00010000
00010100
00001000
01001000
00020000
,
02030000
23000000
30200000
00320000
00032000
00003020
00000200
00000000
,
00000000
00000000
00000000
00000000
00000000
00000000
00000000
00000330
00000000
00000000
00000000
00000000
00000000
00000000
00000000
00000000
;

//---------------dance-double - ----------------
#NOTES:
     dance-double:
     :
     Medium:
     9:
     0.345251,0.496489,0.200205,0.514812,0.114403,338.000000,310.000000,28.000000,72.000000,0.000000,0.000000,0.345251,0.496489,0.200205,0.514812,0.114403,338.000000,310.000000,28.000000,72.000000,0.000000,0.000000:
00000000
00000000
00000000
00000000
,
00000000
00000000
00000000
00000000
,
00000000
00000000
00000000
00000000
,
00000000
00000000
00000000
00000000
,
00000000
00000000
00000000
00000000
,
00000000
00000000
00000000
00000000
,
00000000
00000000
00000000
00000000
,
00000000
00000000
00000000
00000000
,
00022000
00000000
00000000
00033000
,
00010000
01000000
10000000
00000000
01000000
00000000
01100000
00000000
,
00010000
10010000
10000000
11000000
,
10000000
00100000
00010000
00000000
00001000
00000000
00011000
00000000
,
00000100
00011000
00100000
00011000
,
00001000
00000010
00000001
00000000
00000010
00000000
00000110
00000000
,
00001000
00001001
00000001
00000011
,
00000001
00000100
00001000
00000000
00010000
00000000
00110000
00000000
,
22000000
00000000
00000000
33000000
,
10000000
00100000
00010000
00000000
00001000
00000010
00000001
00000000
,
00000001
00000010
00001000
00000000
00010000
00100000
10000000
00000000
,
10000000
01000000
00010000
00000000
00001000
00000100
00000001
00000000
,
00000001
00000100
00001000
00000000
00010000
01000000
10000000
00000000
,
10000000
00100000
00010000
00000000
00001000
00000100
00000001
00000000
,
00000001
00000010
00001000
00000000
00010000
01000000
10000000
00000000
,
10000000
01000000
00010000
00000000
00001000
00000010
00000001
00000000
,
00000001
00000100
00001000
00000000
00010000
00100000
10000000
00000000
,
00010000
00100000
10000000
00000000
00100000
00000000
01100000
00000000
,
00010000
10010000
10000000
10100000
,
10000000
01000000
00010000
00000000
00001000
00000000
00011000
00000000
,
00000010
00011000
01000000
00011000
,
00001000
00000100
00000001
00000000
00000100
00000000
00000110
00000000
,
00001000
00001001
00000001
00000101
,
00000001
00000010
00001000
00000000
00010000
00000000
01010000
00000000
,
20200000
00000000
00000000
30300000
,
10000000
00000000
00000000
00000000
00000000
00000000
00000000
00000000
00000000
00000000
00000000
00000000
00000000
00000000
00000000
00000000
00000000
00000000
01000000
00000000
00000000
00000000
00000000
00000000
00000000
00000000
00000000
00000000
00000000
00000000
00000000
00000000
00000000
00000000
00000000
00000000
00100000
00000000
00000000
00000000
00000000
00000000
00000000
00000000
00000000
00000000
00000000
00000000
00020000
00000000
00000000
00000000
00000000
00000000
00000000
00000000
00000000
00000000
00000000
00000000
00000000
00000000
00000000
00000000
00000000
00000000
00000000
00000000
00000000
00000000
00000000
00000000
20030000
00000000
00000000
00000000
00000000
00000000
00000000
00000000
00000000
00000000
00000000
00000000
00000000
00000000
00000000
00000000
00000000
00000000
00000000
00000000
00000000
00000000
00000000
00000000
30200000
00000000
00000000
00000000
00000000
00000000
00000000
00000000
00000000
00000000
00000000
00000000
00000000
00000000
00000000
00000000
00000000
00000000
00000000
00000000
00000000
00000000
00000000
00000000
00000000
00000000
00000000
00000000
00000000
00000000
00000000
00000000
00000000
00000000
00000000
00000000
00000000
00000000
00000000
00000000
00000000
00000000
00000000
00000000
00000000
00000000
00000000
00000000
01300000
00000000
00000000
00000000
00000000
00000000
00000000
00000000
00000000
00000000
00000000
00000000
00000000
00000000
00000000
00000000
00001000
00000000
00000000
00000000
00000000
00000000
00000000
00000000
00000000
00000000
00000000
00000000
00000000
00000000
00000000
00000000
00010000
00000000
00000000
00000000
00000000
00000000
00000000
00000000
00000000
00000000
00000000
00000000
00000000
00000000
00000000
00000000
,
00002000
00000000
00000000
00000000
00000000
00000000
00203000
00000000
00000000
00000000
00000000
00000000
02300000
00000000
00000000
00000000
03020000
00000000
00000000
00000000
00000000
00000000
00000000
00000000
00031000
00000000
00000000
00000010
00000000
00000000
00000001
00000000
,
00001000
00000000
00000000
00000100
00000000
00000000
00010000
00000000
00001000
00000000
00000000
01000000
00000000
00000000
00010000
00000000
00100000
00000000
00000000
00001000
00000000
00000000
00010000
00000000
00000010
00000000
00000000
00001000
00000000
00000000
00000100
00000000
,
00000000
00000000
00020000
00000000
00000000
00000000
00000000
00000000
00000000
00000000
00000000
00000000
00000000
00000000
00000000
00000000
00031000
00000000
00000000
01000000
00000000
00000000
00010000
00000000
00100000
00000000
00000000
01000000
00000000
00000000
10000000
00000000
,
00000000
00020000
00000000
00000000
00000000
00000000
00000000
00000000
,
00000000
00000000
00000000
00000000
,
00030000
00000000
00000000
00000000
,
00000000
00000000
00000000
00000000
,
10000000
01000000
10000000
01000000
00010000
01000000
00010000
00001000
,
00010000
00001000
00000100
00001000
00000100
00000001
00000100
00000001
,
00000010
00001000
00000010
00000001
00000100
00001000
00010000
01000000
,
20000000
00010000
30010000
01100000
,
00020000
01000000
10000000
00100000
,
00032000
00000100
00003002
00000100
,
00000023
00000000
00000130
00001000
00000002
00000000
00000010
00000000
,
00002003
00000000
00000100
00000000
00003002
00000000
00000103
00001000
,
00020000
00001000
02030000
00010000
,
23000000
00000000
00000000
00000000
01000000
00000000
00000000
00000000
30200000
00000000
00000000
02300000
00000000
00000000
03002000
00000000
,
00023000
00000010
00001000
00000100
,
00032000
00000000
00000000
00003200
00000000
00000000
00000302
00000000
00000203
00000000
00000000
00002300
00000000
00000000
00023000
00000000
,
00032000
00000000
00000000
00003020
00000000
00000000
00000032
00000000
00000203
00000000
00000000
00000000
00002300
00000000
00000000
00000000
,
00023000
00000000
00000000
00000000
01000000
00000000
00000000
00000000
00032000
00000000
00000000
00003200
00000000
00000000
00000302
00000000
,
00000023
00000000
00000130
00001000
00000002
00000000
00000023
00000000
,
00002030
00000000
00000000
00000000
00010000
00000000
00000000
00000000
00023000
00000000
00000000
00230000
00000000
00000000
20300000
00000000
,
32000000
00000000
00000000
03200000
00000000
00000000
00320000
00000000
02030000
00000000
00000000
03200000
00000000
00000000
00320000
00000000
,
00032000
00000000
00000000
00003200
00000000
00000000
00000320
00000000
00002030
00000000
00000000
00003200
00000000
00000000
00000320
00000000
,
00000031
00000200
00001000
00000000
00000010
00000000
00000001
00000000
,
00000320
00000000
00000000
00000230
00000000
00000000
00002300
00000000
00023000
00000000
00000000
02030000
00000000
00000000
03200000
00000000
,
00300000
10010000
00000000
10000000
00100000
00010000
00000000
00001000
,
00000010
00000001
00000000
00000001
00000010
00001000
00000000
00010000
,
00100000
10000000
00000000
00100000
00000000
01100000
00000000
00010000
,
00000000
10010000
00000000
10000000
00000000
10100000
00000000
10000000
,
01000000
10000000
01000000
00010000
01000000
00010000
00001000
00010000
,
00001000
00000100
00001000
00000100
00000001
00000100
00000001
00000010
,
00001000
00000010
00000001
00000100
00001000
00010000
01000000
10000000
,
01000000
00010000
00001000
00000100
00000001
00000010
00002000
00000000
,
00000000
00000000
00000000
00000000
00000000
00000000
00000000
00003000
00000000
00000000
00000000
00000000
00000000
00000000
00000000
00000000
;

//---------------dance-double - ----------------
#NOTES:
     dance-double:
     :
     Challenge:
     15:
     0.609807,0.819207,0.078652,0.822268,0.743617,597.000000,586.000000,11.000000,115.000000,8.000000,0.000000,0.609807,0.819207,0.078652,0.822268,0.743617,597.000000,586.000000,11.000000,115.000000,8.000000,0.000000:
00000000
00000000
00000000
00000000
,
00000000
00000000
00000000
00000000
,
00000000
00000000
00000000
00000000
,
00000000
00000000
00000000
00000000
,
00000000
00000000
00000000
00000000
,
00000000
00000000
00000000
00000000
,
00000000
00000000
00000000
00000000
,
00000000
00000000
00000000
00000000
,
00022000
00000000
00000000
00000000
00000000
00000000
00000000
00000000
00033000
00000000
00000000
00010000
00001000
00000000
00010000
00000000
,
00011000
00000000
00001000
00000100
00000000
00000010
00000000
00001000
00000000
00001000
00000002
00000000
00002003
00000000
00003100
00000000
,
00000010
00000001
00000010
00000000
00001000
00000000
00010000
00000000
00100000
10000000
00100000
00000000
00010000
00000000
00001000
00000000
,
00000010
00000000
00000100
00001000
00000000
00000001
00000000
00000100
00000000
00000100
00000020
00000000
00020030
00000000
00031000
00000000
,
00000010
00000001
00000010
00000000
00001000
00000000
00010000
00000000
00100000
10000000
00100000
00000000
00010000
00000000
00001000
00000000
,
00011000
00000000
00010000
01000000
00000000
00100000
00000000
00010000
00000000
00010000
20000000
00000000
30020000
00000000
01030000
00000000
,
00100000
10000000
00100000
00000000
00010000
00000000
00001000
00000000
00000010
00000001
00000010
00000000
00001000
00000000
00010000
00000000
,
00100000
00000000
01000000
00010000
00000000
10000000
00000000
01000000
00000000
01000000
00200000
00000000
00302000
00000000
00013000
00000000
,
00001000
00000100
00000010
00000001
00000010
00000100
00001000
00010000
00100000
01000000
10000000
01000000
00100000
00010000
00001000
00000000
,
00010000
01000000
00200000
00000000
00001000
00000000
00300000
00000000
00010000
00000010
00000200
00000000
00001000
00000000
00000300
00000000
,
00010000
01000000
00200000
00000000
00001000
00000000
00300000
00000000
00010000
00000010
00000200
00000000
00001000
00000000
00000300
00000000
,
00010000
00100000
02000000
00000000
00001000
00000000
03000000
00000000
00010000
00000100
00000020
00000000
00001000
00000000
00000030
00000000
,
00010000
00100000
02000000
00000000
00001000
00000000
03000000
00000000
00010000
00000100
00000020
00000000
00001000
00000000
00000030
00000000
,
00010000
00001000
02000000
00000000
03100000
00000000
00010000
00000000
00001000
00010000
00000200
00000000
00000310
00000000
00001000
00000000
,
00010000
00001000
02000000
00000000
03100000
00000000
00010000
00000000
00001000
00010000
00000200
00000000
00000310
00000000
00001000
00000000
,
00001000
00010000
00000020
00000000
00000130
00000000
00001000
00000000
00010000
00001000
00200000
00000000
01300000
00000000
00010000
00000000
,
00001000
00010000
00000020
00000000
00000130
00000000
00001000
00000000
00010000
00001000
00200000
00000000
01300000
00000000
00010000
00000000
,
00011000
00000000
00001000
00000100
00000000
00000010
00000000
00001000
00000000
00001000
00000002
00000000
00002003
00000000
00003100
00000000
,
00000010
00000001
00000010
00000000
00001000
00000000
00010000
00000000
00100000
10000000
00100000
00000000
00010000
00000000
00001000
00000000
,
00000010
00000000
00000100
00001000
00000000
00000001
00000000
00000100
00000000
00000100
00000020
00000000
00020030
00000000
00031000
00000000
,
00000010
00000001
00000010
00000000
00001000
00000000
00010000
00000000
00100000
10000000
00100000
00000000
00010000
00000000
00001000
00000000
,
00011000
00000000
00010000
01000000
00000000
00100000
00000000
00010000
00000000
00010000
20000000
00000000
30020000
00000000
01030000
00000000
,
00100000
10000000
00100000
00000000
00010000
00000000
00001000
00000000
00000010
00000001
00000010
00000000
00001000
00000000
00010000
00000000
,
00100000
00000000
01000000
00010000
00000000
10000000
00000000
01000000
00000000
01000000
00200000
00000000
00302000
00000000
00013000
00000000
,
00001000
00000100
00000010
00000001
00000010
00000100
00001000
00010000
00100000
01000000
10000000
01000000
00100000
00010000
00001000
00000100
,
00000002
00000000
00000000
00000000
00000000
00000000
00000000
00000000
00000000
00000000
00000000
00000000
00000000
00000000
00000000
00000000
00000000
00000000
00000023
00000000
00000000
00000000
00000000
00000000
00000000
00000000
00000000
00000000
00000000
00000000
00000000
00000000
00000000
00000000
00000000
00000000
00000230
00000000
00000000
00000000
00000000
00000000
00000000
00000000
00000000
00000000
00000000
00000000
00002300
00000000
00000000
00000000
00000000
00000000
00000000
00000000
00000000
00000000
00000000
00000000
00000000
00000000
00000000
00000000
00000000
00000000
00000000
00000000
00000000
00000000
00000000
00000000
00023000
00000000
00000000
00000000
00000000
00000000
00000000
00000000
00000000
00000000
00000000
00000000
00000000
00000000
00000000
00000000
00000000
00000000
00000000
00000000
00000000
00000000
00000000
00000000
00230000
00000000
00000000
00000000
00000000
00000000
00000000
00000000
00000000
00000000
00000000
00000000
00000000
00000000
00000000
00000000
00000000
00000000
00000000
00000000
00000000
00000000
00000000
00000000
00000000
00000000
00000000
00000000
00000000
00000000
00000000
00000000
00000000
00000000
00000000
00000000
00000000
00000000
00000000
00000000
00000000
00000000
00000000
00000000
00000000
00000000
00000000
00000000
02300000
00000000
00000000
00000000
00000000
00000000
00000000
00000000
00000000
00000000
00000000
00000000
00000000
00000000
00000000
00000000
23000000
00000000
00000000
00000000
00000000
00000000
00000000
00000000
00000000
00000000
00000000
00000000
00000000
00000000
00000000
00000000
32000000
00000000
00000000
00000000
00000000
00000000
00000000
00000000
00000000
00000000
00000000
00000000
00000000
00000000
00000000
00000000
,
03020000
00000000
00000000
00000000
00000000
00000000
00032000
00000000
00000000
00000000
00000000
00000000
00003200
00000000
00000000
00000000
00000002
00000000
00000000
00000000
00000300
00000000
00000000
00000000
00000203
00000000
00000000
00000320
00000000
00000000
00002030
00000000
,
00003002
00000000
00000000
00000023
00000000
00000000
00002030
00000000
00023000
00000000
00000000
00230000
00000000
00000000
10000000
00000000
20300000
00000000
00000000
32000000
00000000
00000000
03020000
00000000
00032000
00000000
00000000
00003200
00000000
00000000
00000302
00000000
,
00000000
00000000
00002000
00000000
00000000
00000000
00000000
00000000
00000000
00000000
00000000
00000000
00000003
00000000
00000000
00000000
00003002
00000000
00000000
00000023
00000000
00000000
00002030
00000000
00023000
00000000
00000000
02030000
00000000
00000000
23000000
00000000
,
00000000
00020000
00000000
00000000
00000000
00000000
00000000
00000000
,
00000000
00000000
00000000
00000000
,
30030000
00000000
00000000
00000000
,
00000000
00000000
00000000
00000000
,
10010000
00000000
10000000
00000000
01000000
00000000
01000000
00000000
00010000
00000000
00010000
00000000
00001000
00000000
00001000
00000100
,
00000001
00000000
00000001
00000000
00000010
00000000
00000010
00000000
00001000
00000000
00001000
00000000
00010000
00100000
00010000
00100000
,
10000000
00010000
10000000
01000000
00100000
00010000
00100000
00001000
00010000
00000010
00001000
00000010
00000100
00000001
00001000
00000001
,
00000020
00000100
00000000
00000130
00001000
00000000
00001000
00000000
00000001
00000000
00000001
00000000
00000220
00000000
00000330
00000000
,
00001001
00000000
00000001
00000020
00000000
00000130
00002000
00000000
00003100
00000000
00000002
00000000
00000103
00001000
00000000
00001000
,
00000002
00000000
00000103
00000010
00000100
00000000
00000001
00000000
00002000
00000000
00003100
00000010
00000000
00000010
00001000
00010000
,
00002000
00000000
00013000
00000010
00001000
00000000
00000100
00000000
00010000
00000000
00002000
00000000
00013000
00100000
00000000
00100000
,
01000000
00020000
00000000
01030000
00002000
00000000
01003000
00020000
00000000
01030000
00200000
00000000
01300000
00010000
20000000
00000000
,
31000000
00000000
00100000
00010000
20000000
00000000
31000000
00000000
20000000
00000000
30010000
00000000
10000000
00100000
00000000
00100000
,
00020000
00000000
00031000
00010000
00001000
00000000
00100000
00000000
00020000
00000000
10030000
00200000
00000000
01300000
00020000
00000000
,
02030000
00000000
03001000
00010000
00000000
00010000
00000100
00000000
00002000
00000000
00003001
00000100
00000000
00000100
00000010
00000000
,
00001000
00000200
00000000
00010300
00002000
00000000
00103000
00020000
00000000
10030000
00200000
00000000
01300000
00010000
10000000
00000000
,
10010000
00000000
10000000
02000000
00000000
03100000
00020000
00000000
00130000
00000000
20000000
00000000
30100000
00010000
00000000
00010000
,
20000000
00000000
30100000
01000000
00100000
00000000
10000000
00000000
00020000
00000000
00130000
01000000
00000000
01000000
00010000
00001000
,
00020000
00000000
00031000
01000000
00010000
00000000
00100000
00000000
00001000
00000000
00020000
00000000
00031000
00000100
00000000
00000100
,
00000010
00002000
00000000
00003010
00020000
00000000
00030010
00002000
00000000
00003010
00000200
00000000
00000310
00001000
00000002
00000000
,
00000023
00000000
00000130
00001000
00000001
00000000
00000010
00000000
00000002
00000000
00000103
00000010
00001000
00000000
00000100
00000000
,
00000020
00000000
00000130
00010000
00001000
00000000
00010000
00000000
00002000
00000000
01003000
00100000
01000000
00000000
00010000
00000000
,
10000000
01000000
10000000
01000000
00010000
01000000
00010000
00001000
00010000
00001000
00000100
00001000
00000100
00000001
00000100
00000001
,
00001000
00000100
00000010
00000001
00000100
00000010
00001000
00000100
00010000
00001000
00100000
00010000
01000000
00100000
10000000
00000000
,
MMMMMMMM
00000000
10010000
00000000
10000000
01000000
00100000
00000000
01000000
00100000
00010000
00000000
01000000
00100000
00010000
00000000
,
00100000
00010000
00001000
00000000
00010000
00001000
00000100
00000000
00001000
00000100
00000010
00000000
00001000
00000100
00000010
00000000
,
00000001
00001000
00000000
00000010
00000000
00000100
00000000
00000100
00000002
00000000
00002003
00000000
00003100
00000000
00000010
00000000
,
00001000
00010000
00100000
00000000
00010000
00100000
01000000
00000000
00010000
00100000
01000000
00000000
10000000
00000000
10010000
00000000
,
10000000
00000000
01000000
00000000
01000000
00000000
00010000
00000000
00010000
00000000
00001000
00000000
00001000
00000100
00000001
00000000
,
00000001
00000000
00000010
00000000
00000010
00000000
00001000
00000000
00001000
00000000
00010000
00100000
00010000
00100000
10000000
00010000
,
10000000
01000000
00100000
00010000
00100000
00001000
00010000
00000010
00001000
00000010
00000100
00000001
00001000
00000001
00001000
00000100
,
00000010
00000001
00000010
00000100
00001000
00010000
00100000
01000000
10000000
01000000
00100000
00010000
00001000
00000200
00000000
00000000
,
00000000
00000000
00000000
00000000
00000000
00000000
00000000
00000300
00000000
00000000
00000000
00000000
00000000
00000000
00000000
00000000
;
