#TITLE:Miami Sunset Drive;
#SUBTITLE:;
#ARTIST:Dirty Androids;
#TITLETRANSLIT:;
#SUBTITLETRANSLIT:;
#ARTISTTRANSLIT:;
#GENRE:BEMANI;
#CREDIT:;
#BANNER:Miami Sunset Drive.png;
#BACKGROUND:Miami Sunset Drive-bg.png;
#LYRICSPATH:;
#CDTITLE:../cdtitle.png;
#MUSIC:Miami Sunset Drive.ogg;
#OFFSET:1.832000;
#SAMPLESTART:76.946846;
#SAMPLELENGTH:15.000000;
#LASTBEATHINT:1.816533;
#SELECTABLE:YES;
#BPMS:0.000000=131.000000
;
#STOPS:
;
#BGCHANGES:-99.000=../bg.avi=1.000=0=0=1=====,
99999=-nosongbg-=1.000=0=0=0 // don't automatically add -songbackground-
;
#KEYSOUNDS:;
#ATTACKS:;

//---------------dance-single - ----------------
#NOTES:
     dance-single:
     :
     Beginner:
     2:
     0.083626,0.134151,0.000000,0.162607,0.000000,72.000000,72.000000,0.000000,20.000000,0.000000,0.000000,0.083626,0.134151,0.000000,0.162607,0.000000,72.000000,72.000000,0.000000,20.000000,0.000000,0.000000:
0000
0000
0000
0000
,
0000
0000
0000
0000
,
0000
0000
0000
0000
,
0000
0000
0000
0000
,
0000
0000
0000
0000
,
0000
0000
0000
0000
,
0000
0000
0000
0000
,
0000
0000
0000
0000
,
0000
0000
0000
0000
,
0010
0000
0000
0000
,
0100
0000
0000
0000
,
0010
0000
0000
0000
,
0100
0000
0000
0000
,
0001
0000
0000
0000
,
1000
0000
0000
0000
,
0001
0000
0000
0000
,
1000
0000
0000
0000
,
0020
0000
0000
0030
,
0010
0000
0010
0000
,
2000
0000
0000
3000
,
1000
0000
1000
0000
,
0200
0000
0000
0300
,
0100
0000
0100
0000
,
0020
0000
0000
0030
,
0010
0000
0010
0000
,
0002
0000
0000
0000
,
0003
0000
0000
0000
,
2000
0000
0000
0000
,
3000
0000
0000
0000
,
0020
0000
0000
0000
,
0030
0000
0000
0000
,
0200
0000
0000
0000
,
0300
0000
0000
0000
,
0010
0000
0010
0000
,
2000
0000
0000
3000
,
0001
0000
0001
0000
,
0020
0000
0000
0030
,
0100
0000
0100
0000
,
0020
0000
0000
0030
,
0001
0000
0001
0000
,
2000
0000
0000
3000
,
0010
0000
0100
0000
,
0020
0000
0000
0030
,
0100
0000
0100
0000
,
0002
0000
0000
0003
,
1000
0000
1000
0000
,
0200
0000
0000
0300
,
0010
0000
0010
0000
,
0002
0000
0000
0003
,
1000
0000
0001
0000
,
0200
0000
0000
0300
,
0010
0000
0010
0000
,
2000
0000
0000
3000
,
0001
0000
0001
0000
,
0020
0000
0000
0030
,
0100
0000
0100
0000
,
2000
0000
0000
3000
,
0001
0000
1000
0000
,
0010
0000
0100
0000
,
0001
0000
0000
0000
,
1000
0000
0000
0000
,
0001
0000
0000
0000
,
1000
0000
0000
0000
,
0100
0000
0000
0000
,
0010
0000
0000
0000
,
0100
0000
0000
0000
,
0010
0000
0000
0000
;

//---------------dance-single - ----------------
#NOTES:
     dance-single:
     :
     Easy:
     5:
     0.188159,0.271350,0.016261,0.276432,0.000000,162.000000,160.000000,2.000000,34.000000,0.000000,0.000000,0.188159,0.271350,0.016261,0.276432,0.000000,162.000000,160.000000,2.000000,34.000000,0.000000,0.000000:
0000
0000
0000
0000
,
0000
0000
0000
0000
,
0000
0000
0000
0000
,
0000
0000
0000
0000
,
0000
0000
0000
0000
,
0000
0000
0000
0000
,
0000
0000
0000
0000
,
0000
0000
0000
0000
,
0000
0000
0000
0000
,
0010
0000
0100
0000
,
0010
0000
0100
0000
,
1000
0000
0001
0000
,
1000
0000
0001
0000
,
0100
0000
0010
0000
,
0100
0000
0010
0000
,
1000
0000
0001
0000
,
1000
0000
0001
0000
,
1000
0100
0001
0000
,
1000
0010
0001
0000
,
1000
0100
0001
0000
,
1000
0010
0001
0000
,
0001
0100
1000
0000
,
0001
0010
1000
0000
,
0001
0100
1000
0000
,
0001
0010
1000
0001
,
0200
0000
0000
0000
,
0320
0000
0000
0000
,
2030
0000
0000
0000
,
3002
0000
0000
0000
,
0023
0000
0000
0000
,
0230
0000
0000
0000
,
2300
0000
0000
0000
,
3002
0000
0000
0000
,
1003
0000
0002
0000
,
0020
0000
0000
0033
,
0100
0000
2000
0000
,
0002
0000
0000
3003
,
1000
0000
0002
0000
,
0200
0000
0000
0303
,
0010
0000
2000
0000
,
0002
0000
0000
3003
,
1000
0000
0200
0000
,
0020
0000
0000
0330
,
1001
0001
0010
0100
,
2000
0010
3002
0010
,
1003
0010
0100
0001
,
0020
0100
0032
0100
,
0013
0100
1000
0001
,
2000
0100
3002
0100
,
1003
0100
0010
0001
,
1000
1000
0001
0001
,
1001
1000
0010
0100
,
0002
0010
2003
0010
,
3001
0010
0100
1000
,
0020
0100
2030
0100
,
3010
0100
0001
1000
,
0002
0100
2003
0100
,
3001
0100
0010
1000
,
0001
0001
1000
1000
,
0002
0010
1000
0010
,
2003
0100
0001
0100
,
3002
0100
1000
0100
,
2003
0010
0001
0010
,
3001
0010
0100
1000
,
0001
0100
0010
1000
,
1000
0100
0010
0001
,
1000
0010
0100
0001
;

//---------------dance-single - ----------------
#NOTES:
     dance-single:
     :
     Medium:
     8:
     0.282239,0.353416,0.016261,0.398387,0.028456,243.000000,241.000000,2.000000,49.000000,0.000000,0.000000,0.282239,0.353416,0.016261,0.398387,0.028456,243.000000,241.000000,2.000000,49.000000,0.000000,0.000000:
0000
0000
0000
0000
,
0000
0000
0000
0000
,
0000
0000
0000
0000
,
0000
0000
0000
0000
,
0000
0000
0000
0000
,
0000
0000
0000
0000
,
0000
0000
0000
0000
,
0000
0000
0000
0000
,
0000
0000
0000
0000
,
1000
1000
0001
0001
,
1000
1000
0001
0001
,
0100
0010
1000
0001
,
0100
0010
1000
0001
,
1000
1000
0001
0001
,
1000
1000
0001
0001
,
0010
0100
1000
0001
,
0010
0100
1000
0001
,
2000
0100
0001
0100
,
3002
0100
2003
0010
,
3002
0100
1000
0100
,
2003
0100
3002
0010
,
2003
0010
0001
0010
,
3002
0010
2003
0100
,
3002
0010
1000
0010
,
2003
0010
3002
0103
,
0020
0000
0000
0000
,
0230
0000
0302
0000
,
2003
0000
0000
0000
,
3002
0000
0023
0000
,
0230
0000
0000
0000
,
0320
0000
0032
0000
,
2003
0000
0000
0000
,
3002
0000
0203
0000
,
0301
0000
0000
0000
0001
0000
0000
0000
1000
0000
0000
0100
0000
0000
0020
0000
,
0001
0000
0100
0000
0001
0000
0130
1000
,
0001
0000
0010
0001
1000
0000
0001
0200
,
0010
0001
0010
0301
,
1000
0000
0000
0000
1000
0000
0000
0000
0001
0000
0000
0010
0000
0000
0200
0000
,
1000
0000
0010
0000
1000
0000
0310
0001
,
1000
0000
0100
1000
0001
0000
1000
0020
,
0100
1000
0100
1030
,
0001
0000
1000
0100
0010
0000
0001
0200
,
0020
0000
0000
0330
,
1001
0000
0000
0000
0001
0000
0000
0000
0010
0000
0000
0100
0000
0000
1000
0000
,
0002
0000
0010
0000
2003
0000
3010
0100
,
0001
0000
1000
0100
0010
0000
0001
1000
,
0020
0100
2030
0100
,
3010
0000
0000
0000
0100
0000
0001
0000
1000
0000
0000
0100
0000
0000
0010
0000
,
0002
0000
0100
0000
2003
0000
3100
0001
,
0100
0000
1000
0001
1000
0000
0001
0000
,
0020
1000
0100
0031
,
1001
0000
0000
0000
1000
0000
0000
0000
0010
0000
0000
0100
0000
0000
0001
0000
,
2000
0000
0010
0000
3002
0000
0013
0100
,
1000
0000
0000
0000
0001
0000
0100
0000
0010
0000
0000
1000
0000
0000
0001
0000
,
0020
0100
0032
0100
,
0013
0000
0000
0000
0100
0000
1000
0000
0001
0000
0000
0100
0000
0000
0010
0000
,
2000
0000
0100
0000
3002
0000
0103
1000
,
0100
0000
0001
1000
0001
0000
1000
0000
,
0100
0010
0100
0000
1000
0001
1000
0000
,
0002
0100
2003
0100
,
3002
0000
0100
0000
1003
0100
1000
0000
,
0002
0010
2003
0010
,
3002
0000
0010
0000
1003
0010
1000
0000
,
0001
0010
0100
0010
,
0001
0000
0100
0000
0010
0000
1000
0001
,
1000
0100
0010
0100
,
1000
0000
0010
0000
0100
0000
0001
1000
;

//---------------dance-single - ----------------
#NOTES:
     dance-single:
     :
     Hard:
     10:
     0.379803,0.434973,0.016261,0.487821,0.028456,327.000000,325.000000,2.000000,60.000000,0.000000,0.000000,0.379803,0.434973,0.016261,0.487821,0.028456,327.000000,325.000000,2.000000,60.000000,0.000000,0.000000:
0000
0000
0000
0000
,
0000
0000
0000
0000
,
0000
0000
0000
0000
,
0000
0000
0000
0000
,
0000
0000
0000
0000
,
0000
0000
0000
0000
,
0000
0000
0000
0000
,
0000
0000
0000
0000
,
0000
0000
0000
0000
,
1000
0000
1000
0000
0001
0100
0010
1000
,
0001
0000
0001
0000
1000
0100
0010
0001
,
1000
0000
1000
0000
0001
0010
0100
1000
,
0001
0000
0001
0000
1000
0010
0100
0001
,
1000
0100
0010
0000
0100
0010
0001
0100
,
0010
1000
0001
0000
0010
0100
1000
0001
,
1000
0010
0100
0000
0010
0100
0001
0010
,
0100
1000
0001
0000
0100
0010
1000
0001
,
2000
0000
0100
0000
3010
0100
0010
1000
,
0002
0000
0013
0100
2000
0000
0100
0000
,
3002
0000
0010
0000
0103
0010
0100
0001
,
2000
0000
3100
0010
0002
0000
1003
0000
,
0020
0000
0100
0000
1030
0001
0010
0100
,
0020
0000
0130
1000
0002
0000
0010
0000
,
0203
0000
0010
0000
0301
1000
0100
0010
,
0100
1000
0100
1000
0001
0100
0010
0100
,
0002
0000
0000
0000
0000
2003
3200
0320
,
0032
0000
0000
2000
0000
0000
0003
0000
,
3002
0000
0000
0000
0000
2003
3020
0230
,
0302
0000
0000
2000
0000
0000
0003
0000
,
3200
0000
0000
0000
0000
0320
0032
2003
,
3020
0000
0000
0200
0000
0000
0030
0000
,
0320
0000
0000
0000
0000
0230
0302
2003
,
3200
0000
0020
0300
,
0130
0000
0000
0000
1000
0000
0001
0000
0010
0000
0000
0001
0000
0000
0200
0000
,
0010
0000
1000
0000
0010
0000
0301
1000
,
0100
0000
1000
0010
0200
0000
0301
0020
,
0100
0000
0031
2000
0010
0000
3002
0000
,
0013
0000
0000
0000
0001
0000
1000
0000
0100
0000
0000
1000
0000
0000
0020
0000
,
0100
0000
0001
0000
0100
0000
1030
0001
,
0010
0000
0001
0100
0020
0000
1030
0002
,
0010
0000
1000
0000
2003
0000
3010
0100
,
0001
0000
1000
0100
0010
0000
0001
0200
,
0020
0300
0100
0130
,
1001
0000
0000
0000
0001
0000
0100
0000
0010
0000
0000
1000
0001
0000
2000
0000
,
0010
0000
0100
0000
0010
0000
3001
0010
,
0100
0000
1000
0001
0200
0000
0301
0020
,
0100
0000
0031
2000
0010
0000
3200
0000
,
0310
0000
0000
0000
0100
0000
0010
0000
0001
0000
0000
1000
0010
0000
0200
0000
,
0001
0000
0010
0000
1000
0000
0310
0100
,
0002
0000
0013
0100
2000
0000
0100
0000
,
3002
0000
0100
0000
1003
0001
0010
0100
,
1001
0000
0000
0000
1000
0000
0100
0000
0010
0000
0000
0001
1000
0000
0002
0000
,
0010
0000
0100
0000
0010
0000
1003
0010
,
0100
0000
0000
0000
0001
0000
1000
0000
0100
0000
0000
1000
0000
0000
0020
0000
,
0100
0000
1030
0002
0010
0000
0203
0010
,
0310
0000
0000
0000
0100
0000
0010
0000
1000
0000
0000
0001
0010
0000
0200
0000
,
1000
0000
0010
0000
0001
0000
0310
0100
,
2000
0000
3010
0100
0001
0100
0010
0100
,
0001
1000
0100
0010
0100
1000
0001
1000
,
0001
0000
0001
0000
1000
0010
0100
0001
,
1000
0000
1000
0000
0001
0010
0100
1000
,
0001
0000
0001
0000
1000
0100
0010
0001
,
1000
0000
1000
0000
0001
0100
0010
1000
,
0001
0010
0100
0000
0010
0100
1000
0010
,
0100
0001
1000
0000
0100
0010
0001
1000
,
0001
0100
0010
0000
0100
0010
1000
0100
,
0010
0001
1000
0000
0010
0100
0001
1000
;

//---------------dance-single - ----------------
#NOTES:
     dance-single:
     :
     Challenge:
     14:
     0.583062,0.680281,0.170737,0.739861,0.386191,502.000000,481.000000,21.000000,91.000000,0.000000,0.000000,0.583062,0.680281,0.170737,0.739861,0.386191,502.000000,481.000000,21.000000,91.000000,0.000000,0.000000:
// measure 0
0000
0000
0000
0000
,  // measure 1
0000
0000
0000
0000
,  // measure 2
0000
0000
0000
0000
,  // measure 3
0000
0000
0000
0000
,  // measure 4
0000
0000
0000
0000
,  // measure 5
0000
0000
0000
0000
,  // measure 6
0000
0000
0000
0000
,  // measure 7
0000
0000
0000
0000
,  // measure 8
0000
0000
0000
0000
,  // measure 9
1000
0100
1000
0000
0001
0000
1000
0010
0000
0100
0000
0010
0000
1000
0001
0000
,  // measure 10
0010
0100
0010
0000
0001
0000
1000
0010
0000
0100
0000
0001
0000
0100
0010
0000
,  // measure 11
1000
0010
1000
0000
0001
0000
1000
0100
0000
0010
0000
0100
0000
1000
0001
0000
,  // measure 12
0100
0010
0100
0000
0001
0000
1000
0100
0000
0010
0000
0001
0000
0010
0100
0000
,  // measure 13
1000
0001
1000
0000
0001
0000
1000
0010
0000
0100
0001
0100
0000
0010
1000
0000
,  // measure 14
0001
1000
0001
0000
1000
0000
0001
0010
0000
0100
1000
0100
0000
0010
0001
0000
,  // measure 15
1000
0001
1000
0000
0001
0000
1000
0100
0000
0010
0001
0010
0000
0100
1000
0000
,  // measure 16
0001
1000
0001
0000
1000
0000
0001
0100
0000
0010
1000
0010
0200
0000
0301
0100
,  // measure 17
0002
0100
0203
0010
0320
2030
3002
0023
,  // measure 18
0230
1000
2300
3002
0023
0230
2300
3002
,  // measure 19
2003
0100
3200
0010
0320
0032
2003
3020
,  // measure 20
0230
0001
0302
2003
3020
0230
0302
2003
,  // measure 21
3002
0010
0023
0100
0230
2300
3002
0203
,  // measure 22
0320
1000
2030
3002
0203
0320
2030
3002
,  // measure 23
2003
0010
3020
0100
0230
0302
2003
3200
,  // measure 24
0320
0000
0031
0000
0011
0000
1000
0100
0010
0100
0010
0001
1000
0000
0001
0000
,  // measure 25
2000
0000
0000
0001
0000
0000
0001
0000
0000
0001
0000
0000
3001
0000
0100
0000
,  // measure 26
0020
0000
0000
0100
0000
0000
0100
0000
0000
0100
0000
0000
0130
0000
0001
0000
,  // measure 27
2000
0000
0000
0100
0000
0000
0100
0000
0000
0100
0000
0000
3100
0000
0010
0000
,  // measure 28
0002
0000
0000
1000
0000
0000
1000
0000
0000
1000
0000
0000
1003
0000
0010
0000
,  // measure 29
0200
0000
0010
0000
0000
0000
0010
0000
0300
0010
0100
0000
0001
0000
1000
0000
,  // measure 30
0002
0000
1000
0000
0000
0000
1000
0000
0003
1000
0001
0000
0010
0000
0100
0000
,  // measure 31
0020
0000
0100
0000
0000
0000
0100
0000
0030
0100
0010
0000
0001
0000
1000
0000
,  // measure 32
0002
0000
1000
0000
0000
0000
1000
0000
0003
1000
0001
0000
0100
0000
0010
0000
,  // measure 33
2000
0000
0000
0000
3001
0000
1000
0000
0020
0000
0000
0230
0000
0000
0302
0000
,  // measure 34
0010
0000
0000
0000
1000
0000
0000
0000
0100
0000
0000
0000
1003
0001
2000
0000
,  // measure 35
3002
0000
0013
0100
0020
0000
0130
2000
,  // measure 36
0001
0000
3001
0200
0010
0000
1000
0000
,  // measure 37
0302
0000
0000
0000
1003
0000
0001
0000
0020
0000
0000
0230
0000
0000
2300
0000
,  // measure 38
0010
0000
0000
0000
0001
0000
0000
0000
0100
0000
0000
0000
3001
1000
0002
0000
,  // measure 39
2003
0000
3010
0100
0020
0000
0130
0002
,  // measure 40
1000
0000
0000
0000
1003
0000
0100
0010
0000
0100
0000
0001
0000
0100
1000
0000
,  // measure 41
0002
0000
1003
0100
0020
0000
0031
0200
,  // measure 42
0020
0000
0000
0000
0330
0000
0100
0010
0000
1000
0001
1000
0001
0000
1000
0001
,  // measure 43
0010
0000
0100
0000
0110
0000
1000
0000
0001
0000
0100
0010
0000
1000
0002
0000
,  // measure 44
0010
0000
0013
0000
0011
0000
0001
0000
1000
0000
0010
0000
0100
0001
0100
0000
,  // measure 45
0010
1000
1010
0001
0010
0100
1100
2000
,  // measure 46
0001
3001
1001
0200
0010
0310
0110
0001
,  // measure 47
1000
0000
0100
0000
1100
0000
1000
0000
0001
0000
0010
0001
0000
1000
0020
0000
,  // measure 48
0100
0000
0130
0000
0110
0000
0002
0000
1000
0000
1003
0000
0001
1000
0200
0000
,  // measure 49
0010
0310
0011
0002
1000
1003
1010
0200
,  // measure 50
0001
0000
0301
0000
1001
0000
0001
0000
0100
0000
0010
0000
0110
0000
0010
0100
,  // measure 51
0010
0000
0100
0000
0110
0000
0001
0000
1000
0000
0100
0010
0000
0001
2000
0000
,  // measure 52
0010
0000
3010
0000
1010
0000
1000
0000
0001
0000
0010
0000
0100
1000
0100
0000
,  // measure 53
0010
0000
0001
1000
0010
0000
0100
0000
0010
0000
1000
0001
0000
0001
0020
0000
,  // measure 54
0100
0000
0130
0000
0110
0000
2000
0000
0001
0000
3001
0000
1001
0000
0001
1000
,  // measure 55
0010
0000
0100
0000
0101
0000
0001
0000
1000
0000
0010
1000
0000
0001
0020
0000
,  // measure 56
0100
0000
0130
0000
0110
0000
2000
0000
0001
0000
3001
0000
1000
0001
0200
0000
,  // measure 57
0010
0000
0310
0000
1010
0000
1000
0000
0001
0010
0001
0010
0000
0100
1000
0100
,  // measure 58
1000
0000
0001
0100
0001
0000
1000
0100
0010
0000
0100
0000
0120
0000
0000
0000
,  // measure 59
0031
1000
0001
1000
0001
1000
0001
1000
,  // measure 60
0010
0100
0010
0100
0010
0100
0010
0100
,  // measure 61
0001
0010
0001
0010
0001
0010
0001
0010
,  // measure 62
0100
1000
0100
1000
0100
1000
0100
1000
,  // measure 63
0001
0000
0100
0000
0001
0000
0100
0000
0010
1000
0010
0000
1000
0000
0001
0000
,  // measure 64
1000
0000
0100
0000
1000
0000
0100
0000
0010
0001
0010
0000
0001
0000
1000
0000
,  // measure 65
0010
0000
0100
0000
0010
0000
0100
0000
0001
1000
0001
0000
1000
0000
0100
0000
,  // measure 66
0010
0000
0100
0000
0010
0000
0100
0000
1000
0001
1000
0000
0001
0000
0100
0010
;
