#TITLE:McLovin;
#SUBTITLE:;
#ARTIST:VINNE;
#TITLETRANSLIT:;
#SUBTITLETRANSLIT:;
#ARTISTTRANSLIT:;
#GENRE:Spinnin' Records;
#CREDIT:;
#BANNER:McLovin.png;
#BACKGROUND:McLovin-bg.png;
#LYRICSPATH:;
#CDTITLE:../cdtitle.png;
#MUSIC:McLovin.ogg;
#OFFSET:1.814000;
#SAMPLESTART:34.665001;
#SAMPLELENGTH:15.000000;
#LASTBEATHINT:1.695833;
#SELECTABLE:YES;
#BPMS:0.000000=124.999992
;
#STOPS:
;
#BGCHANGES:3.750=McLovin.avi=1.000=0=0=0=StretchNoLoop====,
99999=-nosongbg-=1.000=0=0=0 // don't automatically add -songbackground-
;
#KEYSOUNDS:;
#ATTACKS:;

//---------------dance-single - ----------------
#NOTES:
     dance-single:
     :
     Beginner:
     1:
     0.064049,0.101467,0.011798,0.023597,0.000000,38.000000,37.000000,1.000000,2.000000,0.000000,0.000000,0.064049,0.101467,0.011798,0.023597,0.000000,38.000000,37.000000,1.000000,2.000000,0.000000,0.000000:
0000
0000
0000
0000
,
0000
0000
0000
0000
,
0000
0000
0000
0000
,
0000
0000
0000
0000
,
0000
0000
0000
0000
,
0000
0000
0000
0000
,
0000
0000
0000
0000
,
2000
0000
0000
0000
,
0000
0000
3000
0000
,
0002
0000
0000
0000
,
0000
0000
0003
0000
,
1000
0000
1000
0000
,
0000
0000
0000
0000
,
1000
0000
1000
0000
,
0000
0000
0000
0000
,
0001
0000
0000
0000
,
0000
0000
0000
0000
,
0001
0000
0001
0000
,
0000
0000
0000
0000
,
1000
0000
0000
0000
,
1000
0000
0000
0000
,
0100
0000
0000
0000
,
0100
0000
0000
0000
,
0001
0000
0000
0000
,
0001
0000
0000
0000
,
0010
0000
0000
0000
,
0010
0000
0000
0000
,
1000
0000
0000
0000
,
1000
0000
1000
0000
,
1000
0000
0000
0000
,
0100
0000
0100
0000
,
0100
0000
0000
0000
,
0001
0000
0001
0000
,
0001
0000
0000
0000
,
0010
0000
0000
0000
,
1000
0000
0000
0000
,
1000
0000
0000
0000
,
0001
0000
0000
0000
,
0001
0000
0000
0000
,
0100
0000
0000
0000
,
0100
0000
0000
0000
,
0010
0000
0000
0000
,
0010
0000
0000
0000
,
1001
0000
0000
0000
;

//---------------dance-single - ----------------
#NOTES:
     dance-single:
     :
     Easy:
     4:
     0.175291,0.253666,0.070791,0.070791,0.000000,104.000000,98.000000,6.000000,6.000000,0.000000,0.000000,0.175291,0.253666,0.070791,0.070791,0.000000,104.000000,98.000000,6.000000,6.000000,0.000000,0.000000:
0000
0000
0000
0000
,
0000
0000
0000
0000
,
0000
0000
0000
0000
,
0000
0000
0000
0000
,
0000
0000
0000
0000
,
0000
0000
0000
0000
,
0000
0000
0000
0000
,
0200
0000
0000
0000
,
0320
0000
0000
0000
,
2030
0000
0000
0000
,
3002
0000
0000
0003
,
0001
1000
0000
1000
,
0000
0100
0000
0100
,
0000
0001
0000
0001
,
0000
0010
0000
0010
,
1000
0100
1000
0100
,
0001
0100
0001
0100
,
1000
0001
1000
1000
,
0001
0000
0000
0000
,
1001
0000
0001
0000
,
0001
0000
0001
0100
,
1000
0000
1000
0000
,
1000
0000
1000
0010
,
0001
0000
0001
0000
,
0001
0000
0010
0100
,
1000
0000
1000
0000
,
1000
1000
2000
3000
,
1001
0000
1000
0000
,
1000
0010
1000
0010
,
0001
0000
0001
0000
,
0001
0100
0001
0100
,
1000
0000
1000
0000
,
1000
1000
0100
0010
,
0001
0000
0001
0000
,
0001
0001
0002
0003
,
1001
0000
0100
0100
,
0010
0100
0010
0010
,
0110
0000
0001
0001
,
1000
1000
0100
0010
,
0110
0000
0001
0001
,
1000
0001
1000
0100
,
1000
0000
0010
0010
,
0100
0100
0001
1000
,
0110
0000
0000
0000
;

//---------------dance-single - ----------------
#NOTES:
     dance-single:
     :
     Medium:
     6:
     0.230912,0.304400,0.106186,0.306759,0.000000,137.000000,128.000000,9.000000,26.000000,0.000000,0.000000,0.230912,0.304400,0.106186,0.306759,0.000000,137.000000,128.000000,9.000000,26.000000,0.000000,0.000000:
0000
0000
0000
0000
,
0000
0000
0000
0000
,
0000
0000
0000
0000
,
0000
0000
0000
0000
,
0000
0000
0000
0000
,
0000
0000
0000
0000
,
0000
0000
0000
0000
,
0002
0000
1000
0000
,
2003
0000
0100
0000
,
3020
0000
0100
0000
,
0230
0000
1000
0000
,
0301
1000
0000
1000
,
0000
0100
0000
0100
,
0000
0010
0000
0010
,
0000
0001
0000
0001
,
1000
0100
1000
0100
,
0001
0100
0001
0100
,
0010
0100
0010
0100
,
0020
0000
0000
0030
,
0220
0000
0330
0010
0200
0000
0300
0000
,
2000
0000
3000
1000
0002
0000
0103
0000
,
0002
0000
0003
0010
0200
0000
0300
0000
,
2000
0000
3000
0001
0200
0000
0310
0000
,
2000
3100
0020
0130
,
2000
0000
3010
0000
0100
0010
1000
0000
,
0002
0013
0100
0010
,
0001
0100
0002
0003
,
0011
0001
0010
0001
,
0100
0000
0001
0000
0100
0010
1000
0000
,
0100
1000
0100
1000
,
0010
0000
1000
0000
0010
0100
0001
0000
,
0010
0100
0010
0100
,
1000
0000
0100
0000
0001
0100
1000
0000
,
0001
0100
0001
0100
,
1000
0100
0001
0000
0020
0000
0030
0000
,
0220
0000
0330
0010
0001
0000
0101
0000
,
0001
0010
1000
0010
,
0002
0000
0003
0001
0100
0000
0110
0000
,
0010
1000
0100
1000
,
0202
0000
0303
0010
1000
0000
1100
0000
,
1000
0010
0001
0010
,
2000
0000
3000
1000
0100
0000
0110
0000
,
0010
0001
0100
0001
,
1100
0000
0000
0000
;

//---------------dance-single - ----------------
#NOTES:
     dance-single:
     :
     Hard:
     8:
     0.326985,0.405866,0.224170,0.094387,0.000000,194.000000,175.000000,19.000000,8.000000,0.000000,0.000000,0.326985,0.405866,0.224170,0.094387,0.000000,194.000000,175.000000,19.000000,8.000000,0.000000,0.000000:
// measure 0
0000
0000
0000
0000
,  // measure 1
0000
0000
0000
0000
,  // measure 2
0000
0000
0000
0000
,  // measure 3
0000
0000
0000
0000
,  // measure 4
0000
0000
0000
0000
,  // measure 5
0000
0000
0000
0000
,  // measure 6
0000
0000
0000
0000
,  // measure 7
2000
0100
0100
0010
,  // measure 8
3002
0100
0100
1000
,  // measure 9
0203
0001
0001
1000
,  // measure 10
0320
0001
0001
0100
,  // measure 11
1030
0000
0100
0010
0100
0000
0010
0000
,  // measure 12
0000
0010
0000
0010
,  // measure 13
0001
0000
0100
0010
0100
0000
0010
0000
,  // measure 14
0000
0010
0000
0010
,  // measure 15
1000
0000
0001
0100
0001
0000
0001
0000
,  // measure 16
0010
0010
1000
1000
,  // measure 17
0010
0100
0001
0100
0010
0100
1000
0100
,  // measure 18
0020
0000
0000
0030
,  // measure 19
0110
0000
0100
0001
0100
0000
0100
0000
,  // measure 20
1100
0000
0100
0001
0100
1000
0100
0001
,  // measure 21
0100
0000
0100
1000
0100
0000
0100
0000
,  // measure 22
0101
0000
0100
1000
0100
0001
0100
0010
,  // measure 23
0110
0000
0010
1000
0010
0000
0010
0000
,  // measure 24
0011
0000
0010
1000
0010
0001
0010
1000
,  // measure 25
0010
0000
0010
0001
0010
0000
0010
0000
,  // measure 26
0200
0001
2000
3300
,  // measure 27
0110
0000
0001
0100
0001
0000
0001
0000
,  // measure 28
0110
0000
1000
0100
0010
0100
1000
0100
,  // measure 29
0010
0000
0001
0100
0010
0000
1100
0000
,  // measure 30
0010
0000
0101
0001
0010
0100
1000
0100
,  // measure 31
0110
0000
1000
0100
1000
0000
1000
0000
,  // measure 32
0110
0000
0001
0100
0010
0100
0001
0100
,  // measure 33
0010
0000
1000
0100
0010
0000
0101
0000
,  // measure 34
0001
1000
0001
1000
0200
0000
0300
0000
,  // measure 35
0110
0000
0001
0010
0001
0000
1010
0000
,  // measure 36
1000
0100
0001
0100
,  // measure 37
1000
0000
0100
0010
0100
0000
1100
0000
,  // measure 38
0001
0100
0001
0010
,  // measure 39
0110
0000
1000
0100
1000
0000
0101
0000
,  // measure 40
0001
0010
1000
0010
,  // measure 41
0001
0000
0010
0100
0010
0000
0011
0000
,  // measure 42
1000
0010
1000
0100
,  // measure 43
0110
0000
0000
0000
;

//---------------dance-double - ----------------
#NOTES:
     dance-double:
     :
     Easy:
     4:
     0.166864,0.228300,0.058992,0.082589,0.000000,99.000000,94.000000,5.000000,7.000000,0.000000,0.000000,0.166864,0.228300,0.058992,0.082589,0.000000,99.000000,94.000000,5.000000,7.000000,0.000000,0.000000:
00000000
00000000
00000000
00000000
,
00000000
00000000
00000000
00000000
,
00000000
00000000
00000000
00000000
,
00000000
00000000
00000000
00000000
,
00000000
00000000
00000000
00000000
,
00000000
00000000
00000000
00000000
,
00000000
00000000
00000000
00000000
,
00020000
00000000
00000000
00000000
,
00032000
00000000
00000000
00000000
,
00023000
00000000
00000000
00000000
,
00032000
00000000
00000000
00000000
,
00013000
00000100
00000000
00000100
,
00000000
00000010
00000000
00000010
,
00000000
00001000
00000000
00001000
,
00000000
00010000
00000000
00010000
,
01000000
10000000
01000000
10000000
,
00010000
01000000
00010000
01000000
,
00001000
00010000
00100000
00010000
,
00002000
00000000
00000000
00003000
,
00011000
00000000
00001000
00000000
,
00010000
00000000
00001000
00000100
,
00000001
00000000
00000001
00000000
,
00001000
00000000
00000100
00000010
,
00000100
00000000
00000100
00000000
,
00000010
00000000
00001000
00010000
,
01000000
00000000
01000000
00000000
,
00100000
00100000
00200000
00300000
,
01100000
00000000
00010000
00000000
,
10000000
01000000
10000000
01000000
,
00010000
00000000
00010000
00000000
,
00001000
00010000
00001000
00010000
,
00000010
00000000
00000010
00000000
,
00001000
00000100
00001000
00000100
,
00000001
00000000
00000001
00000000
,
00000100
00000100
00000200
00000300
,
00000110
00000000
00000001
00000000
,
00000001
00000010
00001000
00000010
,
00000001
00000000
00000001
00000000
,
00000010
00001000
00010000
00001000
,
00011000
00000000
01000000
00000000
,
10000000
01000000
00010000
01000000
,
10000000
00000000
10000000
00000000
,
01000000
00010000
00001000
00010000
,
00011000
00000000
00000000
00000000
;

//---------------dance-double - ----------------
#NOTES:
     dance-double:
     :
     Medium:
     6:
     0.225856,0.279033,0.082589,0.306759,0.000000,134.000000,127.000000,7.000000,26.000000,0.000000,0.000000,0.225856,0.279033,0.082589,0.306759,0.000000,134.000000,127.000000,7.000000,26.000000,0.000000,0.000000:
00000000
00000000
00000000
00000000
,
00000000
00000000
00000000
00000000
,
00000000
00000000
00000000
00000000
,
00000000
00000000
00000000
00000000
,
00000000
00000000
00000000
00000000
,
00000000
00000000
00000000
00000000
,
00000000
00000000
00000000
00000000
,
00200000
00000000
00010000
00000000
,
00302000
00000000
00010000
00000000
,
02003000
00000000
00010000
00000000
,
03002000
00000000
00010000
00000000
,
00103000
01000000
00000000
01000000
,
00000000
00010000
00000000
00010000
,
00000000
00001000
00000000
00001000
,
00000000
00000100
00000000
00000100
,
00000001
00000010
00000001
00000010
,
00000100
00010000
00000100
00010000
,
00001000
00010000
00001000
00010000
,
00002000
00000000
00000000
00003000
,
00022000
00000000
00033000
00010000
00002000
00000000
00003000
00000000
,
00020000
00000000
00030000
00010000
02000000
00000000
13000000
00000000
,
00020000
00000000
00030000
00100000
02000000
00000000
03000000
00000000
,
20000000
00000000
30000000
00010000
02000000
00000000
03100000
00000000
,
00020000
00031000
00020000
00030100
,
00020000
00000000
00031000
00000000
00000100
00000010
00001000
00000000
,
00000002
00000013
00001000
00000010
,
00000001
00000010
00000002
00000003
,
00001001
00000001
00000100
00000001
,
00001000
00000000
00000100
00000000
00001000
00000100
00010000
00000000
,
00001000
00010000
00001000
00010000
,
01000000
00000000
10000000
00000000
01000000
00100000
00010000
00000000
,
01000000
00100000
01000000
00100000
,
10000000
00000000
00010000
00000000
00100000
00001000
00010000
00000000
,
00000010
00000100
00000010
00000100
,
00001000
00010000
00001000
00000000
00020000
00000000
00030000
00000000
,
00022000
00000000
00033000
00010000
00001000
00000000
00001000
00000000
,
00010000
01000000
10000000
01000000
,
00020000
00000000
00030000
00010000
00001000
00000000
00011000
00000000
,
00000100
00000001
00000100
00001000
,
00022000
00000000
00033000
00010000
00001000
00000000
00001000
00000000
,
00000010
00000001
00000010
00001000
,
00020000
00000000
00030000
00010000
00001000
00000000
00011000
00000000
,
00100000
01000000
00000000
01000000
,
10010000
00000000
00000000
00000000
;

//---------------dance-double - ----------------
#NOTES:
     dance-double:
     :
     Hard:
     8:
     0.328671,0.380500,0.294961,0.094387,0.000000,195.000000,170.000000,25.000000,8.000000,0.000000,0.000000,0.328671,0.380500,0.294961,0.094387,0.000000,195.000000,170.000000,25.000000,8.000000,0.000000,0.000000:
00000000
00000000
00000000
00000000
,
00000000
00000000
00000000
00000000
,
00000000
00000000
00000000
00000000
,
00000000
00000000
00000000
00000000
,
00000000
00000000
00000000
00000000
,
00000000
00000000
00000000
00000000
,
00000000
00000000
00000000
00000000
,
00200000
00010000
01000000
00010000
,
00302000
00010000
00100000
00010000
,
00003200
00000010
00001000
00000010
,
00000302
00000100
00001000
00000100
,
00000013
00000000
00000100
00000010
00000100
00000000
00001000
00000000
,
00000000
00010000
00000000
00010000
,
00100000
00000000
01000000
00100000
01000000
00000000
10000000
00000000
,
00000000
00010000
00000000
00010000
,
10000000
01000000
10000000
00000000
01000000
00010000
01000000
00000000
,
00100000
00010000
00100000
00000000
00001000
00010000
00001000
00000000
,
00100000
01000000
00010000
00001000
00100000
01000000
00010000
00001000
,
00020000
00000000
00000000
00030000
,
00011000
00000010
00011000
00000010
,
00011000
00000000
00000100
00010000
00001000
00010000
00000100
00010000
,
00001000
00001010
00010000
00001010
,
00000100
00000000
00010000
00001000
00000010
00001000
00010000
00000100
,
00001000
00000110
00001000
00000110
,
00000001
00000000
00000100
00000010
00001000
00000010
00000100
00000010
,
00010000
00011000
00100000
10100000
,
02000000
10000000
00020000
03030000
,
00011000
00000100
00011000
00000100
,
00011000
00000000
00000010
00010000
00001000
00010000
00000010
00010000
,
00001000
00001100
00010000
00001100
,
00000010
00000000
00010000
00001000
00000100
00001000
00010000
00000010
,
00001000
00000110
00001000
00000110
,
00000001
00000000
00000010
00000100
00001000
00000100
00000010
00000100
,
00010000
00011000
01000000
11000000
,
00010000
01000000
00010000
01000000
00200000
00000000
00300000
00000000
,
11000000
00000000
00010000
01000000
00001000
00000000
00011000
00000000
,
00100000
01000000
00010000
00001000
,
00010000
00000000
00000010
00001000
00000010
00000000
00000110
00000000
,
00001000
00001000
00000100
00001000
,
00000101
00000000
00001000
00000100
00010000
00000000
00011000
00000000
,
00000010
00000100
00001000
00010000
,
00001000
00000000
00100000
00010000
00100000
00000000
01100000
00000000
,
00010000
00010000
01000000
00010000
,
11000000
00000000
00000000
00000000
;
