#VERSION:0.83;
#TITLE:回レ!雪月花;
#SUBTITLE:-kaite'n'bass mix-;
#ARTIST:baker;
#TITLETRANSLIT:Maware! Setsugetsuka;
#SUBTITLETRANSLIT:;
#ARTISTTRANSLIT:;
#GENRE:Anime/Game;
#ORIGIN:;
#CREDIT:;
#BANNER:Maware! Setsugetsuka -kaite'n'bass mix-.png;
#BACKGROUND:Maware! Setsugetsuka -kaite'n'bass mix--bg.png;
#PREVIEWVID:;
#JACKET:Maware! Setsugetsuka -kaite'n'bass mix--jacket.png;
#CDIMAGE:;
#DISCIMAGE:;
#LYRICSPATH:;
#CDTITLE:../cdtitle.png;
#MUSIC:Maware! Setsugetsuka -kaite'n'bass mix-.ogg;
#OFFSET:0.660000;
#SAMPLESTART:78.880997;
#SAMPLELENGTH:15.000000;
#SELECTABLE:YES;
#BPMS:0.000=175.000;
#STOPS:;
#DELAYS:;
#WARPS:;
#TIMESIGNATURES:0.000=4=4;
#TICKCOUNTS:0.000=4;
#COMBOS:0.000=1;
#SPEEDS:0.000=1.000=0.000=0;
#SCROLLS:0.000=1.000;
#FAKES:;
#LABELS:0.000=Song Start;
#BGCHANGES:-99.000=../bg.avi=1.000=0=0=1=====,
99999=-nosongbg-=1.000=0=0=0 // don't automatically add -songbackground-
;
#KEYSOUNDS:;
#ATTACKS:
;

//---------------dance-single - ----------------
#NOTEDATA:;
#CHARTNAME:;
#STEPSTYPE:dance-single;
#DESCRIPTION:;
#CHARTSTYLE:;
#DIFFICULTY:Beginner;
#METER:4;
#RADARVALUES:0.177901,0.282953,0.039409,0.000000,0.000000,158.000000,153.000000,5.000000,0.000000,0.000000,0.000000,0.000000,0.000000,0.000000,0.177901,0.282953,0.039409,0.000000,0.000000,158.000000,153.000000,5.000000,0.000000,0.000000,0.000000,0.000000,0.000000,0.000000;
#CREDIT:led_light;
#NOTES:
0000
0000
0000
0000
,
0000
0000
0000
0000
,
0000
0000
0000
0000
,
0000
0000
0000
0000
,
0000
0000
0000
0000
,
0000
0000
0000
0000
,
0000
0000
0000
0000
,
0000
0000
0000
0000
,
0000
0000
0000
0000
,
1001
0000
1000
0000
,
0001
0000
0001
0000
,
1000
0000
1000
0000
,
1000
0000
0001
0000
,
0010
0000
0010
0000
,
0010
0000
0010
0000
,
0100
0000
0100
0000
,
0100
0100
0100
0000
,
0001
0000
0001
0000
,
0001
0000
0001
0000
,
1000
0000
1000
0000
,
1000
0000
0000
0000
,
0001
0000
0001
0000
,
0001
0000
0000
0000
,
0100
0000
0100
0000
,
0100
0100
0100
0000
,
0100
0000
0000
0000
,
1000
0000
1000
0000
,
1000
0000
1000
0000
,
0001
0000
0001
0000
,
0001
0000
0000
0000
,
0100
0000
0100
0000
,
0100
0000
0100
0000
,
0010
0000
0010
0000
,
0010
0000
0000
0000
,
1000
0000
1000
0000
,
1000
0000
0000
0000
,
0001
0000
0001
0000
,
0001
0000
0000
0000
,
1000
0000
1000
0000
,
1000
0000
0000
0000
,
0100
0000
0100
0000
,
0100
0100
0100
0000
,
0100
0000
0000
0000
,
0010
0000
0000
0000
,
0001
0000
0001
0000
,
0100
0000
0100
0000
,
1000
0000
0000
0000
,
0001
0000
0000
0000
,
1000
0000
0000
0000
,
0100
0000
0100
0000
,
0100
0100
0100
0000
,
0100
0100
0100
0000
,
0001
0001
0001
0000
,
0001
0001
0001
0000
,
0010
0010
0010
0000
,
1000
1000
1000
0000
,
0010
0010
0010
0010
,
0010
0000
0000
0000
,
0001
0000
0100
0000
,
1000
0000
0010
0000
,
0001
0000
0000
0000
,
0100
0000
0000
0000
,
1000
0000
0100
0000
,
0001
0000
0010
0000
,
1000
0000
0000
0000
,
0100
0000
0000
0000
,
0001
0000
0001
0000
,
1000
0000
1000
0000
,
0001
0000
0000
0000
,
1000
0000
0000
0000
,
1001
0000
0001
0000
,
0010
0000
1000
0000
,
0100
0000
0100
0000
,
0100
0100
0100
0000
,
1000
0000
1000
0000
,
1000
0000
1000
0000
,
0001
0000
0001
0000
,
0001
0000
0000
1001
,
0000
0000
0001
0000
,
0001
0000
0001
0000
,
1000
0000
1000
0000
,
1000
1000
1000
0000
,
0010
0000
0010
0000
,
0010
0000
0010
0000
,
0100
0000
0100
0000
,
0100
0000
0000
0110
,
0000
0000
1000
0000
,
1000
0000
1000
0000
,
0001
0000
0001
0000
,
0001
0000
0000
1001
;

//---------------dance-single - ----------------
#NOTEDATA:;
#CHARTNAME:;
#STEPSTYPE:dance-single;
#DESCRIPTION:;
#CHARTSTYLE:;
#DIFFICULTY:Easy;
#METER:6;
#RADARVALUES:0.292749,0.353692,0.110344,0.102462,0.000000,260.000000,246.000000,14.000000,13.000000,0.000000,0.000000,0.000000,0.000000,0.000000,0.292749,0.353692,0.110344,0.102462,0.000000,260.000000,246.000000,14.000000,13.000000,0.000000,0.000000,0.000000,0.000000,0.000000;
#CREDIT:led_light;
#NOTES:
0000
0000
0000
0000
,
0000
0000
0000
0000
,
0000
0000
0000
0000
,
0000
0000
0000
0000
,
0000
0000
0000
0000
,
0000
0000
0000
0000
,
0000
0000
0000
0000
,
0000
0000
0000
0000
,
0000
0000
0000
0000
,
1001
0001
1000
0001
,
0010
0100
0010
0100
,
0001
1000
0001
1000
,
0020
0000
0030
0010
,
1000
0001
1000
0001
,
1000
0001
1000
0001
,
0010
0100
0010
0100
,
0020
0000
0030
0000
,
1000
0000
1000
0000
,
1000
0100
0010
0000
,
0001
0000
0001
0000
,
0001
0100
0010
0000
,
1000
0000
1000
0000
,
0100
0100
0100
0100
,
0001
0000
1000
0000
,
0001
1000
0001
0000
,
1001
0000
1001
0000
,
1000
0001
1000
0001
,
1000
0001
1000
0001
,
0010
0100
0010
0100
,
0020
0000
0030
0010
,
0001
1000
0001
1000
,
0100
0010
0100
0010
,
1000
0001
1000
0001
,
0020
0000
0030
0010
,
0001
0000
0001
0000
,
0001
0100
0010
0000
,
1000
0000
1000
0000
,
1000
0100
0010
0000
,
0001
0000
0001
0000
,
1000
0000
1000
0000
,
0001
0000
1000
0000
,
0001
1000
0001
0000
,
1001
0000
1001
0000
,
0200
0000
0000
0300
,
0001
0001
0001
0000
,
0200
0300
2000
3000
,
0020
0000
0000
0030
,
0001
0000
1000
0000
,
0010
0000
0100
0000
,
0002
0000
0000
0003
,
1000
0100
1000
0100
,
0001
0100
0001
0100
,
0001
0010
0001
0010
,
1000
0010
1000
0010
,
1000
0100
0010
0001
,
1000
0100
0010
0001
,
1000
0010
0001
0100
,
0010
0000
0000
0000
,
0100
1000
0010
0001
,
0100
1000
0010
0001
,
0100
0000
0100
0000
,
1000
0001
1000
0000
,
0100
0001
0010
1000
,
0100
0001
0010
1000
,
0100
0000
0100
0000
,
0010
0000
0001
0001
,
1001
0000
0110
0000
,
1000
0100
0010
0001
,
1000
0000
0001
0000
,
0100
0100
0010
0010
,
0110
0000
1001
0000
,
0010
1000
0100
0001
,
0010
0000
0100
0000
,
0010
0100
1001
0000
,
0100
0010
0100
0010
,
0100
0010
0100
0010
,
1000
0001
1000
0001
,
2000
0000
3000
0110
,
0001
1000
0001
1000
,
0001
1000
0001
1000
,
0100
0010
0100
0010
,
0200
0000
0301
1001
,
0010
0100
0010
0100
,
0010
0100
0010
0100
,
0001
1000
0001
1000
,
0002
0000
0003
0110
,
1000
0001
1000
0001
,
1000
0001
1000
0001
,
0010
0100
0010
0100
,
0020
0000
0030
1001
;

//---------------dance-single - ----------------
#NOTEDATA:;
#CHARTNAME:;
#STEPSTYPE:dance-single;
#DESCRIPTION:;
#CHARTSTYLE:;
#DIFFICULTY:Medium;
#METER:10;
#RADARVALUES:0.435746,0.601276,0.457139,0.149753,0.000000,387.000000,329.000000,58.000000,19.000000,0.000000,0.000000,0.000000,0.000000,0.000000,0.435746,0.601276,0.457139,0.149753,0.000000,387.000000,329.000000,58.000000,19.000000,0.000000,0.000000,0.000000,0.000000,0.000000;
#CREDIT:led_light;
#NOTES:
0000
0000
0000
0000
,
0000
0000
0000
0000
,
0000
0000
0000
0000
,
0000
0000
0000
0000
,
0000
0000
0000
0000
,
0000
0000
0000
0000
,
0000
0000
0000
0000
,
0000
0000
0000
0000
,
0000
0000
0000
0000
,
0000
0001
0000
0010
0000
1000
0000
0010
,
0000
0001
0000
0010
0000
1000
0010
1000
,
0000
0010
0000
0001
0000
0010
0000
1000
,
0020
0000
0030
1001
,
0001
1000
0000
0100
0000
0001
0000
0100
,
0000
1000
0000
0100
0000
0001
0100
0001
,
0000
0100
0000
1000
0000
0100
0000
0001
,
0000
0100
0000
1000
0000
0001
1000
0001
,
1000
1000
1000
1000
,
0001
0001
0201
0310
,
1000
1000
1000
1000
,
0001
0001
1100
0011
,
1000
0000
1000
0000
1000
0100
1000
0000
,
0100
0010
0110
0110
,
0001
0001
1000
1000
,
0010
0100
1001
0100
,
0110
0000
0000
0000
0010
1000
0010
1000
,
0000
0001
0000
0100
0000
1000
0000
0100
,
0000
0001
0000
0100
0000
1000
0100
1000
,
0000
0100
0000
0001
0000
0100
0000
1000
,
0200
0000
0300
1001
,
0010
1000
0000
0010
0000
0001
0000
0010
,
0000
1000
0000
0010
0000
0001
0010
0001
,
0000
0010
0000
1000
0000
0010
0000
0001
,
0020
0000
0030
1001
,
0100
0100
0010
0000
,
1000
1000
0002
0023
,
0130
0100
0010
0000
,
0001
0001
0101
0000
,
1000
0000
1000
0000
1000
0010
1000
0000
,
0010
0000
0100
0000
0001
1000
0001
0000
,
1000
1000
0001
0001
,
0100
0010
0110
0000
,
1000
0000
0011
0000
0100
1000
0100
0000
,
1000
0100
0001
0100
,
1000
0010
0001
0010
,
1000
0100
0001
0010
,
1000
0100
0010
0002
,
2003
0000
3010
0000
,
0100
0100
0010
0000
,
0001
0010
0100
2000
,
3001
0001
0010
0010
,
1000
1000
0100
0100
,
0001
0010
1000
0100
,
0001
0010
1000
0100
,
0101
0001
0011
0010
,
1010
1000
1100
0100
,
0001
0000
0010
0000
0100
0010
0100
0000
,
2002
3003
0000
0000
,
1001
0110
1001
0110
,
1001
0110
1001
0110
,
1000
0100
0001
0010
,
0001
1000
2002
3003
,
0110
1001
0110
1001
,
0110
1001
0110
1001
,
0010
0001
0100
0010
,
1000
0001
0100
0000
0010
0000
0010
0000
,
0101
0000
0000
0100
0010
0000
0000
1000
,
0100
0010
0001
1000
,
0002
0100
2003
0010
,
3001
0100
0001
0000
0010
0000
1000
0100
,
0001
0000
0001
0100
1000
0000
0001
0000
,
1001
0110
1001
0110
,
1000
0001
0100
0010
,
1100
0101
1001
0000
,
1000
0000
0110
0000
0001
1000
0001
0000
,
1000
0000
0110
0000
0010
1000
0100
0000
,
0001
0000
0110
0000
1000
0000
0010
0001
,
2000
0000
3000
0110
,
0100
0000
1001
0000
0010
0100
0010
0000
,
0100
0000
1001
0000
1000
0100
0001
0000
,
0010
0000
1001
0000
0100
0000
1000
0010
,
0200
0000
0000
0000
0300
1000
0001
1000
,
0001
0000
0110
0000
1000
0001
1000
0000
,
0001
0000
0110
0000
0100
0001
0010
0000
,
1000
0000
0110
0000
0001
0000
0100
1000
,
0002
0000
0003
0110
,
0010
0000
1001
0000
0100
0010
0100
0000
,
0010
0000
1001
0000
0001
0010
1000
0000
,
0100
0000
1001
0000
0010
0000
0001
0100
,
0020
0000
0030
1001
;

//---------------dance-single - ----------------
#NOTEDATA:;
#CHARTNAME:;
#STEPSTYPE:dance-single;
#DESCRIPTION:;
#CHARTSTYLE:;
#DIFFICULTY:Hard;
#METER:13;
#RADARVALUES:0.610270,0.636645,0.220688,0.173398,0.059113,542.000000,514.000000,28.000000,22.000000,0.000000,0.000000,0.000000,0.000000,0.000000,0.610270,0.636645,0.220688,0.173398,0.059113,542.000000,514.000000,28.000000,22.000000,0.000000,0.000000,0.000000,0.000000,0.000000;
#CREDIT:led_light;
#NOTES:
// measure 0
0000
0000
0000
0000
,  // measure 1
0000
0000
0000
0000
,  // measure 2
0000
0000
0000
0000
,  // measure 3
0000
0000
0000
0000
,  // measure 4
0000
0000
0000
0000
,  // measure 5
0000
0000
0000
0000
,  // measure 6
0000
0000
0000
0000
,  // measure 7
0000
0000
0000
0000
,  // measure 8
0020
0000
0030
0000
0100
0100
0100
0010
,  // measure 9
1001
1000
0100
0010
0100
1000
0100
0010
,  // measure 10
0100
1000
0100
0010
0100
1000
0100
0010
,  // measure 11
0001
0100
0010
0100
0001
0100
0010
0100
,  // measure 12
0002
0100
0000
0100
0013
0000
1001
0000
,  // measure 13
0100
0010
0100
0001
0100
0010
0100
0001
,  // measure 14
0100
0010
0100
0001
0100
0010
0100
0001
,  // measure 15
1000
0100
0010
0100
1000
0100
0010
0100
,  // measure 16
1000
0100
0010
0100
1000
0001
1000
0001
,  // measure 17
0100
0100
0100
0100
,  // measure 18
1000
0100
0010
0001
1000
0000
0001
0000
,  // measure 19
0100
0100
0100
0100
,  // measure 20
1000
0010
0100
0001
0020
0000
0130
0000
,  // measure 21
1000
1000
0001
0001
,  // measure 22
0100
1000
0010
0000
0010
0001
0100
0000
,  // measure 23
0010
1000
0100
0001
,  // measure 24
0011
1100
0101
0010
,  // measure 25
0100
0000
0000
0100
0000
0000
0100
0000
0010
0000
0000
0000
1001
0000
0000
0000
,  // measure 26
0010
0001
0010
0100
0010
0001
0010
0100
,  // measure 27
0010
0001
0010
0100
0010
0001
0010
0100
,  // measure 28
1000
0010
0100
0010
1000
0010
0100
0010
,  // measure 29
2000
0010
0000
0010
3100
0000
1001
0000
,  // measure 30
0010
0100
0010
1000
0010
0100
0010
1000
,  // measure 31
0010
0100
0010
1000
0010
0100
0010
1000
,  // measure 32
0001
0010
0100
0010
0001
0010
0100
0010
,  // measure 33
0002
0010
0000
0010
0103
0000
1001
0000
,  // measure 34
0100
0100
0010
0100
,  // measure 35
1000
0100
0010
0001
1000
0100
0010
0001
,  // measure 36
0100
0100
0010
0100
,  // measure 37
1000
0010
0100
0001
0020
0000
0130
0000
,  // measure 38
0001
0101
1000
1100
,  // measure 39
0010
0001
0100
0010
1000
0100
0010
0000
,  // measure 40
0001
0100
1000
0010
,  // measure 41
0101
1010
1001
0100
,  // measure 42
0010
0000
0000
0010
0000
0000
0010
0000
0100
0000
0001
0000
1000
0000
0000
0000
,  // measure 43
1000
0000
0000
1000
0100
0000
0000
0100
0001
0000
0001
0000
1000
0000
1000
0000
,  // measure 44
0010
0000
0000
0010
0001
0000
0000
0001
0100
0000
0100
0000
1000
0000
1000
0000
,  // measure 45
0001
0000
0000
0001
0010
0000
0000
0010
1000
0000
1000
0000
0100
0000
0100
0000
,  // measure 46
0001
0000
0000
0001
1000
0000
0000
1000
0010
0000
0010
0000
0001
0000
0001
0000
,  // measure 47
0200
0000
0310
0000
,  // measure 48
1000
0000
0001
0100
0010
1000
0001
0000
,  // measure 49
0200
0320
2030
3002
,  // measure 50
0103
0010
0001
0100
,  // measure 51
1000
0010
0100
1000
,  // measure 52
0010
0001
1000
0010
,  // measure 53
0001
0100
1000
0001
,  // measure 54
0100
0001
0100
0001
0010
0001
0010
0001
,  // measure 55
0010
1000
0010
1000
0100
1000
0100
1000
,  // measure 56
0100
0001
0010
0100
1000
0010
0100
0001
,  // measure 57
0010
0000
2002
3003
,  // measure 58
0001
0100
1000
0010
0001
0100
1000
0010
,  // measure 59
0001
0000
0100
0000
1000
0000
0010
0000
0001
0000
0000
0100
0000
0000
1000
0000
,  // measure 60
0000
0100
0001
0100
0001
0000
1000
0000
,  // measure 61
0011
1100
2002
3003
,  // measure 62
1000
0100
0001
0010
1000
0100
0001
0010
,  // measure 63
1000
0000
0100
0000
0001
0000
0010
0000
1000
0000
0000
0100
0000
0000
0001
0000
,  // measure 64
0000
0100
1000
0100
1000
0000
0001
0000
,  // measure 65
0010
0100
1000
0000
1000
0000
0001
0000
,  // measure 66
0101
0000
0010
1000
1100
0000
0010
0001
,  // measure 67
0001
1000
1000
0001
1000
0100
0010
0001
,  // measure 68
0100
0000
0000
0100
0010
0000
0100
0000
1000
0000
0000
1000
0100
0000
0010
0000
,  // measure 69
0100
0001
0010
0000
0100
0000
1010
0000
,  // measure 70
1200
0310
0201
0310
,  // measure 71
1000
0000
0100
0000
0001
0000
0010
0000
1000
0000
0000
0100
0000
0000
0001
0000
,  // measure 72
0000
0100
1000
0000
0001
0000
0100
0000
,  // measure 73
1010
0101
0011
0000
,  // measure 74
0100
1000
0001
1000
0100
1000
0001
1000
,  // measure 75
0100
1000
0001
1000
0100
1000
0001
0010
,  // measure 76
1000
0001
0100
0001
1000
0001
0100
0001
,  // measure 77
2000
0001
0000
0001
3001
0000
0110
0000
,  // measure 78
0001
0100
0010
0100
0001
0100
0010
0100
,  // measure 79
0001
0100
0010
0100
0001
0100
0010
1000
,  // measure 80
0100
0010
0001
0010
0100
0010
0001
0010
,  // measure 81
0100
1000
1000
0010
1000
0200
0320
0230
,  // measure 82
0310
0001
1000
0001
0010
0001
1000
0001
,  // measure 83
0010
0001
1000
0001
0010
0001
1000
0100
,  // measure 84
0001
1000
0010
1000
0001
1000
0010
1000
,  // measure 85
0002
1000
0000
1000
1003
0000
0110
0000
,  // measure 86
1000
0010
0100
0010
1000
0010
0100
0010
,  // measure 87
1000
0010
0100
0010
1000
0010
0100
0001
,  // measure 88
0010
0100
1000
0100
0010
0100
1000
0100
,  // measure 89
0010
0100
0010
0100
0100
0010
1001
0000
;

//---------------dance-double - ----------------
#NOTEDATA:;
#CHARTNAME:;
#STEPSTYPE:dance-double;
#DESCRIPTION:;
#CHARTSTYLE:;
#DIFFICULTY:Easy;
#METER:5;
#RADARVALUES:0.193665,0.247584,0.039409,0.094581,0.000000,172.000000,167.000000,5.000000,12.000000,0.000000,0.000000,0.000000,0.000000,0.000000,0.193665,0.247584,0.039409,0.094581,0.000000,172.000000,167.000000,5.000000,12.000000,0.000000,0.000000,0.000000,0.000000,0.000000;
#CREDIT:led_light;
#NOTES:
00000000
00000000
00000000
00000000
,
00000000
00000000
00000000
00000000
,
00000000
00000000
00000000
00000000
,
00000000
00000000
00000000
00000000
,
00000000
00000000
00000000
00000000
,
00000000
00000000
00000000
00000000
,
00000000
00000000
00000000
00000000
,
00000000
00000000
00000000
00000000
,
00000000
00000000
00000000
00000000
,
00000001
00000000
00000001
00000000
,
00001000
00000000
00001000
00000000
,
00010000
00000000
00010000
00000000
,
20000000
00000000
30000000
00010000
,
00001000
00000000
00001000
00000000
,
00010000
00000000
00010000
00000000
,
00001000
00000000
00001000
00000000
,
00020000
00000000
00030000
00001000
,
00010000
00000000
00010000
00000000
,
00010000
00000000
00000000
00000000
,
01000000
00000000
01000000
00000000
,
01000000
00000000
00000000
00000000
,
10000000
00000000
10000000
00000000
,
10000000
00000000
00000000
00000000
,
00100000
00000000
00100000
00000000
,
00100000
01000000
00100000
00000000
,
01100000
00000000
00000000
00000000
,
10000000
00000000
10000000
00000000
,
00010000
00000000
00010000
00000000
,
10000000
00000000
10000000
00000000
,
00020000
00000000
00030000
00001000
,
00010000
00000000
00010000
00000000
,
00001000
00000000
00001000
00000000
,
00010000
00000000
00010000
00000000
,
00002000
00000000
00003000
00000001
,
00001000
00000000
00001000
00000000
,
00001000
00000000
00000000
00000000
,
00000100
00000000
00000100
00000000
,
00000100
00000000
00000000
00000000
,
00000001
00000000
00000001
00000000
,
00000001
00000000
00000000
00000000
,
00000010
00000000
00000010
00000000
,
00000010
00000100
00000010
00000000
,
00000110
00000000
00000010
00000000
,
00002000
00000000
00003100
00000000
,
00020000
00000000
01030000
00000000
,
00200000
00000000
00310000
00000000
,
20000000
00000000
30100000
00000000
,
01000000
00000000
10000000
00000000
,
00010000
00000000
00010000
00000000
,
00002000
00000000
00000000
00000000
,
00013000
00000000
00001000
00000000
,
00010000
00000000
00010000
00000000
,
00100000
00000000
00100000
00000000
,
10000000
00000000
10000000
00000000
,
01000000
01000000
00010000
00000000
,
00010000
00010000
00001000
00000000
,
00001000
00001000
00000010
00000000
,
00000001
00000000
00000000
00000000
,
00000100
00000000
00001000
00000000
,
00000010
00000000
00000001
00000000
,
00000100
00000000
00000100
00000000
,
00001000
00001000
00010000
00000000
,
00100000
00000000
10000000
00000000
,
01000000
00000000
00010000
00000000
,
00100000
00000000
00100000
00000000
,
00100000
00100000
00100000
00100000
,
10000000
00000000
01000000
00000000
,
00100000
00000000
00010000
00000000
,
00001000
00000000
00001000
00000000
,
00001000
00000000
00000100
00001000
,
00000100
00000000
00001000
00000000
,
00000010
00000000
00000001
00000000
,
00000100
00000000
00000010
00000000
,
00001000
00010000
00001000
00000000
,
00000100
00000000
00000100
00000000
,
00000010
00000000
00000010
00000000
,
00000001
00000000
00000001
00000000
,
00000020
00000000
00000130
00000110
,
00001000
00000000
00001000
00000000
,
00010000
00000000
00010000
00000000
,
00001000
00000000
00001000
00000000
,
00010000
00000000
00010000
00010000
,
00100000
00000000
00100000
00000000
,
01000000
00000000
01000000
00000000
,
10000000
00000000
10000000
00000000
,
02000000
00000000
03100000
01100000
,
00010000
00000000
00010000
00000000
,
00001000
00000000
00001000
00000000
,
00010000
00000000
00010000
00000000
,
00002000
00000000
00013000
00011000
;

//---------------dance-double - ----------------
#NOTEDATA:;
#CHARTNAME:;
#STEPSTYPE:dance-double;
#DESCRIPTION:;
#CHARTSTYLE:;
#DIFFICULTY:Medium;
#METER:9;
#RADARVALUES:0.385078,0.495169,0.204924,0.086699,0.000000,342.000000,316.000000,26.000000,11.000000,0.000000,0.000000,0.000000,0.000000,0.000000,0.385078,0.495169,0.204924,0.086699,0.000000,342.000000,316.000000,26.000000,11.000000,0.000000,0.000000,0.000000,0.000000,0.000000;
#CREDIT:led_light;
#NOTES:
00000000
00000000
00000000
00000000
,
00000000
00000000
00000000
00000000
,
00000000
00000000
00000000
00000000
,
00000000
00000000
00000000
00000000
,
00000000
00000000
00000000
00000000
,
00000000
00000000
00000000
00000000
,
00000000
00000000
00000000
00000000
,
00000000
00000000
00000000
00000000
,
00000000
00000000
00000000
00000000
,
00001000
00000010
00001000
00010000
,
00001000
00000100
00001000
00000010
,
00010000
00100000
00010000
01000000
,
00020000
00001000
00130000
01100000
,
10000000
00010000
01000000
00010000
,
00000100
00001000
00000001
00001000
,
00000010
00001000
00100000
00010000
,
10000000
00010000
00001000
00000100
,
00001001
00000010
00000010
00000010
,
00000001
00000000
00000100
00000000
00001000
00010000
00001000
00000000
,
00010000
00100000
00100000
00100000
,
10000000
01000000
10000000
01010000
,
00001000
00010000
01000000
00010000
,
00001000
00000010
00000100
00000010
,
00000001
00000100
00001000
00001000
,
00000001
00001000
00001001
00000000
,
00010010
00000000
01001000
00000000
,
00010000
00100000
00010000
00001000
,
00010000
01000000
00010000
00100000
,
00001000
00000010
00001000
00000100
,
00002000
00010000
00003010
00000110
,
00000001
00001000
00000100
00001000
,
01000000
00010000
10000000
00010000
,
00100000
00010000
00000010
00001000
,
00020000
00001000
01030000
01100000
,
10000000
01000000
00010000
01000000
,
00001000
00000000
00010000
00000000
00000010
00001000
00010000
00000000
,
00001000
00000001
00001000
00001000
,
00000001
00000100
00001000
00000000
00010000
00000000
00000000
00000000
,
00001000
01000000
10000000
01000000
,
00010000
00001000
00000010
00000100
,
00001000
00000100
00000001
00000001
,
00001000
00000001
00001001
00000000
,
00010100
00000000
00101000
00000000
,
02000000
10000000
13000000
01000000
,
00010000
00000000
00100000
00000000
01000000
00010000
00001000
00000000
,
00000200
00000001
00000310
00000010
,
00000100
00000001
00000010
00001000
,
00020000
00000000
00100000
00000000
,
00032000
00000000
00000010
00000000
,
00013000
00001000
00010000
01000000
,
10000000
10000000
00010000
00010000
,
00001000
00001000
00000001
00000001
,
00001000
00000100
00000100
00001000
,
00010000
01000000
01000000
10000000
,
10100000
00010000
00110000
00001000
,
00010100
00001000
00001010
00000001
,
00000011
00000000
00000010
00000000
00001000
00010000
00100000
00000000
,
10010000
00000000
00010000
00000000
,
01000000
00010000
00100000
10000000
,
01000000
00010000
00100000
10000000
,
01000000
00010000
00001000
00000010
,
00000100
00000010
00000100
00000000
00002002
00000000
00003003
00000000
,
00000100
00001000
00000010
00000001
,
00000100
00001000
00000010
00000001
,
00000100
00001000
00000001
00000100
,
00001000
00010000
01000000
00100000
,
10010000
00000000
01100000
00000000
,
00011000
00000010
00000100
00001001
,
00000100
00001000
00010000
01000000
,
00100000
01000000
00010000
00000000
00001000
00000000
00000110
00000000
,
00000100
00000010
00001000
00000000
00010000
00001000
00010000
00000000
,
01000000
10000000
00100000
00010000
,
01000000
10000000
00100000
00010000
,
00001000
00010000
00011000
00000000
,
00100000
00010000
01000000
00010000
,
00001000
00010000
00100000
00010000
,
00001000
00000100
00001000
00000010
,
00002000
00010000
00003100
00000110
,
00000001
00001000
00000100
00001000
,
01000000
00010000
10000000
00010000
,
00100000
00010000
00000010
00001000
,
00000010
00000001
00000100
00001000
,
00000010
00001000
00000100
00001000
,
00010000
00001000
00000010
00001000
,
00010000
01000000
00010000
00100000
,
00020000
00001000
01030000
01100000
,
10000000
00010000
01000000
00010000
,
00000100
00001000
00000001
00001000
,
00000010
00001000
00100000
00010000
,
00100000
10000000
01000000
00010000
;

//---------------dance-double - ----------------
#NOTEDATA:;
#CHARTNAME:;
#STEPSTYPE:dance-double;
#DESCRIPTION:;
#CHARTSTYLE:;
#DIFFICULTY:Hard;
#METER:13;
#RADARVALUES:0.612522,0.636645,0.244333,0.126107,0.059113,544.000000,513.000000,31.000000,16.000000,0.000000,0.000000,0.000000,0.000000,0.000000,0.612522,0.636645,0.244333,0.126107,0.059113,544.000000,513.000000,31.000000,16.000000,0.000000,0.000000,0.000000,0.000000,0.000000;
#CREDIT:led_light;
#NOTES:
00000000
00000000
00000000
00000000
,
00000000
00000000
00000000
00000000
,
00000000
00000000
00000000
00000000
,
00000000
00000000
00000000
00000000
,
00000000
00000000
00000000
00000000
,
00000000
00000000
00000000
00000000
,
00000000
00000000
00000000
00000000
,
00000000
00000000
00000000
00000000
,
00200000
00000000
00300000
00000000
01000000
01000000
01000000
10000000
,
00110000
01000000
00010000
00001000
00100000
01000000
00010000
00001000
,
00100000
01000000
00010000
00001000
00100000
01000000
00010000
00001000
,
00000010
00000100
00010000
00001000
00000010
00000100
00010000
00001000
,
00000020
00000100
00000000
00000130
00001000
00000000
00011000
00000000
,
00100000
00010000
01000000
00001000
00100000
00010000
01000000
00001000
,
00100000
00010000
01000000
00001000
00100000
00010000
01000000
00001000
,
00010000
00000010
00001000
00000100
00010000
00000010
00001000
00000100
,
00010000
00000010
00001000
00000100
00010000
00000010
00000100
00000010
,
00000100
00000100
00000100
00000100
,
00000010
00001000
00000001
00000100
00001000
00000000
00100000
00000000
,
01000000
01000000
01000000
01000000
,
00100000
00010000
10000000
01000000
00010000
00000000
00011000
00000000
,
00000100
00000001
00000100
00000000
00000010
00001000
00000010
00000000
,
00000100
00000001
00000100
00000010
00000100
00001000
00000100
00000000
,
00001000
00010000
00100000
00000000
10000000
00010000
00100000
00000000
,
01000000
10000000
00100000
00000000
01100000
00000000
10010000
00000000
,
00100000
00000000
00000000
10000000
00000000
00000000
01000000
00000000
00010000
00000000
00000000
00000000
00011000
00000000
00000000
00000000
,
00000010
00000100
00001000
00010000
00000010
00000100
00001000
00010000
,
00000010
00000100
00001000
00010000
00000010
00000100
00001000
00010000
,
00100000
01000000
00001000
00010000
00100000
01000000
00001000
00010000
,
00200000
01000000
00000000
01300000
00010000
00000000
00011000
00000000
,
00000010
00001000
00000100
00010000
00000010
00001000
00000100
00010000
,
00000010
00001000
00000100
00010000
00000010
00001000
00000100
00010000
,
00001000
00100000
00010000
01000000
00001000
00100000
00010000
01000000
,
00010000
00100000
01000000
10000000
00010000
00000000
10010000
00000000
,
01000000
01000000
00100000
01000000
,
00010000
00001000
00010100
00001000
,
00000010
00000010
00000100
00000010
,
00001000
00010000
00101000
00000000
,
01000000
00100000
00010000
00000000
00001000
01000000
00100000
00000000
,
00100000
00010000
00001000
00000000
00010000
01000000
10000000
00000000
,
01000000
00000000
00010000
00000000
00001000
00010000
00001000
00000000
,
00011000
00001100
00000011
00000100
,
00000010
00000000
00000000
00000001
00000000
00000000
00000100
00000000
00000010
00000000
00001000
00000000
00000100
00000000
00010000
00000000
,
00001000
00000000
00000000
00001000
00010000
00000000
00000000
00010000
01000000
00000000
01000000
00000000
10000000
00000000
10000000
00000000
,
00100000
00000000
00000000
00100000
00010000
00000000
00000000
00010000
00001000
00000000
00001000
00000000
00000100
00000000
00000100
00000000
,
00000001
00000000
00000000
00000001
00000010
00000000
00000000
00000010
00001000
00000000
00001000
00000000
00010000
00000000
00010000
00000000
,
00100000
00000000
00000000
00100000
10000000
00000000
00000000
10000000
01000000
00000000
01000000
00000000
00010000
00000000
00010000
00000000
,
00002000
00000000
00000100
00000000
,
00023000
00000000
00100000
00000000
,
00031000
00000100
00000001
00000010
,
00000100
00000100
00001000
00000010
,
00000100
00001000
00010000
01000000
,
00100000
00100000
00010000
01000000
,
00100000
00010000
00001000
00000010
,
00000100
00000010
00000100
00000010
00000001
00001000
00000001
00001000
,
00010000
10000000
00010000
10000000
00100000
01000000
00100000
01000000
,
10000000
01000000
00010000
00100000
00001000
00000100
00000001
00000010
,
00000100
00000000
00002002
00003003
,
00000001
00000100
00001000
00000010
00000001
00000100
00001000
00000010
,
00000001
00000000
00000100
00000000
00001000
00000000
00010000
00000000
01000000
00000000
00000000
10000000
00000000
00000000
00100000
00000000
,
00000000
00010000
00001000
00010000
00001000
00000000
00100000
00000000
,
00110000
01010000
20020000
30030000
,
10000000
01000000
00010000
00100000
10000000
01000000
00010000
00100000
,
10000000
00000000
01000000
00000000
00010000
00000000
00001000
00000000
00000100
00000000
00000000
00000001
00000000
00000000
00000010
00000000
,
00000000
00001000
00010000
00001000
00010000
00000000
00000100
00000000
,
00000010
00001001
00000100
00000100
,
00000110
00000000
00001000
00010000
01100000
00000000
00010000
00001000
,
00000110
00000001
00000010
00001000
00010000
00100000
10000000
01000000
,
00010000
00000000
00000000
01000000
10000000
00000000
00010000
00000000
01000000
00000000
00000000
00100000
00010000
00000000
00001000
00000000
,
00000100
00000001
00000010
00000000
00000110
00000000
00001001
00000000
,
00000210
00000301
00001020
00000130
,
00001000
00000000
00010000
00000000
01000000
00000000
10000000
00000000
00100000
00000000
00000000
00010000
00000000
00000000
00001000
00000000
,
00000000
00010000
01000000
10000000
01000000
00000000
00100000
00000000
,
01001000
00011000
00010010
00000000
,
00010000
00001000
01000000
00100000
00010000
00001000
01000000
00100000
,
00010000
00001000
01000000
00100000
00010000
00001000
01000000
00100000
,
00010000
00001000
00000100
00000010
00010000
00001000
00000100
00000010
,
00020000
00001000
00000000
00031000
00000100
00000000
00001010
00000000
,
00010000
01000000
00001000
00100000
00010000
01000000
00001000
00100000
,
00010000
01000000
00001000
00100000
00010000
01000000
00001000
00010000
,
00000010
00001000
00000100
00010000
00000010
00000100
00000001
00001000
,
00000010
00010000
00001000
00100000
00010000
02000000
03002000
00203000
,
00301000
00010000
00000100
00000010
00001000
00010000
00000100
00000010
,
00001000
00010000
00000100
00000010
00001000
00010000
00000100
00000010
,
00001000
00010000
01000000
00100000
00001000
00010000
01000000
00100000
,
00002000
00010000
00000000
00013000
01000000
00000000
00110000
00000000
,
00001000
00000100
00010000
00000010
00001000
00000100
00010000
00000010
,
00001000
00000100
00010000
00000010
00001000
00000100
00010000
00001000
,
00100000
00010000
01000000
00001000
00100000
00010000
01000000
00100000
,
10000000
01000000
10000000
01000000
00010000
00001000
00011000
00000000
;

//---------------dance-single - Spin Special (Single)----------------
#NOTEDATA:;
#CHARTNAME:;
#STEPSTYPE:dance-single;
#DESCRIPTION:Spin Special (Single);
#CHARTSTYLE:;
#DIFFICULTY:Edit;
#METER:18;
#RADARVALUES:0.906397,0.954968,0.386204,0.236451,0.819698,805.000000,756.000000,49.000000,30.000000,0.000000,0.000000,0.000000,0.000000,0.000000,0.906397,0.954968,0.386204,0.236451,0.819698,805.000000,756.000000,49.000000,30.000000,0.000000,0.000000,0.000000,0.000000,0.000000;
#CREDIT:led_light;
#NOTES:
0000
0000
0000
0000
,
0000
0000
0000
0000
,
0000
0000
0000
0000
,
0000
0000
0000
0000
,
0000
0000
0000
0000
,
0000
0000
0000
0000
,
0000
0000
0000
0000
,
0000
0000
0000
0000
,
0002
0000
0000
0000
0013
0000
0000
0000
0100
0001
0100
0001
0100
0000
0010
0000
,
1001
0000
0100
0000
0010
1000
0010
1000
0100
0000
0001
0000
0010
1000
0010
1000
,
0100
0000
0001
0000
0010
1000
0010
1000
0100
0000
0001
0000
0010
1000
0010
1000
,
0001
0000
0100
0000
1000
0010
1000
0010
0001
0000
0100
0000
1000
0010
1000
0010
,
0001
0000
0100
0000
1000
0010
1000
0000
0001
0010
0100
1000
0001
0010
0100
1000
,
0010
0000
0001
0000
0100
1000
0100
1000
0010
0000
0001
0000
0100
1000
0100
1000
,
0010
0000
0001
0000
0100
1000
0100
1000
0010
0000
0001
0000
0100
1000
0100
1000
,
0001
0000
0010
0000
1000
0100
1000
0100
0001
0000
0010
0000
1000
0100
1000
0100
,
0001
0001
0010
0010
1000
0100
0100
0100
,
1010
0000
0100
0000
0010
0000
0001
0100
0000
0001
0100
0001
1000
0000
0010
0000
,
0100
0000
0001
0010
0100
0000
0001
0000
0100
1000
0000
1000
0100
0000
0001
0000
,
0000
0000
0100
0000
1000
0000
0001
0000
0100
0001
0000
1000
0100
1000
0000
1000
,
0001
0000
0100
0000
1000
0000
0010
0000
0001
0000
0000
0100
0000
0000
1000
0000
,
0000
0100
0010
0100
1000
0100
0001
0100
,
0010
1000
0010
1000
0010
1000
0001
0000
0100
0000
0010
0000
1000
0000
1000
0001
,
0020
0000
0000
0230
0000
0000
1300
0010
0100
0000
1000
0000
0100
0000
0001
0000
,
0010
1000
0001
0000
0110
0000
0101
0000
,
1010
0000
0000
0011
0000
0000
1010
0000
0001
0000
0100
1000
0010
0000
0001
0000
,
1001
0000
0010
0000
0100
0001
0100
0001
0010
0000
1000
0000
0100
0001
0100
0001
,
0010
0000
1000
0000
0100
0001
0100
0001
0010
0000
1000
0000
0100
0001
0100
0001
,
1000
0000
0010
0000
0001
0100
0001
0100
1000
0000
0010
0000
0001
0100
0001
0100
,
1000
0000
0010
0000
0001
0100
0001
0000
1000
0100
0010
0001
1000
0100
0010
0001
,
0100
0000
1000
0000
0010
0001
0010
0001
0100
0000
1000
0000
0010
0001
0010
0001
,
0100
0000
1000
0000
0010
0001
0010
0001
0100
0000
1000
0000
0010
0001
0010
0001
,
1000
0000
0100
0000
0001
0010
0001
0010
1000
0000
0100
0000
0001
0010
0001
0000
,
0100
0000
0010
1000
0001
0100
0010
1000
0001
0000
0000
0000
1001
0000
0000
0000
,
0101
0000
0001
0100
0001
0100
0010
1000
0100
0000
0010
0001
0010
0001
1000
0000
,
0010
1000
0010
1000
0000
1000
0100
0000
0010
0001
0000
0001
1000
0001
1000
0000
,
0100
0000
1000
0000
0010
0000
0100
0001
0010
0000
1000
0000
0010
0001
0100
0000
,
1000
0000
0100
1000
0100
0001
0100
0000
1000
0000
0000
0010
0000
0000
0001
0000
,
0000
0000
0100
0000
0010
0000
1000
0000
0100
0010
0000
0010
0100
0000
1000
0000
,
0001
0000
0100
0010
0100
0000
0001
0000
0010
0001
0000
0010
0001
0000
1000
0100
,
0001
0000
0000
0010
0000
0000
1000
0000
0100
0000
0010
0000
0001
0000
0100
0000
,
1100
1001
0110
1010
,
0101
0000
0000
1100
0000
0000
0101
0000
0010
0000
1000
0000
0001
0000
0100
0000
,
0020
0000
0000
0000
2030
0000
0000
0100
3001
0000
0001
0000
0010
0000
0010
0000
,
2000
0000
0000
0000
3200
0000
0000
0001
0310
0000
0010
0000
1000
0000
1000
0000
,
0200
0000
0000
0000
0320
0000
0000
0001
0130
0000
0100
0000
1000
0000
1000
0000
,
0020
0000
0000
0000
0032
0000
0000
0100
1003
0000
1000
0000
0010
0000
0010
0000
,
0002
0100
1000
1000
,
0023
0000
0130
1000
0010
0001
2000
0000
,
3200
0302
0023
1030
,
1001
0110
1001
0110
,
1001
0110
1001
0110
,
0101
1100
0011
1010
,
1100
0101
0011
1010
,
0100
0001
0010
1000
0100
0001
0010
1000
,
0001
0100
1000
0010
0001
0100
1000
0010
,
0100
0001
0100
0001
1000
0100
1000
0100
0010
0001
0010
0001
1000
0010
1000
0010
,
0200
0300
0220
0330
,
0001
0000
0100
1000
0000
0010
0001
0000
0100
1000
0000
0010
0001
0000
0100
1000
,
0000
0010
0001
0000
0100
1000
0000
0010
0002
0000
0000
0203
0000
0000
1300
0000
,
0000
0000
0010
0000
1000
0000
0100
0000
0001
0000
0000
1100
0000
0000
0010
0000
,
0001
0100
1000
0010
1002
0000
1003
0000
,
1000
0000
0100
0001
0000
0010
1000
0000
0100
0001
0000
0010
1000
0000
0100
0001
,
0000
0010
1000
0000
0100
0001
0000
0010
2000
0000
0000
3200
0000
0000
0301
0000
,
0000
0000
0100
0000
1000
0000
0010
0000
0001
0000
0000
1010
0000
0000
0100
0000
,
0010
0000
0010
0000
1000
0000
1000
0000
0100
0010
0001
1000
0001
0100
0010
1000
,
0001
0000
1000
0000
0010
0000
0200
0001
0310
0000
0100
0000
1000
0000
0020
1000
,
0130
0000
0020
0001
0130
0000
0010
0000
1000
0000
0100
0000
0010
0000
0001
0000
,
0100
0000
2000
0100
3001
0000
1000
0000
0100
0000
0002
1000
0013
0000
0100
0000
,
1000
0001
0100
0000
0101
0000
1100
0000
,
1010
0000
0010
0000
0001
0000
1000
0010
0001
0000
0010
0000
1000
0000
0001
0010
,
1000
0000
0100
0000
0001
0000
0010
0000
0110
0000
0000
1001
0000
0000
0110
0000
,
0000
0000
0001
0000
0100
0000
1000
0000
0010
0000
0000
0001
0000
0000
0100
0000
,
1010
0110
0011
0000
,
1001
0000
0100
0000
0010
0001
0010
0001
0100
0000
1000
0000
0010
0001
0010
0001
,
0100
0000
1000
0000
0010
0001
0010
0001
0100
0000
1000
0000
0010
0001
0010
0001
,
1000
0000
0100
0000
0001
0010
0001
0010
1000
0000
0100
0000
0001
0010
0001
0010
,
1000
0000
0100
0000
0001
0010
0001
0000
1000
0010
0100
0001
1000
0010
0100
0001
,
0010
0000
1000
0000
0100
0001
0100
0001
0010
0000
1000
0000
0100
0001
0100
0001
,
0010
0000
1000
0000
0100
0001
0100
0001
0010
0000
1000
0000
0100
0001
0100
0001
,
1000
0000
0010
0000
0001
0100
0001
0100
1000
0000
0010
0000
0001
0100
0001
0100
,
1000
1000
0010
0010
0001
0100
0100
0100
,
1001
0000
0010
0000
0100
1000
0100
1000
0010
0000
0001
0000
0100
1000
0100
1000
,
0010
0000
0001
0000
0100
1000
0100
1000
0010
0000
0001
0000
0100
1000
0100
1000
,
0001
0000
0010
0000
1000
0100
1000
0100
0001
0000
0010
0000
1000
0100
1000
0100
,
0001
0000
0010
0000
1000
0100
1000
0000
0001
0100
0010
1000
0001
0100
0010
1000
,
0100
0000
0001
0000
0010
1000
0010
1000
0100
0000
0001
0000
0010
1000
0010
1000
,
0100
0000
0001
0000
0010
1000
0010
1000
0100
0000
0001
0000
0010
1000
0010
1000
,
0001
0000
0100
0000
1000
0010
1000
0010
0001
0000
0100
0000
1000
0010
1000
0010
,
0001
0100
1000
0010
0001
0100
1001
0000
;

//---------------dance-single - ----------------
#NOTEDATA:;
#CHARTNAME:;
#STEPSTYPE:dance-single;
#DESCRIPTION:;
#CHARTSTYLE:;
#DIFFICULTY:Challenge;
#METER:16;
#RADARVALUES:0.797179,0.884229,0.409849,0.228570,0.409849,708.000000,656.000000,52.000000,29.000000,0.000000,0.000000,0.000000,0.000000,0.000000,0.797179,0.884229,0.409849,0.228570,0.409849,708.000000,656.000000,52.000000,29.000000,0.000000,0.000000,0.000000,0.000000,0.000000;
#CREDIT:led_light;
#NOTES:
0000
0000
0000
0000
,
0000
0000
0000
0000
,
0000
0000
0000
0000
,
0000
0000
0000
0000
,
0000
0000
0000
0000
,
0000
0000
0000
0000
,
0000
0000
0000
0000
,
0000
0000
0000
0000
,
0200
0000
0000
0000
0310
0000
0000
0000
1000
0100
1000
0100
1000
0000
0010
0000
,
0101
0000
0010
0000
1000
0001
0100
0000
0010
0000
1000
0000
0001
0100
0010
0000
,
1000
0000
0001
0000
0100
0010
1000
0000
0001
0000
0100
0000
0010
1000
0001
0000
,
1000
0000
0100
0000
0010
0001
1000
0000
0100
0000
0010
0000
0001
1000
0100
0000
,
0010
0000
0001
0000
1000
0100
0010
0000
0001
0000
0100
0000
0110
0000
0000
0000
,
1010
0000
0100
0000
0001
1000
0010
0000
0100
0000
0001
0000
1000
0010
0100
0000
,
0001
0000
1000
0000
0010
0100
0001
0000
1000
0000
0010
0000
0100
0001
1000
0000
,
0001
0000
0010
0000
0100
1000
0001
0000
0010
0000
0100
0000
1000
0001
0010
0000
,
0100
0100
0010
0010
0001
0010
0100
1000
,
0001
0000
1000
0000
0001
0100
0000
0010
1000
0000
0100
0000
1000
0000
0010
0000
,
0100
0001
0010
0001
0200
1300
0200
0301
,
1000
0100
0010
0100
1000
0100
0010
0100
,
1000
0001
0100
0010
0100
0000
0110
0000
,
1000
0001
0100
0001
0010
0001
0100
0001
,
1000
1000
0010
0010
0100
0100
0010
0100
,
0001
0010
0100
1000
0010
1000
0100
0001
,
0100
1000
0010
0000
0101
0000
1100
0000
,
0010
0000
0000
1001
0000
0000
0100
0000
1000
0000
0010
0000
0100
0000
0001
0000
,
1100
0000
0010
0000
0001
1000
0100
0000
0010
0000
0001
0000
1000
0100
0010
0000
,
0001
0000
1000
0000
0100
0010
0001
0000
1000
0000
0100
0000
0010
0001
1000
0000
,
0001
0000
0100
0000
0010
1000
0001
0000
0100
0000
0010
0000
1000
0001
0100
0000
,
0010
0000
1000
0000
0001
0100
0010
0000
1000
0000
0100
0000
0110
0000
0000
0000
,
0011
0000
0100
0000
1000
0001
0010
0000
0100
0000
1000
0000
0001
0010
0100
0000
,
1000
0000
0001
0000
0010
0100
1000
0000
0001
0000
0010
0000
0100
1000
0001
0000
,
1000
0000
0010
0000
0100
0001
1000
0000
0010
0000
0100
0000
0001
1000
0010
0000
,
0100
0000
0001
1000
0001
1000
0001
1000
0001
0000
0000
0000
0110
0000
0000
0000
,
1000
0000
0001
0000
1000
0100
0000
0010
0001
0000
0100
0000
0001
0000
0010
0000
,
0100
1000
0010
1000
0200
0301
0200
1300
,
0001
0100
0010
0100
0001
0100
0010
0100
,
0001
1000
0100
0010
0100
0000
0110
0000
,
0001
1000
0100
1000
0010
1000
0100
1000
,
0001
0001
0010
0010
0100
0100
0010
0100
,
1000
0010
0100
0001
0010
0001
0100
1000
,
0100
0001
0010
0000
1100
0000
0101
0000
,
0010
0000
0000
1001
0000
0000
0100
0000
0001
0000
0010
0000
0100
0000
1000
0000
,
0002
0000
0000
0000
0203
0000
0000
1000
0310
0000
0010
0000
0001
0000
0001
0000
,
0200
0000
0000
0000
2300
0000
0000
0010
3001
0000
0001
0000
0100
0000
0100
0000
,
2000
0000
0000
0000
3020
0000
0000
0001
0130
0000
0100
0000
1000
0000
1000
0000
,
0020
0000
0000
0000
0032
0000
0000
0100
1003
0000
1000
0000
0010
0000
0010
0000
,
0002
0000
0100
0100
,
2003
0000
3010
0100
0001
1000
0020
0000
,
0032
0203
2300
3010
,
0110
1001
0110
1001
,
0110
1001
0110
1001
,
1100
0101
1010
0011
,
0101
1100
1010
0011
,
0100
0001
0100
1000
0100
1000
0010
1000
,
0010
0001
0010
0001
0100
0001
0100
1000
,
0001
0100
0001
0100
0010
1000
0010
1000
0100
1000
0100
1000
0001
0010
0001
0010
,
0200
0300
2002
3003
,
1000
0000
1000
0100
0000
0100
0001
0000
0001
0010
0000
0010
1000
0000
1000
0100
,
0000
0100
0001
0000
0001
0010
0000
0010
1000
0000
0000
0100
0000
0000
0001
0000
,
0000
0000
0100
0000
1000
0000
0100
0000
0010
0000
0000
0001
0100
0000
0010
0000
,
1000
0100
0001
0010
2002
0000
3003
0000
,
0001
0000
0001
0100
0000
0100
1000
0000
1000
0010
0000
0010
0001
0000
0001
0100
,
0000
0100
1000
0000
1000
0010
0000
0010
0001
0000
0000
0100
0000
0000
1000
0000
,
0000
0000
0100
0000
0001
0000
0100
0000
0010
0000
0000
1000
0100
0000
0010
0000
,
0001
0100
1000
0000
1010
0000
0101
0000
,
0011
0000
0000
0000
1000
0000
0001
0100
0020
0000
0000
0000
0031
0000
1000
0100
,
0010
0100
1000
0010
0100
0001
0010
0100
,
1000
0000
0020
0100
0031
0000
1000
0000
0001
0000
0020
0100
1030
0000
0001
0000
,
0100
1000
0001
0000
0011
0000
1100
0000
,
1010
0000
0000
0000
0001
0000
1000
0010
0200
0000
0000
0000
1300
0000
0001
0010
,
0100
0000
1000
0000
0010
0000
0100
0000
1100
0000
0000
0101
0000
0000
0011
0000
,
0000
0000
1000
0000
0010
0000
1000
0000
0200
0000
0000
0010
0301
0000
1000
0000
,
1100
1010
0011
0000
,
0101
0000
1000
0000
0010
0100
0001
0000
1000
0000
0010
0000
0100
0001
1000
0000
,
0010
0000
0100
0000
0001
1000
0010
0000
0100
0000
0001
0000
1000
0010
0100
0000
,
0001
0000
0010
0000
0100
1000
0001
0000
0010
0000
0100
0000
1000
0001
0010
0000
,
0100
0000
1000
0000
0001
0010
0100
0000
1000
0000
0010
0000
0110
0000
0000
0000
,
1010
0000
0001
0000
0100
0010
1000
0000
0001
0000
0100
0000
0010
1000
0001
0000
,
0100
0000
0010
0000
1000
0001
0100
0000
0010
0000
1000
0000
0001
0100
0010
0000
,
1000
0000
0100
0000
0010
0001
1000
0000
0100
0000
0010
0000
0001
1000
0100
0000
,
0010
0000
0001
0000
1000
0100
0010
0000
0001
0000
1000
0000
1000
0000
1000
0000
,
1100
0000
0001
0000
0010
0100
1000
0000
0001
0000
0010
0000
0100
1000
0001
0000
,
0010
0000
0100
0000
1000
0001
0010
0000
0100
0000
1000
0000
0001
0010
0100
0000
,
1000
0000
0010
0000
0100
0001
1000
0000
0010
0000
0100
0000
0001
1000
0010
0000
,
0100
0000
0001
0000
1000
0010
0100
0000
0001
0000
0010
0000
0110
0000
0000
0000
,
0011
0000
1000
0000
0100
0010
0001
0000
1000
0000
0100
0000
0010
0001
1000
0000
,
0100
0000
0010
0000
0001
1000
0100
0000
0010
0000
0001
0000
1000
0100
0010
0000
,
0001
0000
0100
0000
0010
1000
0001
0000
0100
0000
0010
0000
1000
0001
0100
0000
,
0010
1000
0100
0001
0010
1000
1001
0000
;

//---------------dance-double - Spin Special (Double)----------------
#NOTEDATA:;
#CHARTNAME:;
#STEPSTYPE:dance-double;
#DESCRIPTION:Spin Special (Double);
#CHARTSTYLE:;
#DIFFICULTY:Edit;
#METER:18;
#RADARVALUES:0.901893,0.954968,0.362559,0.220688,0.815757,801.000000,755.000000,46.000000,28.000000,0.000000,0.000000,0.000000,0.000000,0.000000,0.901893,0.954968,0.362559,0.220688,0.815757,801.000000,755.000000,46.000000,28.000000,0.000000,0.000000,0.000000,0.000000,0.000000;
#CREDIT:led_light;
#NOTES:
00000000
00000000
00000000
00000000
,
00000000
00000000
00000000
00000000
,
00000000
00000000
00000000
00000000
,
00000000
00000000
00000000
00000000
,
00000000
00000000
00000000
00000000
,
00000000
00000000
00000000
00000000
,
00000000
00000000
00000000
00000000
,
00000000
00000000
00000000
00000000
,
00000020
00000000
00000000
00000000
00001030
00000000
00000000
00000000
01000000
00010000
01000000
00010000
01000000
00000000
00100000
00000000
,
00011000
00000000
00010000
00000000
00001000
00000010
00000001
00000100
00001000
00000000
00010000
00000000
00001000
00000010
00000001
00000100
,
00001000
00000000
00010000
00000000
00001000
00000010
00000001
00000100
00001000
00000000
00010000
00000000
00100000
10000000
01000000
00010000
,
00001000
00000000
00010000
00000000
00100000
10000000
01000000
00010000
00001000
00000000
00010000
00000000
00100000
10000000
01000000
00010000
,
00001000
00000000
00010000
00000000
00100000
10000000
01000000
00000000
10000000
01000000
00100000
00010000
00001000
00000010
00000100
00000001
,
00000010
00000000
00000001
00000000
00000100
00001000
00010000
00001000
00000010
00000000
00000001
00000000
00000100
00001000
00010000
00001000
,
00000010
00000000
00000001
00000000
00000100
00001000
00010000
00001000
00000010
00000000
00000001
00000000
00000100
00001000
00010000
00100000
,
10000000
00000000
01000000
00000000
00010000
00001000
00010000
00100000
10000000
00000000
01000000
00000000
00010000
00001000
00010000
00100000
,
10000000
10000000
01000000
01000000
00010000
00001000
00001000
00001000
,
00000110
00000000
00000001
00000000
00001000
00000000
00000010
00000001
00000000
00000010
00001000
00000010
00001000
00000000
00000100
00000000
,
00001000
00000000
00000001
00000010
00000001
00000000
00000100
00000000
00001000
00010000
00000000
00010000
01000000
00000000
10000000
00000000
,
00000000
00000000
00100000
00000000
00010000
00000000
00100000
00000000
10000000
01000000
00000000
00100000
01000000
00100000
00000000
00001000
,
00010000
00000000
00100000
00000000
10000000
00000000
01000000
00000000
00010000
00000000
00000000
00001000
00000000
00000000
00000100
00000000
,
00000000
00001000
00010000
00001000
00000010
00001000
00010000
00001000
,
00000100
00000001
00000100
00000001
00000100
00000001
00000010
00000000
00000100
00000000
00001000
00000000
00000001
00000000
00000100
00000010
,
00002000
00000000
00000000
00003200
00000000
00000000
00010300
00001000
00010000
00000000
00000010
00000000
00010000
00000000
00001000
00000000
,
01000000
00010000
10000000
00000000
00110000
00000000
10000000
00000000
,
01010000
00000000
00000000
00011000
00000000
00000000
00001100
00000000
00000100
00000000
00000001
00000010
00001000
00000000
00010000
00000000
,
00011000
00000000
00001000
00000000
00010000
00100000
10000000
01000000
00010000
00000000
00001000
00000000
00010000
00100000
10000000
01000000
,
00010000
00000000
00001000
00000000
00010000
00100000
10000000
01000000
00010000
00000000
00001000
00000000
00000010
00000001
00000100
00001000
,
00010000
00000000
00001000
00000000
00000010
00000001
00000100
00001000
00010000
00000000
00001000
00000000
00000010
00000001
00000100
00001000
,
00010000
00000000
00001000
00000000
00000010
00000001
00000100
00000000
00000001
00000100
00000010
00001000
00010000
00100000
01000000
10000000
,
00100000
00000000
10000000
00000000
01000000
00010000
00001000
00010000
00100000
00000000
10000000
00000000
01000000
00010000
00001000
00010000
,
00100000
00000000
10000000
00000000
01000000
00010000
00001000
00010000
00100000
00000000
10000000
00000000
01000000
00010000
00001000
00000010
,
00000001
00000000
00000100
00000000
00001000
00010000
00001000
00000010
00000001
00000000
00000100
00000000
00001000
00010000
00001000
00000000
,
00000010
00000000
00000001
00000100
00000010
00001000
00000001
00000100
00000010
00000000
00000000
00000000
00001001
00000000
00000000
00000000
,
00000100
00000000
00000010
00010000
00000010
00010000
00001000
00100000
00010000
00000000
01000000
00001000
00010000
00001000
01000000
00000000
,
00100000
10000000
00100000
10000000
00000000
10000000
01000000
00000000
00100000
00010000
00000000
00100000
00001000
00010000
00001000
00000000
,
00010000
00000000
01000000
00000000
10000000
00000000
01000000
00010000
00001000
00000000
00010000
00000000
00100000
00000000
10000000
00000000
,
01000000
00000000
00010000
00001000
00010000
00100000
00010000
00000000
01000000
00000000
00000000
00001000
00000000
00000000
00000100
00000000
,
00000000
00000000
00010000
00000000
00001000
00000000
00000100
00000000
00000001
00000010
00000000
00000010
00000001
00000000
00000100
00000000
,
00000010
00000000
00001000
00000100
00001000
00000000
00000010
00000000
00010000
00001000
00000000
00010000
00001000
00000000
01000000
00010000
,
00100000
00000000
00000000
10000000
00000000
00000000
01000000
00000000
00010000
00000000
00100000
00000000
00001000
00000000
00000100
00000000
,
00000101
00000110
00001001
00000100
,
00001010
00000000
00000000
00011000
00000000
00000000
00110000
00000000
10000000
00000000
01000000
00000000
00100000
00000000
00010000
00000000
,
00002000
00000000
00000000
00000000
00003200
00000000
00000000
00000001
00000310
00000000
00001000
00000000
00000100
00000000
00000010
00000000
,
00020000
00000000
00000000
00000000
00230000
00000000
00000000
10000000
01300000
00000000
00010000
00000000
00100000
00000000
01000000
00000000
,
00002000
00000000
00000000
00000000
00003200
00000000
00000000
00000001
00000310
00000000
00001000
00000000
00000100
00000000
00000010
00000000
,
00020000
00000000
00000000
00000000
00230000
00000000
00000000
10000000
01300000
00000000
00010000
00000000
00100000
00000000
01000000
00000000
,
00002000
00000100
00000010
00000010
,
00023000
00000000
01030000
00010000
10000000
00100000
02000000
00000000
,
03020000
00032000
00003020
00010030
,
00011000
00001100
00001001
00001010
,
00011000
00001100
00001010
00011000
,
00110000
01010000
00011000
00110000
,
10010000
01010000
00011000
00001100
,
00001000
00000100
00000001
00000010
00001000
00010000
00001000
00000100
,
00010000
00100000
10000000
01000000
00010000
00001000
00010000
00100000
,
00001000
00000010
00001000
00000010
00001000
00010000
00001000
00010000
00001000
00000100
00001000
00000100
00000010
00000001
00000100
00001000
,
00020000
00030000
00022000
00033000
,
01000000
00000000
10000000
00100000
00000000
00010000
00001000
00000000
00000010
00000001
00000000
00000100
00001000
00000000
00010000
01000000
,
00000000
10000000
00100000
00000000
00010000
00001000
00000000
00000010
00000002
00000000
00000000
00000203
00000000
00000000
00001300
00000000
,
00000000
00000000
00010000
00000000
00100000
00000000
10000000
00000000
01000000
00000000
00000000
00110000
00000000
00000000
01000000
00000000
,
10000000
00100000
00010000
00001000
00012000
00000000
00013000
00000000
,
00000100
00000000
00000001
00000010
00000000
00001000
00010000
00000000
00100000
10000000
00000000
01000000
00010000
00000000
00001000
00000100
,
00000000
00000001
00000010
00000000
00001000
00010000
00000000
00100000
20000000
00000000
00000000
32000000
00000000
00000000
03010000
00000000
,
00000000
00000000
00001000
00000000
00000010
00000000
00000001
00000000
00000100
00000000
00000000
00001010
00000000
00000000
00000100
00000000
,
00000001
00000000
00000001
00000000
00000010
00000000
00000010
00000000
00001000
00010000
00000100
00001000
00000010
00010000
00001000
00100000
,
00010000
00000000
10000000
00000000
00100000
00000000
02000000
00010000
03100000
00000000
01000000
00000000
10000000
00000000
00200000
10000000
,
01300000
00000000
00200000
00010000
01300000
00000000
00001000
00000000
00010000
00000000
00000100
00000000
00001000
00000000
00000010
00000000
,
00000100
00000000
00000001
00000010
00000100
00000000
00010000
00000000
00001000
00000000
01000000
00100000
10000000
00000000
01000000
00000000
,
00010000
00010000
00001000
00000000
00010100
00000000
00011000
00000000
,
00010010
00000000
00001000
00000000
00000100
00000000
00000010
00000001
00000100
00000000
00000010
00000000
00010000
00000000
00001000
00010000
,
01000000
00000000
10000000
00000000
00100000
00000000
00010000
00000000
00011000
00000000
00000000
00001010
00000000
00000000
00001100
00000000
,
00000000
00000000
00000010
00000000
00001000
00000000
00010000
00000000
00001000
00000000
00000000
00000100
00000000
00000000
00000001
00000000
,
00001001
00011000
10010000
00000000
,
01100000
00000000
10000000
00000000
01000000
00010000
00001000
00010000
00100000
00000000
10000000
00000000
01000000
00010000
00001000
00010000
,
00100000
00000000
10000000
00000000
01000000
00010000
00001000
00010000
00100000
00000000
10000000
00000000
01000000
00010000
00001000
00000010
,
00000001
00000000
00000100
00000000
00001000
00010000
00001000
00000010
00000001
00000000
00000100
00000000
00001000
00010000
00001000
00000010
,
00000001
00000000
00000100
00000000
00001000
00010000
00001000
00000000
00000010
00000001
00000100
00001000
00010000
01000000
10000000
00100000
,
00010000
00000000
00100000
00000000
10000000
01000000
00010000
00001000
00010000
00000000
00100000
00000000
10000000
01000000
00010000
00001000
,
00010000
00000000
00100000
00000000
10000000
01000000
00010000
00001000
00010000
00000000
00100000
00000000
10000000
01000000
00010000
00001000
,
00000010
00000000
00000001
00000000
00000100
00001000
00010000
00001000
00000010
00000000
00000001
00000000
00000100
00001000
00010000
00001000
,
00000010
00000010
00000001
00000001
00000100
00001000
00001000
00001000
,
00000110
00000000
00000001
00000000
00000010
00001000
00010000
00001000
00000100
00000000
00000001
00000000
00000010
00001000
00010000
00001000
,
00000100
00000000
00000001
00000000
00000010
00001000
00010000
00001000
00000100
00000000
00000001
00000000
00000010
00001000
00010000
01000000
,
10000000
00000000
00100000
00000000
00010000
00001000
00010000
01000000
10000000
00000000
00100000
00000000
00010000
00001000
00010000
01000000
,
10000000
00000000
00100000
00000000
00010000
00001000
00010000
00000000
01000000
10000000
00100000
00010000
00001000
00000010
00000001
00000100
,
00001000
00000000
00000100
00000000
00000001
00000010
00001000
00010000
00001000
00000000
00000100
00000000
00000001
00000010
00001000
00010000
,
00001000
00000000
00000100
00000000
00000001
00000010
00001000
00010000
00001000
00000000
00000100
00000000
00000001
00000010
00001000
00010000
,
01000000
00000000
10000000
00000000
00100000
00010000
00001000
00010000
01000000
00000000
10000000
00000000
00100000
00010000
00001000
00010000
,
00001000
00000100
00001000
00010000
01000000
00010000
00011000
00000000
;

//---------------dance-double - ----------------
#NOTEDATA:;
#CHARTNAME:;
#STEPSTYPE:dance-double;
#DESCRIPTION:;
#CHARTSTYLE:;
#DIFFICULTY:Challenge;
#METER:16;
#RADARVALUES:0.796053,0.884229,0.409849,0.189161,0.405908,707.000000,655.000000,52.000000,24.000000,0.000000,0.000000,0.000000,0.000000,0.000000,0.796053,0.884229,0.409849,0.189161,0.405908,707.000000,655.000000,52.000000,24.000000,0.000000,0.000000,0.000000,0.000000,0.000000;
#CREDIT:led_light;
#NOTES:
00000000
00000000
00000000
00000000
,
00000000
00000000
00000000
00000000
,
00000000
00000000
00000000
00000000
,
00000000
00000000
00000000
00000000
,
00000000
00000000
00000000
00000000
,
00000000
00000000
00000000
00000000
,
00000000
00000000
00000000
00000000
,
00000000
00000000
00000000
00000000
,
02000000
00000000
00000000
00000000
03100000
00000000
00000000
00000000
10000000
01000000
10000000
01000000
10000000
00000000
00100000
00000000
,
10010000
00000000
01000000
00000000
00100000
00010000
10000000
00000000
01000000
00000000
00100000
00000000
00010000
10000000
01000000
00000000
,
00100000
00000000
00010000
00000000
10000000
01000000
00100000
00000000
00010000
00000000
10000000
00000000
01000000
00100000
00010000
00000000
,
00001000
00000000
00000100
00000000
00000010
00000001
00001000
00000000
00000100
00000000
00000010
00000000
00000001
00001000
00000100
00000000
,
00000010
00000000
00000001
00000000
00001000
00000100
00000010
00000000
00000001
00000000
00000100
00000000
00000110
00000000
00000000
00000000
,
00001001
00000000
00000010
00000000
00000100
00001000
00000001
00000000
00000010
00000000
00000100
00000000
00001000
00000001
00000010
00000000
,
00000100
00000000
00001000
00000000
00000001
00000010
00000100
00000000
00001000
00000000
00000001
00000000
00000010
00000100
00001000
00000000
,
00010000
00000000
00100000
00000000
01000000
10000000
00010000
00000000
00100000
00000000
01000000
00000000
10000000
00010000
00100000
00000000
,
01000000
01000000
10000000
10000000
00100000
01000000
00010000
10000000
,
00100000
00000000
01000000
00000000
00010000
01000000
00000000
00100000
01000000
00000000
00010000
00000000
10000000
00000000
01000000
00000000
,
00100000
00001000
00010000
00000010
00001000
00000100
00000010
00000100
,
00001000
00000001
00000100
00000010
00000100
00000001
00001000
00000100
,
00000010
00001000
00010000
01000000
10000000
00000000
01010000
00000000
,
10000000
01000000
00100000
01000000
10000000
00010000
01000000
00100000
,
01000000
00001000
00010000
00000100
00000010
00000100
00001000
00000001
,
00000010
00000001
00000100
00001000
00010000
00001000
01000000
00100000
,
01000000
00010000
00100000
00000000
01010000
00000000
11000000
00000000
,
00100000
00000000
00000000
10010000
00000000
00000000
01000000
00000000
00100000
00000000
00010000
00000000
00001000
00000000
00000100
00000000
,
00001001
00000000
00000100
00000000
00000010
00001000
00000001
00000000
00000100
00000000
00000010
00000000
00001000
00000001
00000100
00000000
,
00000010
00000000
00001000
00000000
00000001
00000100
00000010
00000000
00001000
00000000
00000001
00000000
00000100
00000010
00001000
00000000
,
00010000
00000000
01000000
00000000
00100000
10000000
00010000
00000000
01000000
00000000
00100000
00000000
10000000
00010000
01000000
00000000
,
00100000
00000000
10000000
00000000
00010000
01000000
00100000
00000000
10000000
00000000
01000000
00000000
01100000
00000000
00000000
00000000
,
10010000
00000000
00100000
00000000
01000000
00010000
10000000
00000000
00100000
00000000
01000000
00000000
00010000
10000000
00100000
00000000
,
01000000
00000000
00010000
00000000
10000000
00100000
01000000
00000000
00010000
00000000
10000000
00000000
00100000
01000000
00010000
00000000
,
00001000
00000000
00000010
00000000
00000100
00000001
00001000
00000000
00000010
00000000
00000100
00000000
00000001
00001000
00000010
00000000
,
00000100
00000000
00000001
00001000
00000001
00001000
00000001
00001000
00000001
00000000
00000000
00000000
00000110
00000000
00000000
00000000
,
00000010
00000000
00000100
00000000
00001000
00000100
00000000
00000010
00000100
00000000
00001000
00000000
00000001
00000000
00000100
00000000
,
00000010
00010000
00001000
00100000
00010000
01000000
00100000
01000000
,
00010000
10000000
01000000
00100000
01000000
10000000
00010000
01000000
,
00100000
00010000
00001000
00000100
00000001
00000000
00001100
00000000
,
00000001
00000100
00000010
00000100
00000001
00001000
00000100
00000010
,
00000100
00010000
00001000
01000000
00100000
01000000
00010000
10000000
,
00100000
10000000
01000000
00010000
00001000
00010000
00000100
00000010
,
00000100
00001000
00000010
00000000
00001100
00000000
00000101
00000000
,
00000010
00000000
00000000
00001001
00000000
00000000
00000100
00000000
00000010
00000000
00001000
00000000
00010000
00000000
01000000
00000000
,
20000000
00000000
00000000
00000000
30200000
00000000
00000000
00010000
00301000
00000000
00001000
00000000
00000010
00000000
00000010
00000000
,
00000002
00000000
00000000
00000000
00000203
00000000
00000000
00001000
00010300
00000000
00010000
00000000
01000000
00000000
01000000
00000000
,
20000000
00000000
00000000
00000000
30200000
00000000
00000000
00010000
00301000
00000000
00001000
00000000
00000010
00000000
00000010
00000000
,
00000002
00000000
00000000
00000000
00000203
00000000
00000000
00001000
00010300
00000000
00010000
00000000
01000000
00000000
01000000
00000000
,
20000000
00000000
01000000
01000000
,
30020000
00000000
00130000
00001000
01000000
00010000
00200000
00000000
,
00302000
00023000
00030200
00000310
,
00001001
00000110
00001001
00000110
,
00001001
00000110
00001001
00000110
,
00000011
00001100
00011000
01010000
,
10100000
11000000
00110000
00011000
,
00000100
00000001
00000010
00001000
00000100
00000001
00000010
00001000
,
00010000
00100000
10000000
01000000
00010000
00100000
10000000
01000000
,
00100000
00010000
00100000
00010000
01000000
00001000
01000000
00001000
00010000
00000010
00010000
00000010
00001000
00000100
00001000
00000100
,
00000002
00000003
00002002
00003003
,
00000001
00000000
00000001
00000100
00000000
00000100
00001000
00000000
00001000
00000010
00000000
00000010
00000001
00000000
00000001
00000100
,
00000000
00000100
00001000
00000000
00001000
00010000
00000000
00010000
01000000
00000000
00000000
10000000
00000000
00000000
00100000
00000000
,
00000000
00000000
00010000
00000000
00001000
00000000
00010000
00000000
01000000
00000000
00000000
10000000
01000000
00000000
00100000
00000000
,
00010000
01000000
10000000
00100000
20020000
00000000
30030000
00000000
,
10000000
00000000
10000000
01000000
00000000
01000000
00010000
00000000
00010000
00100000
00000000
00100000
10000000
00000000
10000000
01000000
,
00000000
01000000
00010000
00000000
00010000
00001000
00000000
00001000
00000100
00000000
00000000
00000001
00000000
00000000
00000010
00000000
,
00000000
00000000
00001000
00000000
00010000
00000000
00001000
00000000
00000100
00000000
00000000
00000001
00000100
00000000
00000010
00000000
,
00001000
00000100
00000001
00000000
00000011
00000000
00000101
00000000
,
00001010
00000000
00000000
00000000
00010000
00000000
00001000
01000000
00020000
00000000
00000000
00000000
00031000
00000000
00010000
00000100
,
00001000
00000100
00010000
00001000
00100000
00010000
01000000
00100000
,
10000000
00000000
01000000
00100000
10000000
00000000
00100000
00000000
01000000
00000000
10000000
00100000
01000000
00000000
00010000
00000000
,
00100000
00001000
01000000
00000000
10100000
00000000
11000000
00000000
,
00110000
00000000
00000000
00000000
00001000
00000000
00010000
00000100
00002000
00000000
00000000
00000000
00003001
00000000
00000010
00000100
,
00001000
00000000
00000001
00000000
00000100
00000000
00000010
00000000
00001010
00000000
00000000
00011000
00000000
00000000
00110000
00000000
,
00000000
00000000
10000000
00000000
01000000
00000000
00010000
00000000
01000000
00000000
00000000
00100000
00001000
00000000
00010000
00000000
,
00011000
00001100
00000011
00000000
,
00001010
00000000
00000001
00000000
00000100
00000010
00001000
00000000
00000001
00000000
00000100
00000000
00000010
00001000
00000001
00000000
,
00000100
00000000
00000010
00000000
00001000
00000001
00000100
00000000
00000010
00000000
00001000
00000000
00000001
00000100
00000010
00000000
,
00001000
00000000
00010000
00000000
01000000
00100000
10000000
00000000
00010000
00000000
01000000
00000000
00100000
10000000
00010000
00000000
,
01000000
00000000
00100000
00000000
10000000
00010000
01000000
00000000
00100000
00000000
10000000
00000000
01100000
00000000
00000000
00000000
,
01010000
00000000
10000000
00000000
00100000
01000000
00010000
00000000
10000000
00000000
00100000
00000000
01000000
00010000
10000000
00000000
,
00100000
00000000
01000000
00000000
00010000
10000000
00100000
00000000
01000000
00000000
00010000
00000000
10000000
00100000
01000000
00000000
,
00010000
00000000
00001000
00000000
00000010
00000100
00000001
00000000
00001000
00000000
00000010
00000000
00000100
00000001
00001000
00000000
,
00000010
00000100
00000010
00000100
00001000
00020000
00230000
10300000
,
00110000
00000000
10000000
00000000
01000000
00100000
00010000
00000000
10000000
00000000
01000000
00000000
00100000
00010000
10000000
00000000
,
01000000
00000000
00100000
00000000
00010000
10000000
01000000
00000000
00100000
00000000
00010000
00000000
10000000
01000000
00100000
00000000
,
00010000
00000000
00001000
00000000
00000100
00000010
00000001
00000000
00001000
00000000
00000100
00000000
00000010
00000001
00001000
00000000
,
00000100
00000000
00000010
00000000
00000001
00001000
00000100
00000000
00000010
00000000
00000001
00000000
00000110
00000000
00000000
00000000
,
00001100
00000000
00000001
00000000
00000010
00000100
00001000
00000000
00000001
00000000
00000010
00000000
00000100
00001000
00000001
00000000
,
00000010
00000000
00000100
00000000
00001000
00000001
00000010
00000000
00000100
00000000
00001000
00000000
00000001
00000010
00000100
00000000
,
00001000
00000000
00010000
00000000
00100000
01000000
10000000
00000000
00010000
00000000
00100000
00000000
01000000
10000000
00010000
00000000
,
00100000
10000000
01000000
00010000
00001000
00000100
00001001
00000000
;
