#TITLE:Markiplier Warm-Up REMIX;
#SUBTITLE:;
#ARTIST:Cool Songs;
#TITLETRANSLIT:;
#SUBTITLETRANSLIT:;
#ARTISTTRANSLIT:;
#GENRE:Variety;
#CREDIT:;
#BANNER:Markiplier Warm-Up REMIX.png;
#BACKGROUND:Markiplier Warm-Up REMIX-bg.png;
#LYRICSPATH:;
#CDTITLE:../cdtitle.png;
#MUSIC:Markiplier Warm-Up REMIX.ogg;
#OFFSET:1.364000;
#SAMPLESTART:5.830000;
#SAMPLELENGTH:15.000000;
#LASTBEATHINT:0.606667;
#SELECTABLE:YES;
#BPMS:0.000000=100.000000
;
#STOPS:
;
#BGCHANGES:2.271=Markiplier Warm-Up REMIX.avi=1.000=0=0=0=StretchNoLoop====,
99999=-nosongbg-=1.000=0=0=0 // don't automatically add -songbackground-
;
#KEYSOUNDS:;
#ATTACKS:;

//---------------dance-single - ----------------
#NOTES:
     dance-single:
     :
     Challenge:
     13:
     0.680796,0.689143,1.093516,0.162002,0.405006,353.000000,272.000000,81.000000,12.000000,0.000000,0.000000,0.680796,0.689143,1.093516,0.162002,0.405006,353.000000,272.000000,81.000000,12.000000,0.000000,0.000000:
// measure 0
0000
0000
0000
0000
,  // measure 1
0000
0000
0000
0000
,  // measure 2
0000
0000
0000
0000
,  // measure 3
0110
0000
1000
0001
0011
0000
0011
0000
0100
1000
1000
0000
1001
0000
1000
0100
,  // measure 4
0110
0000
0001
1000
1001
0000
1100
0000
1000
0010
0010
0000
1010
0000
0011
0000
,  // measure 5
1001
0000
0001
0100
0101
0000
1100
0000
1000
0001
0001
0000
0101
0000
0110
0010
,  // measure 6
1010
0000
1000
0001
1001
0000
0110
0000
1000
0001
0001
0000
0110
0000
1001
0000
,  // measure 7
0110
0000
0001
1000
1010
0000
1010
0000
0100
0001
0001
0000
1001
0000
0001
0100
,  // measure 8
0110
0000
1000
0001
1001
0000
0101
0000
0001
0010
0010
0000
0011
0000
1010
0000
,  // measure 9
1001
0000
1000
0100
1100
0000
0101
0000
0001
1000
1000
0000
1100
0000
0110
0010
,  // measure 10
0011
0000
0001
1000
1001
0000
0110
0000
0001
1000
1000
0000
0010
0100
0010
0100
,  // measure 11
0101
0001
1100
2000
0000
0100
0010
0000
,  // measure 12
3100
0100
1000
0001
2000
0000
0200
3300
,  // measure 13
1100
1000
0101
0002
0000
0100
0010
0000
,  // measure 14
1003
1000
0100
0001
0200
0000
0020
0330
,  // measure 15
0011
0001
1010
2000
0100
0010
0100
0000
,  // measure 16
3010
0010
1000
0001
2000
0010
0020
3030
,  // measure 17
1010
1000
0011
0002
0100
0010
0100
0000
,  // measure 18
1003
1000
0010
0001
0020
0100
0200
0330
,  // measure 19
1001
0000
0100
0010
0100
0000
0100
0000
0100
0010
0100
0000
0100
0000
0100
0010
,  // measure 20
1001
0000
0010
0100
0010
0000
0010
0000
0010
0100
0010
0000
0010
0000
0010
0000
,  // measure 21
1001
0000
0100
0010
0100
0000
0100
0000
0100
0010
0100
0000
0100
0000
0100
0010
,  // measure 22
1000
0100
1000
0100
0001
0100
0001
0100
0010
0100
0010
0100
0010
0000
0100
0000
,  // measure 23
0110
0000
0001
1000
1100
0000
1100
0000
0010
0001
0001
0000
1001
0000
0001
0010
,  // measure 24
0110
0000
1000
0001
1001
0000
0011
0000
0001
0100
0100
0000
0101
0000
1100
0000
,  // measure 25
1001
0000
1000
0010
1010
0000
0011
0000
0001
1000
1000
0000
1010
0000
0110
0100
,  // measure 26
0101
0000
0001
1000
1001
0000
0110
0000
0001
1000
1000
0000
0100
0010
0100
0010
,  // measure 27
0110
0000
1000
0001
0101
0000
0101
0000
0010
1000
1000
0000
1001
0000
1000
0010
,  // measure 28
0110
0000
0001
1000
1001
0000
1010
0000
1000
0100
0100
0000
1100
0000
0101
0000
,  // measure 29
1001
0000
0001
0010
0011
0000
1010
0000
1000
0001
0001
0000
0011
0000
0110
0100
,  // measure 30
1100
0000
1000
0001
1001
0000
0110
0000
1000
0001
0001
0000
0100
0010
0100
0010
;

//---------------dance-single - ----------------
#NOTES:
     dance-single:
     :
     Hard:
     10:
     0.549651,0.583546,1.066515,0.162002,0.000000,285.000000,206.000000,79.000000,12.000000,0.000000,0.000000,0.549651,0.583546,1.066515,0.162002,0.000000,285.000000,206.000000,79.000000,12.000000,0.000000,0.000000:
0000
0000
0000
0000
,
0000
0000
0000
0000
,
0000
0000
0000
0000
,
0110
1000
1010
1100
0001
0001
0101
1000
,
1100
0001
1001
0011
0100
0100
1100
0010
,
1001
0010
0101
0011
0001
0001
0011
0001
,
1001
1000
1100
0010
1100
1100
0101
0110
,
1001
0010
1100
0110
1000
1000
1001
0100
,
0110
0100
1001
1010
0100
0100
1001
0010
,
1001
0100
0011
0110
0001
0001
1001
0010
,
0110
0010
1001
0101
0010
0010
1001
0100
,
0110
0010
1001
0200
0000
0000
0010
0300
,
0100
0100
1000
0001
2000
0000
0002
3003
,
1001
0001
0110
2000
0000
0000
0001
3000
,
1000
1000
0001
1000
0020
0000
0200
0330
,
0110
0100
1001
0020
0000
0100
0100
0030
,
0010
0010
0001
1000
0002
0000
2000
3003
,
1001
1000
0110
0002
0000
1000
1000
0003
,
0001
0001
1000
0001
0200
0000
0020
0330
,
1001
0100
0100
0100
0100
0100
0100
0100
,
1001
0010
0010
0010
0010
0010
0010
0010
,
1001
0100
0100
0100
0100
0100
0100
0100
,
0001
0001
1000
1000
0001
0001
1000
0001
,
0110
0001
0011
0101
1000
1000
1100
0001
,
0101
1000
1001
1010
0100
0100
0101
0010
,
1001
0010
1100
1010
1000
1000
1010
1000
,
1001
0001
0101
0010
0101
0101
1100
0110
,
1001
0010
0101
0110
0001
0001
1001
0100
,
0110
0100
1001
0011
0100
0100
1001
0010
,
1001
0100
1010
0110
1000
1000
1001
0010
,
0110
0010
1001
1100
0010
0010
1001
0100
;

//---------------dance-single - ----------------
#NOTES:
     dance-single:
     :
     Beginner:
     1:
     0.046286,0.062776,0.000000,0.067501,0.000000,24.000000,24.000000,0.000000,5.000000,0.000000,0.000000,0.046286,0.062776,0.000000,0.067501,0.000000,24.000000,24.000000,0.000000,5.000000,0.000000,0.000000:
0000
0000
0000
0000
,
0000
0000
0000
0000
,
0000
0000
0000
0000
,
1000
0000
0000
0000
,
1000
0000
0000
0000
,
1000
0000
0000
0000
,
1000
0000
0000
0000
,
0001
0000
0000
0000
,
0001
0000
0000
0000
,
0001
0000
0000
0000
,
0001
0000
0000
0000
,
2000
0000
0000
0000
,
3000
0000
0000
0000
,
0002
0000
0000
0000
,
0003
0000
0000
0000
,
0020
0000
0000
0000
,
0030
0000
0000
0000
,
0200
0000
0000
0000
,
0300
0000
0000
0000
,
0010
0000
0000
0000
,
0010
0000
0000
0000
,
0100
0000
0000
0000
,
0100
0000
0000
0000
,
1000
0000
0000
0000
,
1000
0000
0000
0000
,
1000
0000
0000
0000
,
1000
0000
0000
0000
,
0001
0000
0000
0000
,
0001
0000
0000
0000
,
0001
0000
0000
0000
,
0002
0000
0000
0000
,
0003
0000
0000
0000
;

//---------------dance-single - ----------------
#NOTES:
     dance-single:
     :
     Easy:
     4:
     0.223718,0.228322,0.108002,0.148502,0.000000,116.000000,108.000000,8.000000,11.000000,0.000000,0.000000,0.223718,0.228322,0.108002,0.148502,0.000000,116.000000,108.000000,8.000000,11.000000,0.000000,0.000000:
0000
0000
0000
0000
,
0000
0000
0000
0000
,
0000
0000
0000
0000
,
1001
0010
0010
0010
,
0100
0100
0100
0100
,
1001
0100
0100
0100
,
1000
0010
0001
0100
,
0110
1000
1000
1000
,
0001
0001
0001
0001
,
0110
0001
0001
0001
,
1000
0010
0001
0100
,
2000
0100
0000
3100
,
0002
0100
0000
0103
,
2000
0010
0000
3010
,
0002
0010
0000
0013
,
2000
0100
0001
3010
,
0002
0100
1000
0013
,
2000
0100
0010
3001
,
0002
0100
0010
1003
,
2000
0100
0100
3100
,
0002
0100
0100
0103
,
2000
0100
0100
3100
,
0010
0010
0100
0100
,
1001
0010
0010
0010
,
0100
0100
0100
0100
,
1001
0100
0100
0100
,
0001
0010
1000
0100
,
0110
0001
0001
0001
,
1000
1000
1000
1000
,
0110
1000
1000
1000
,
0001
0010
1000
0100
;

//---------------dance-single - ----------------
#NOTES:
     dance-single:
     :
     Medium:
     6:
     0.300862,0.291773,0.108002,0.162002,0.000000,156.000000,148.000000,8.000000,12.000000,0.000000,0.000000,0.300862,0.291773,0.108002,0.162002,0.000000,156.000000,148.000000,8.000000,12.000000,0.000000,0.000000:
0000
0000
0000
0000
,
0000
0000
0000
0000
,
0000
0000
0000
0000
,
1001
0000
0100
0000
0010
0010
0100
0000
,
1000
0000
0001
0000
0010
0010
0010
0100
,
0110
0000
1000
0000
0001
0001
1000
0000
,
0010
0000
0100
0000
0001
1000
0001
0001
,
1001
0000
0010
0000
0100
0100
0010
0000
,
0001
0000
1000
0000
0100
0100
0100
0010
,
0110
0000
0001
0000
1000
1000
0001
0000
,
0100
0000
0010
0000
1000
1000
0001
1000
,
0001
0010
1000
0020
0000
0000
0100
0000
,
0030
0100
1000
0001
2000
0000
3020
0000
,
0031
0001
0010
2000
0000
0000
0100
0000
,
3000
0001
1000
0010
0200
0000
0302
0000
,
1003
0100
0001
0200
0000
0000
0010
0000
,
0300
0010
0001
1000
0002
0000
0203
0000
,
1300
1000
0100
0002
0000
0000
0010
0000
,
0003
1000
0001
0100
0020
0000
2030
0000
,
3001
0000
0001
0000
0001
1000
0001
0000
,
1000
0000
1000
0000
1000
0001
1000
0000
,
0001
0000
0001
0000
0001
1000
0001
0000
,
0010
0000
0010
0000
0010
0100
0010
0000
,
1001
0000
0100
0000
0010
0010
0100
0000
,
0001
0000
1000
0000
0010
0010
0010
0100
,
0110
0000
0001
0000
1000
1000
0001
0000
,
0010
0000
0100
0000
1000
0001
1000
1000
,
1001
0000
0010
0000
0100
0100
0010
0000
,
1000
0000
0001
0000
0100
0100
0100
0010
,
0110
0000
1000
0000
0001
0001
1000
0000
,
0100
0000
0010
0000
0001
0001
1000
0001
;
