#VERSION:0.83;
#TITLE:魔法;
#SUBTITLE:;
#ARTIST:黒魔;
#TITLETRANSLIT:Magic;
#SUBTITLETRANSLIT:;
#ARTISTTRANSLIT:Chroma;
#GENRE:J-Music;
#ORIGIN:;
#CREDIT:;
#BANNER:Magic.png;
#BACKGROUND:Magic-bg.png;
#PREVIEWVID:;
#JACKET:Magic-jacket.png;
#CDIMAGE:;
#DISCIMAGE:;
#LYRICSPATH:;
#CDTITLE:../cdtitle.png;
#MUSIC:Magic.ogg;
#OFFSET:2.874000;
#SAMPLESTART:49.062000;
#SAMPLELENGTH:15.000000;
#SELECTABLE:YES;
#BPMS:0.000=82.000,
51.000=41.000,
51.500=82.000,
143.500=20.500,
144.500=10.250,
145.000=82.000;
#STOPS:;
#DELAYS:;
#WARPS:;
#TIMESIGNATURES:0.000=4=4;
#TICKCOUNTS:0.000=4;
#COMBOS:0.000=1;
#SPEEDS:0.000=1.000=0.000=0;
#SCROLLS:0.000=1.000;
#FAKES:;
#LABELS:0.000=Song Start;
#BGCHANGES:-99.000=../bg.avi=1.000=0=0=1=====,
99999=-nosongbg-=1.000=0=0=0 // don't automatically add -songbackground-
;
#KEYSOUNDS:;
#ATTACKS:
;

//---------------dance-single - ----------------
#NOTEDATA:;
#CHARTNAME:;
#STEPSTYPE:dance-single;
#DESCRIPTION:;
#CHARTSTYLE:;
#DIFFICULTY:Beginner;
#METER:1;
#RADARVALUES:0.053304,0.081621,0.000000,0.097337,0.000000,46.000000,46.000000,0.000000,12.000000,0.000000,0.000000,0.000000,0.000000,0.000000,0.053304,0.081621,0.000000,0.097337,0.000000,46.000000,46.000000,0.000000,12.000000,0.000000,0.000000,0.000000,0.000000,0.000000;
#CREDIT:led_light;
#NOTES:
0000
0000
0000
0000
,
0000
0000
0000
0000
,
0000
0000
0000
0000
,
0000
0000
0000
0000
,
0000
0000
0000
0000
,
0010
0000
0000
0000
,
0100
0000
0000
0000
,
0100
0000
0000
0000
,
0010
0000
0000
0000
,
0001
0000
0000
0000
,
1000
0000
0000
0000
,
1000
0000
0000
0000
,
0001
0000
0000
0000
0000
0000
0000
2000
,
0000
0000
0000
3000
0000
0000
0000
0020
,
0000
0000
0000
0030
0000
0000
0000
0002
,
0000
0000
0000
0003
0000
0000
0000
0200
,
0000
0000
0000
0000
0000
0000
0000
0300
,
0000
0000
0000
0000
0000
0000
0000
1000
,
0000
0000
0000
0001
0000
0000
0000
0020
,
0000
0000
0000
0030
0000
0000
0000
0001
,
0000
0000
0000
1000
0000
0000
0000
0020
,
0000
0000
0000
0030
0000
0000
0000
0100
,
0000
0000
0000
0010
0000
0000
0000
2000
,
0000
0000
0000
3000
0000
0000
0000
0100
,
0000
0000
0000
0010
0000
0000
0000
0002
,
0000
0000
0000
0003
0000
0000
0000
1000
,
0000
0000
0000
0001
0000
0000
0000
1000
,
0000
0000
0000
0001
0000
0000
0000
0010
,
0000
0000
0000
0100
0000
0000
0000
0010
,
0000
0000
0000
0100
0000
0000
0000
1000
,
0000
0000
0000
0001
0000
0000
0000
0200
,
0000
0000
0000
0300
0000
0000
0000
0010
,
0000
0000
0000
1000
0000
0000
0000
0001
,
0000
0000
0000
0010
0000
0000
0000
0200
,
0000
0000
0000
0000
,
0000
0000
0000
0000
0000
0000
0000
0300
,
0000
0010
0000
0001
,
0000
2000
0000
3000
,
0000
0001
0000
1000
,
0000
0020
0000
0000
,
0000
0030
0000
0000
;

//---------------dance-single - ----------------
#NOTEDATA:;
#CHARTNAME:;
#STEPSTYPE:dance-single;
#DESCRIPTION:;
#CHARTSTYLE:;
#DIFFICULTY:Easy;
#METER:3;
#RADARVALUES:0.135577,0.146918,0.016223,0.308234,0.000000,117.000000,115.000000,2.000000,38.000000,0.000000,0.000000,0.000000,0.000000,0.000000,0.135577,0.146918,0.016223,0.308234,0.000000,117.000000,115.000000,2.000000,38.000000,0.000000,0.000000,0.000000,0.000000,0.000000;
#CREDIT:led_light;
#NOTES:
0000
0000
0000
0000
,
0000
0000
0000
0000
,
0000
0000
0000
0000
,
0000
0000
0000
0000
,
0000
0000
0000
0000
,
2000
0100
0000
3100
,
0002
0100
0000
0103
,
2000
0100
0000
3100
,
0002
0100
0000
0103
,
2000
0100
0001
3010
,
0200
1000
0010
0301
,
0002
0100
1000
0013
,
0200
0000
0001
0000
0010
0000
1300
0002
,
0000
0100
0000
2003
0000
0100
0000
3020
,
0000
0001
0000
0100
0000
1030
0000
0002
,
0000
0100
0000
2003
0000
0010
0000
3200
,
0000
0001
0000
0010
0000
1300
0000
0002
,
0000
0000
0000
0000
0000
0003
0000
1001
,
0000
0000
0000
0010
0000
0100
0000
0020
,
0000
0000
0000
0030
0000
0010
0000
1001
,
0000
0000
0000
0100
0000
0010
0000
0200
,
0000
0000
0000
0300
0000
0100
0000
0010
,
0000
0001
0000
1000
0000
0001
0000
2000
,
0000
0000
0000
3000
0000
0100
0000
0010
,
0000
0001
0000
1000
0000
0001
0000
2000
,
0000
0000
0000
3000
0000
0001
0000
2000
,
0000
3001
0000
1000
0000
0010
0000
0200
,
0000
1000
0000
0010
0000
0301
0000
0002
,
0000
1003
0000
0001
0000
0010
0000
0200
,
0000
0001
0000
0010
0000
1300
0000
2000
,
0000
3100
0000
0002
0000
0103
0000
2000
,
0000
0001
0000
0000
0000
3001
0000
0002
,
0000
0013
0000
2000
0000
3010
0000
0002
,
0000
0103
0000
2000
0000
3100
0000
0002
,
0000
0100
0000
0010
0000
1003
0000
2000
,
0000
0100
0000
0010
0000
3001
0000
0020
,
0000
0030
0200
0000
0000
0000
1300
0000
,
0000
0020
0000
0130
,
0000
0002
0000
0013
,
0000
0200
0000
0020
,
0000
0330
0000
0000
;

//---------------dance-single - ----------------
#NOTEDATA:;
#CHARTNAME:;
#STEPSTYPE:dance-single;
#DESCRIPTION:;
#CHARTSTYLE:;
#DIFFICULTY:Medium;
#METER:6;
#RADARVALUES:0.257248,0.326485,0.178451,0.210897,0.000000,222.000000,200.000000,22.000000,26.000000,0.000000,0.000000,0.000000,0.000000,0.000000,0.257248,0.326485,0.178451,0.210897,0.000000,222.000000,200.000000,22.000000,26.000000,0.000000,0.000000,0.000000,0.000000,0.000000;
#CREDIT:led_light;
#NOTES:
0000
0000
0000
0000
,
0000
0000
0000
0000
,
0000
0000
0000
0000
,
0000
0000
0000
0000
,
0000
0000
0000
0000
,
2000
0000
0100
0000
3001
0100
0010
0000
,
2000
0000
3001
0000
0010
0100
1000
0000
,
0002
0000
0010
0000
1003
0010
0100
0000
,
0002
0000
1003
0000
0100
0010
0001
0000
,
1000
0000
0010
0000
0001
0100
1000
0000
,
0001
0000
0010
0000
1000
0100
0001
0000
,
1000
0000
0010
0100
0001
0000
0010
0100
,
1000
0000
0001
0100
0010
1000
0001
1000
,
0100
1100
0000
0001
0100
0101
0000
1000
,
0100
1100
0010
0001
1000
1010
0100
0001
,
0100
0101
0000
1000
0100
1100
0000
0001
,
0100
0101
0010
1000
0001
0011
0100
2000
,
0000
0001
0000
0001
0000
3001
0000
1001
,
0100
0010
0000
1001
0010
0100
0010
0200
,
0000
0010
0000
0001
0000
1300
0000
1001
,
0010
0100
0000
1001
0100
0010
0100
0020
,
0000
0100
0000
1000
0000
0031
1000
0001
,
0100
0010
0000
1000
0100
0010
0000
0002
,
0000
1000
0000
1000
0000
1003
0001
1000
,
0010
0100
0000
0001
0010
0100
0000
2000
,
0000
0001
0000
0001
0000
3001
0000
2001
,
0000
3010
0100
0001
1000
0100
0010
0002
,
0000
1003
0010
0001
0010
1000
0000
0002
,
0000
0013
0000
1000
0010
0001
0100
0020
,
0000
0001
0000
0100
0000
1030
0001
2000
,
0000
3001
0010
2000
0000
3010
0001
2000
,
0000
3010
0010
0200
0000
0301
1000
0002
,
0000
1003
0100
0002
0000
0103
1000
0002
,
0000
0103
0100
0020
0000
1030
0001
1001
,
0000
1100
0000
0101
0000
0011
0000
1010
,
0000
1100
0000
0110
0000
0011
0000
2002
,
0000
3003
1000
0010
0100
0001
0020
0000
,
0130
0000
0010
0001
1000
0000
0010
0100
,
0001
0000
0001
0010
0100
1000
0020
0000
,
0130
0000
0010
1000
0001
0000
0010
0100
,
1000
0002
0003
0000
0000
0000
0000
0000
;

//---------------dance-single - ----------------
#NOTEDATA:;
#CHARTNAME:;
#STEPSTYPE:dance-single;
#DESCRIPTION:;
#CHARTSTYLE:;
#DIFFICULTY:Hard;
#METER:9;
#RADARVALUES:0.348791,0.424430,0.186563,0.365014,0.214953,301.000000,278.000000,23.000000,45.000000,0.000000,0.000000,0.000000,0.000000,0.000000,0.348791,0.424430,0.186563,0.365014,0.214953,301.000000,278.000000,23.000000,45.000000,0.000000,0.000000,0.000000,0.000000,0.000000;
#CREDIT:led_light;
#NOTES:
0000
0000
0000
0000
,
0000
0000
0000
0000
,
0000
0000
0000
0000
,
0000
0000
0000
0000
,
0000
0000
0000
0000
,
0020
0000
0000
0000
0130
0000
0100
0000
0001
0000
0010
0100
2000
0000
3100
0000
,
0020
0000
0000
0000
0031
0000
1000
0000
0010
0100
0000
0100
0020
0000
0000
0000
,
2030
0000
0000
0000
3100
0001
0100
0000
2000
0000
0000
0000
3010
0001
0010
0000
,
2000
0000
0000
0000
3001
0000
0010
0000
0100
1000
0000
0001
0000
2000
0000
0000
,
3020
0000
0000
0000
0130
0001
0100
0000
0001
0000
0010
0100
2000
0000
3100
0000
,
0020
0000
0000
0000
0031
1000
0010
0000
0100
0001
0000
0001
2000
0000
0000
0000
,
3002
0000
0000
0000
0013
1000
0010
0000
0002
0000
0000
0000
0103
1000
0100
0000
,
0002
0000
1000
0000
1003
0100
0010
0000
0001
0000
0100
0010
0100
0000
1001
0000
,
0100
0000
0110
0000
0010
0000
0011
0000
1000
0000
1010
0100
0001
0000
2000
0000
,
0001
0000
0000
3001
0000
0010
0000
0100
0000
0010
0000
0001
0000
0100
0000
0010
0000
1000
0000
0100
0000
0010
0000
0000
,
0100
0000
0110
0000
0100
0000
1100
0000
0001
0000
0101
0010
1000
0000
0001
0100
,
0001
0000
1000
0100
1000
0000
0010
0100
0010
0000
1000
0001
1000
0000
0100
0010
,
0200
0010
0000
0010
0000
0310
0000
1001
,
1000
0000
1010
0000
0100
0001
0100
0000
0001
0010
0001
0000
1000
0100
2000
0000
,
0001
0001
0000
3002
1000
1003
0100
1001
,
0001
0000
0101
0000
0010
1000
0010
0000
1000
0100
1000
0000
0001
0010
0002
0000
,
1000
0000
1000
0000
0000
0000
2003
0000
0001
0000
3001
0010
0001
0000
1000
0000
,
0010
0110
0001
1001
0000
0011
0000
2100
,
0010
0000
0010
0000
0000
0000
3002
0000
1000
0000
1003
0100
1000
0000
0001
0000
,
0100
0110
1000
1001
0000
1100
0000
0012
,
0100
0000
0100
0000
0000
0000
2003
0000
0001
0000
3001
0010
0001
0000
2001
0000
,
0000
0000
0000
3010
0000
0100
0000
0001
0000
1000
0000
0000
0100
0000
0000
0010
0000
0000
0001
0000
0000
2000
0000
0000
,
0000
0000
3001
0000
0100
0010
0100
0000
0001
0000
0102
0000
0000
0003
2100
0000
,
0000
0000
3010
0000
0100
0001
0100
0000
0001
0000
0010
0000
0100
0000
2000
0000
,
0000
0000
0100
0000
0000
0000
3002
0000
0100
0000
1000
0000
1003
0100
0020
0000
,
0000
0000
0130
0000
1000
0010
0200
0000
0000
0000
0310
0000
1000
0001
0020
0000
,
0000
0000
1000
0000
0000
0000
0100
0000
0000
0000
0031
1000
0001
0000
0200
0000
,
0000
0000
0310
0000
1000
0100
0020
0000
0000
0000
0130
0000
1000
0001
0200
0000
,
0000
0000
0310
0000
1000
0001
0020
0000
0000
0000
0130
0000
0010
0001
2000
0000
,
0010
0010
0000
3002
0010
0013
0100
2000
,
0100
0100
0000
3002
0100
0103
0010
2002
,
0000
3003
1000
0100
0010
0001
1000
0000
,
0001
0000
0000
0000
1000
0010
1000
0000
0100
0000
0000
0000
0010
0000
0001
0000
,
0100
0000
0001
0010
0100
1000
0001
0000
,
1000
0000
0000
0000
0001
0100
0001
0000
0010
0000
0000
0000
0100
0000
1000
0000
,
0010
0200
0300
0000
0000
0000
0000
0000
;

//---------------dance-single - ----------------
#NOTEDATA:;
#CHARTNAME:;
#STEPSTYPE:dance-single;
#DESCRIPTION:;
#CHARTSTYLE:;
#DIFFICULTY:Challenge;
#METER:12;
#RADARVALUES:0.491320,0.538700,0.283900,0.413682,0.470462,424.000000,389.000000,35.000000,51.000000,0.000000,0.000000,0.000000,0.000000,0.000000,0.491320,0.538700,0.283900,0.413682,0.470462,424.000000,389.000000,35.000000,51.000000,0.000000,0.000000,0.000000,0.000000,0.000000;
#CREDIT:led_light;
#NOTES:
// measure 0
0000
0000
0000
0000
,  // measure 1
0000
0000
0000
0000
,  // measure 2
0000
0000
0000
0000
,  // measure 3
0000
0000
0000
0000
,  // measure 4
0000
0000
0000
0000
,  // measure 5
2001
0000
0100
0000
3010
0100
0001
1000
0010
0000
0100
0010
2000
0000
0001
0000
,  // measure 6
3001
0000
0010
0000
0100
1000
0100
0010
0001
1000
0010
0100
0002
0000
1000
0000
,  // measure 7
1003
0000
1100
0000
0001
0100
0010
0000
1000
0000
1010
0000
0001
0010
0100
0000
,  // measure 8
1000
0000
1001
0000
0001
0000
0100
0000
0010
1000
0100
0010
0100
1000
0001
0000
,  // measure 9
1002
0000
0010
0000
0103
0010
1000
0001
0010
0000
0100
0010
0002
0000
1000
0000
,  // measure 10
1003
0000
0010
0000
0100
0001
0100
0010
1000
0001
0010
0100
2000
0000
0100
0000
,  // measure 11
3001
0000
0101
0000
1000
0100
0010
0000
0001
0000
0011
0000
1000
0010
0100
0000
,  // measure 12
0001
0000
1001
0000
1000
0100
0010
0000
0100
1000
0010
0100
0001
0000
1000
0100
,  // measure 13
1000
0000
1100
0000
0001
0000
0100
0010
0100
0000
0101
1000
0100
0000
0020
0000
,  // measure 14
0100
0000
0000
0000
0000
0000
0031
0000
0000
0000
0100
0000
0000
0000
1000
0000
0000
0000
0001
0000
0000
0000
0010
0000
0000
0000
1000
0000
0000
0000
0001
0000
0000
0000
0010
0000
0000
0000
0100
0000
0000
0000
1000
0000
0000
0010
0000
0000
,  // measure 15
1000
0000
1010
0000
0001
0000
0010
0100
0010
0000
0011
1000
0010
0000
0100
0010
,  // measure 16
0100
0010
1000
0100
1000
0100
0001
0100
1000
0010
0100
0001
0010
0100
1000
0001
,  // measure 17
2000
0001
0000
0001
0000
0002
3003
0011
,  // measure 18
0010
0000
0000
0000
0110
0000
0000
0000
1000
0000
0100
1000
0100
0000
0000
0000
0010
0000
0001
0010
0001
0000
0000
0000
0100
0000
0010
0100
0020
0000
0000
0000
,  // measure 19
0100
0000
0130
0000
0001
1000
0001
0010
0100
0000
0110
0000
1000
0000
1010
0000
,  // measure 20
0010
0000
0000
0000
0110
0000
0000
0000
0001
0000
0100
0001
0100
0000
0000
0000
0010
0000
1000
0010
1000
0000
0000
0000
0100
0000
0010
0100
0020
0000
0000
0000
,  // measure 21
0100
0000
0130
0000
1000
0001
1000
0010
0100
0000
0110
0001
1000
0001
1000
0000
,  // measure 22
0001
0000
0011
0000
0100
0000
1100
0000
0001
0000
0201
0000
0310
1000
0200
0000
,  // measure 23
0010
0000
0010
0000
0001
0000
0001
0000
0010
0000
0310
0001
1000
0001
1000
0000
,  // measure 24
0001
0000
0101
0000
0010
0000
1010
0000
0001
0000
0021
0000
0130
1000
0020
0000
,  // measure 25
0100
0000
0100
0000
0001
0000
0001
0000
0100
0000
0130
0001
1000
0000
0002
0000
,  // measure 26
0013
0000
0000
0200
0000
2300
0000
3020
0000
0032
0000
0000
0023
0000
0000
2030
0000
0000
3002
0000
0000
0023
0000
0000
,  // measure 27
0100
0000
0032
0000
1003
0010
0200
0000
0301
0000
2001
0000
3100
0000
0210
0000
,  // measure 28
0001
0000
0000
1300
0000
0000
0001
0100
0010
1000
0001
0010
1000
0010
0001
1000
0010
0001
1000
0100
0001
2000
0000
0000
,  // measure 29
3001
0000
1001
0000
1000
0001
0010
0100
1000
0000
1001
0000
0001
1000
0020
0000
,  // measure 30
0130
0000
0110
0000
0001
1000
0200
0000
0310
0000
0110
0000
0001
1000
0002
0000
,  // measure 31
0010
0000
0000
0010
0000
0000
1000
0000
0000
1000
0000
0000
0010
0000
0000
0013
0100
1000
0100
0010
0001
2000
0000
0000
,  // measure 32
3100
0000
0110
0000
0001
1000
0020
0000
0130
0000
0110
0000
0001
0010
2000
0000
,  // measure 33
3010
0000
1001
0000
1000
0010
0002
0000
0013
0000
1001
0000
0001
1000
0200
0000
,  // measure 34
0001
0000
0001
0000
0010
0000
0010
0000
1000
0000
1300
0000
0001
1000
0020
0000
,  // measure 35
0001
0000
0001
0000
0100
0000
0100
0000
1000
0000
1030
0000
0001
1000
2002
0000
,  // measure 36
0000
3003
0002
0023
0230
2300
3020
0130
,  // measure 37
0100
0000
0001
0000
0010
0000
0100
0000
1000
0001
1000
0000
0010
0000
0000
0000
0100
0010
0100
0000
0001
0000
0000
0000
1000
0001
1000
0000
0100
0000
0000
0000
,  // measure 38
0010
0100
1000
0001
2000
0000
3020
0000
0230
0000
0302
0000
0023
0000
0130
0000
,  // measure 39
0100
0000
1000
0000
0010
0000
0100
0000
0001
1000
0001
0000
0010
0000
0000
0000
0100
0010
0100
0000
1000
0000
0000
0000
0001
1000
0001
0000
0100
0000
0000
0000
,  // measure 40
0010
0100
0002
1000
0003
0000
0000
0000
0000
0000
0000
0000
0000
0000
0000
0000
;
