#VERSION:0.83;
#TITLE:MY D*CK;
#SUBTITLE:;
#ARTIST:gunnarolla ft. SidePonyNation;
#TITLETRANSLIT:;
#SUBTITLETRANSLIT:;
#ARTISTTRANSLIT:;
#GENRE:Variety;
#ORIGIN:;
#CREDIT:;
#BANNER:MY D_CK.png;
#BACKGROUND:MY D_CK-bg.png;
#PREVIEWVID:;
#JACKET:MY D_CK-jacket.png;
#CDIMAGE:;
#DISCIMAGE:;
#LYRICSPATH:;
#CDTITLE:../cdtitle.png;
#MUSIC:MY D_CK.ogg;
#OFFSET:1.975000;
#SAMPLESTART:7.951864;
#SAMPLELENGTH:15.000000;
#SELECTABLE:YES;
#BPMS:0.000=121.000;
#STOPS:;
#DELAYS:;
#WARPS:;
#TIMESIGNATURES:0.000=4=4;
#TICKCOUNTS:0.000=4;
#COMBOS:0.000=1;
#SPEEDS:0.000=1.000=0.000=0;
#SCROLLS:0.000=1.000;
#FAKES:;
#LABELS:0.000=Song Start;
#BGCHANGES:1.750=MY D_CK.avi=1.000=0=0=0=StretchNoLoop====,
99999=-nosongbg-=1.000=0=0=0 // don't automatically add -songbackground-
;
#KEYSOUNDS:;
#ATTACKS:
;

//---------------dance-single - ----------------
#NOTEDATA:;
#CHARTNAME:;
#STEPSTYPE:dance-single;
#DESCRIPTION:;
#CHARTSTYLE:9646;
#DIFFICULTY:Beginner;
#METER:1;
#RADARVALUES:0.062304,0.074167,0.000000,0.020285,0.000000,43.000000,43.000000,0.000000,2.000000,0.000000,0.000000,0.000000,0.000000,0.000000,0.062304,0.074167,0.000000,0.020285,0.000000,43.000000,43.000000,0.000000,2.000000,0.000000,0.000000,0.000000,0.000000,0.000000;
#CREDIT:led_light;
#NOTES:
0000
0000
0000
0000
,
0000
0000
0000
0000
,
0000
0000
0000
0000
,
0000
0000
0000
0000
,
0000
0000
0000
0000
,
1000
0000
0000
0000
,
0001
0000
0000
0000
,
1000
0000
0000
0000
,
0001
0000
0000
0000
,
0100
0000
0000
0000
,
0010
0000
0000
0000
,
0100
0000
0000
0000
,
0010
0000
0000
0000
,
2000
0000
0000
0000
,
3000
0000
0000
0000
,
0002
0000
0000
0000
,
0003
0000
0000
0000
,
0010
0000
0000
0000
,
0010
0000
0000
0000
,
0100
0000
0000
0000
,
0100
0000
0000
0000
,
0000
0000
0010
0000
,
0000
0000
0010
0000
,
0000
0000
0010
0000
,
0000
0000
0010
0000
,
0000
0000
0100
0000
,
0000
0000
0100
0000
,
0000
0000
0100
0000
,
0000
0000
0100
0000
,
0000
0000
0010
0000
,
0000
0000
0001
0000
,
0000
0000
0100
0000
,
0000
0000
1000
0000
,
0000
0000
0010
0000
,
0000
0000
1000
0000
,
0000
0000
0100
0000
,
0000
0000
0001
0000
,
0000
0000
1000
0000
,
0000
0000
0100
0000
,
0000
0000
0001
0000
,
0000
0000
0010
0000
,
0000
0000
1000
0000
,
0000
0000
0010
0000
,
0000
0000
0001
0000
,
0000
0000
0100
0000
,
0000
0000
0010
0000
,
0000
0000
0010
0000
,
0000
0000
0010
0000
,
0000
0000
0010
0010
;

//---------------dance-single - ----------------
#NOTEDATA:;
#CHARTNAME:;
#STEPSTYPE:dance-single;
#DESCRIPTION:;
#CHARTSTYLE:;
#DIFFICULTY:Easy;
#METER:4;
#RADARVALUES:0.207197,0.247223,0.162280,0.050713,0.000000,143.000000,127.000000,16.000000,5.000000,0.000000,0.000000,0.000000,0.000000,0.000000,0.207197,0.247223,0.162280,0.050713,0.000000,143.000000,127.000000,16.000000,5.000000,0.000000,0.000000,0.000000,0.000000,0.000000;
#CREDIT:led_light;
#NOTES:
0000
0000
0000
0000
,
0000
0000
0000
0000
,
0000
0000
0000
0000
,
0000
0000
0000
0000
,
0000
0000
0000
0000
,
1000
0000
0001
0000
,
0001
0000
1000
0000
,
0001
0000
1000
0000
,
1000
0000
0001
0000
,
1000
0001
0100
0000
,
0001
1000
0100
0000
,
1000
0010
0100
0000
,
0001
0010
0100
0000
,
0020
0000
0000
0000
,
0032
0000
0000
0000
,
2003
0000
0000
0000
,
3200
0000
0000
0000
,
0310
0000
0010
0000
,
0100
0000
0100
0000
,
1000
0001
0010
0000
,
0001
1000
0020
0000
,
0130
0100
0101
0000
,
0100
0100
1100
0000
,
0010
0010
0011
0000
,
0010
0010
1010
0000
,
0010
0100
0001
0001
,
0010
0100
1000
1000
,
0100
0010
0001
0001
,
0100
0010
1000
1000
,
0001
0010
0011
0000
,
0100
1000
1100
0000
,
1000
0010
1010
0000
,
0100
0001
0101
0000
,
0010
0100
1100
0000
,
0010
0100
0101
0000
,
0100
0010
1010
0000
,
0100
0010
0011
0000
,
0001
0010
0100
0100
,
0010
0001
1000
1000
,
0001
0100
0010
0010
,
0100
0001
1000
1000
,
0100
0010
0001
0001
,
1000
0010
0100
0100
,
0001
0100
0010
0010
,
1000
0100
0010
0010
,
0001
0000
0011
0000
,
1000
0000
1100
0000
,
0001
0000
0101
0000
,
1000
0000
1010
0100
;

//---------------dance-single - ----------------
#NOTEDATA:;
#CHARTNAME:;
#STEPSTYPE:dance-single;
#DESCRIPTION:;
#CHARTSTYLE:;
#DIFFICULTY:Hard;
#METER:11;
#RADARVALUES:0.489738,0.545286,0.192708,0.081140,0.212993,338.000000,319.000000,19.000000,8.000000,0.000000,0.000000,0.000000,0.000000,0.000000,0.489738,0.545286,0.192708,0.081140,0.212993,338.000000,319.000000,19.000000,8.000000,0.000000,0.000000,0.000000,0.000000,0.000000;
#CREDIT:led_light;
#NOTES:
// measure 0
0000
0000
0000
0000
,  // measure 1
0000
0000
0000
0000
,  // measure 2
0000
0000
0000
0000
,  // measure 3
0000
0000
0000
0000
,  // measure 4
0000
0000
0000
0000
,  // measure 5
1000
0100
0010
0100
1000
0001
1001
0000
,  // measure 6
0001
0100
0010
0100
0001
1000
1001
0000
,  // measure 7
0001
0100
1000
0100
0010
1000
1010
0000
,  // measure 8
1000
0100
0001
0100
0010
0001
0011
0000
,  // measure 9
0001
0010
0001
0010
0100
1000
0100
0000
,  // measure 10
1000
0010
1000
0010
0100
0001
0100
0000
,  // measure 11
0010
1000
0100
0001
0100
1000
0010
0000
,  // measure 12
0100
0001
0010
1000
0010
0001
1000
0001
,  // measure 13
2000
0000
0000
0000
3001
1000
0010
0100
,  // measure 14
0020
0000
0000
0130
0002
0000
0003
1000
,  // measure 15
0200
0000
0310
0100
2000
0000
3000
0002
,  // measure 16
0000
2000
0000
0000
0000
0000
3003
0001
,  // measure 17
1000
1000
0001
0001
,  // measure 18
0100
0100
0010
0010
,  // measure 19
1000
0100
1000
0100
0010
0001
0010
0001
,  // measure 20
0100
0010
0100
0010
0100
0010
0200
0000
,  // measure 21
0301
1000
0100
1000
0001
0000
1100
0000
,  // measure 22
0010
0001
1000
0001
0010
0000
1001
0000
,  // measure 23
0010
0100
0001
0100
0010
0000
0101
0000
,  // measure 24
0010
0100
1000
0100
0010
0000
1100
0000
,  // measure 25
0001
1000
0010
1000
0001
0000
1010
0010
,  // measure 26
0100
0001
1000
0001
0100
0000
1001
1000
,  // measure 27
0100
0010
0001
0010
0100
0000
0011
0001
,  // measure 28
0100
0000
0010
0000
1000
0000
0001
1000
0000
0001
1000
0000
0001
0000
1000
0000
,  // measure 29
0100
0000
0010
0000
0011
0000
0001
0000
1000
0000
0000
0010
0000
0010
0100
0000
,  // measure 30
0001
0000
0100
0000
0110
0000
1000
0000
0001
0000
0000
1000
0000
1000
0100
0000
,  // measure 31
0010
0000
0001
0000
1001
0000
0100
0000
0010
0000
0000
0001
0000
0001
1000
0000
,  // measure 32
0010
0000
0100
0000
0101
0000
0001
0000
0010
0000
0100
1000
0000
1000
0001
0000
,  // measure 33
0010
0000
0100
0000
1100
0000
1000
0000
0001
0000
0100
0010
0000
0100
0010
0000
,  // measure 34
1000
0000
0010
0000
0110
0000
0001
0000
1000
0000
0001
0010
0000
0001
0010
0000
,  // measure 35
0100
0000
1000
0000
1001
0000
0010
0000
0100
0000
1000
0001
0000
1000
0001
0000
,  // measure 36
0100
0000
0010
0000
1010
0000
1000
0100
0000
0010
0001
0000
1000
0000
0001
0000
,  // measure 37
1000
0000
0100
0000
0010
0000
0100
0000
1000
0000
0000
0001
0000
0100
0001
0000
,  // measure 38
1000
0000
0010
0000
0100
0000
0010
0000
1000
0000
0000
0001
0000
0010
0001
0000
,  // measure 39
1000
0000
0001
0000
0100
0000
0010
0000
0100
0000
0000
0001
0000
1000
0010
0000
,  // measure 40
1000
0000
0001
0000
0010
0000
0100
0000
0010
0000
0000
0001
0000
1000
0001
0000
,  // measure 41
1000
0000
0010
0000
0100
0000
0010
0000
1000
0000
0001
0010
0000
0010
0001
0000
,  // measure 42
1000
0000
0100
0000
0010
0000
0100
0000
1000
0000
0001
0100
0000
0100
0001
0000
,  // measure 43
1000
0000
0001
0000
0010
0000
0100
0000
0010
0000
0001
1000
0000
1000
0100
0000
,  // measure 44
1000
0000
0001
0000
0100
0000
0010
1000
0000
1000
0100
0000
0010
0000
0001
0000
,  // measure 45
1000
0000
0100
0000
0001
0000
0100
0000
1000
0000
0000
0001
0000
1000
0001
0000
,  // measure 46
1000
0000
0010
0000
0001
0000
0010
0000
1000
0000
0000
0001
0000
1000
0001
0000
,  // measure 47
0010
0000
1000
0000
0010
0000
0001
0000
1000
0000
0000
0001
0000
1000
0010
0000
,  // measure 48
0100
0000
1000
0000
0100
0000
0001
0000
1000
0000
0000
0001
0000
1000
0100
0000
;

//---------------dance-single - ----------------
#NOTEDATA:;
#CHARTNAME:;
#STEPSTYPE:dance-single;
#DESCRIPTION:;
#CHARTSTYLE:;
#DIFFICULTY:Medium;
#METER:7;
#RADARVALUES:0.330356,0.347000,0.334703,0.060855,0.000000,228.000000,195.000000,33.000000,6.000000,0.000000,0.000000,0.000000,0.000000,0.000000,0.330356,0.347000,0.334703,0.060855,0.000000,228.000000,195.000000,33.000000,6.000000,0.000000,0.000000,0.000000,0.000000,0.000000;
#CREDIT:led_light;
#NOTES:
0000
0000
0000
0000
,
0000
0000
0000
0000
,
0000
0000
0000
0000
,
0000
0000
0000
0000
,
0000
0000
0000
0000
,
1000
0100
0010
0000
0100
0000
1100
0000
,
0001
0100
0010
0000
0100
0000
0101
0000
,
1000
0100
0010
0000
0001
0000
0011
0000
,
0001
0100
0010
0000
1000
0000
1010
0000
,
1000
0010
1000
0000
0001
0100
0001
0000
,
1000
0100
1000
0000
0001
0010
0001
0000
,
1000
0010
0100
0000
0001
0000
0110
0000
,
1000
0100
0010
0000
0001
0000
0110
0000
,
2000
0000
3001
0000
,
0020
0000
0130
0000
,
0200
0000
0310
0000
,
0002
0000
1003
0000
,
1000
0010
1000
0010
,
0100
0001
0100
0001
,
1000
0010
1000
0000
0100
1000
0100
0000
,
0010
0001
0010
0000
0200
0000
2300
0000
,
3001
0001
0101
0100
,
1000
1000
1100
0100
,
0001
0001
0011
0010
,
1000
1000
1010
0010
,
0001
1000
0010
0000
0100
0000
1010
0000
,
1000
0001
0010
0000
0100
0000
0011
0000
,
0001
0100
0010
0000
0100
0000
0101
0000
,
1000
0100
0010
0000
0001
0100
0010
0000
,
0100
0001
1000
0000
1100
0000
0001
0000
,
0010
0100
1000
0000
1100
0000
0010
0000
,
0001
1000
0100
0000
0101
0000
1000
0000
,
0100
1000
0001
0000
0011
0000
1000
0000
,
0100
1000
0001
0000
0101
0000
1000
0000
,
0010
0100
0001
0000
0101
0000
0010
0000
,
1000
0001
0100
0000
1100
0000
0001
0000
,
0100
0001
1000
0000
1010
0000
0001
0000
,
1000
0100
1000
0000
1100
0000
0000
0000
,
0001
0010
0001
0000
0011
0000
0000
0000
,
1000
0010
1000
0000
1010
0000
0000
0000
,
0001
0100
0001
0000
0101
0000
0000
0000
,
0100
0010
0100
0000
0110
0000
0000
0000
,
0001
1000
0001
0000
1001
0000
0000
0000
,
0010
0100
0010
0000
0110
0000
0000
0000
,
1000
0001
1000
0000
1001
0000
0000
0000
,
1000
0100
1100
0010
,
0001
0100
0101
0010
,
1000
0010
1010
0100
,
0001
0000
0010
0000
0011
0000
0100
0010
;
