#TITLE:MORE;
#SUBTITLE:(feat. Madison Beer, (G)I-DLE, Lexie Liu, Jaira Burns, Seraphine);
#ARTIST:K/DA;
#TITLETRANSLIT:;
#SUBTITLETRANSLIT:;
#ARTISTTRANSLIT:;
#GENRE:K/DA;
#CREDIT:;
#BANNER:MORE.png;
#BACKGROUND:../bg.png;
#LYRICSPATH:;
#CDTITLE:../cdtitle.png;
#MUSIC:MORE.ogg;
#OFFSET:-0.001000;
#SAMPLESTART:57.465000;
#SAMPLELENGTH:15.000000;
#SELECTABLE:YES;
#DISPLAYBPM:142.000000;
#BPMS:0.000000=142.000000
,134.000000=71.000000
,134.500000=142.000000
,135.000000=284.000000
,136.000000=142.000000
,266.000000=71.000000
,266.500000=142.000000
,267.000000=284.000000
,268.000000=142.000000
;
#STOPS:
;
#BGCHANGES: -0.125=MORE.avi=1.000=0=0=0=StretchNoLoop====,
99999=-nosongbg-=1.000=0=0=0 // don't automatically add -songbackground-
;
#KEYSOUNDS:;
#ATTACKS:;

//---------------dance-single - ----------------
#NOTES:
     dance-single:
     :
     Challenge:
     14:
     0.588775,0.713853,0.323384,0.433472,0.378428,599.000000,552.000000,47.000000,63.000000,0.000000,0.000000,0.588775,0.713853,0.323384,0.433472,0.378428,599.000000,552.000000,47.000000,63.000000,0.000000,0.000000:
0000
0000
0000
0000
,
0000
0000
0000
0000
,
0000
0000
0000
0000
,
0000
0000
0000
0000
,
0000
0000
0000
0000
,
0000
0000
0000
0000
,
2100
0000
3001
0010
0002
0000
0103
0010
,
1000
0000
0100
0000
1000
0000
0002
0000
0010
0000
0003
0000
0010
0100
0010
0100
,
2000
0000
3001
0010
0001
0000
0001
0000
,
0010
0001
0010
0001
0100
0001
0100
0001
1000
0010
0100
0010
1000
0100
1000
0000
,
0001
0000
0000
0000
0001
0100
0001
0000
0101
0000
0000
0000
1000
0010
1000
0000
,
0100
0000
0000
0000
0010
0001
0010
0000
0110
0000
0000
0000
0001
0010
0100
1000
,
0001
0000
0000
0000
1000
0100
0010
0001
1000
0000
0000
0001
0100
0010
0100
0000
,
0001
0001
1000
1000
1100
0000
0110
0001
,
1000
0000
0000
0000
0001
0000
0000
0000
0010
0000
0000
0000
0100
0000
0000
0000
0010
0000
0000
0000
0001
0000
0000
0000
1000
0000
0000
0000
0000
0000
0000
0000
0000
2020
0000
0000
0000
0000
0000
0000
3030
0000
0000
0000
0100
0000
0000
0000
,
0001
0000
0000
0000
1000
0000
0000
0000
0010
0000
0000
0000
0100
0000
0000
0000
0010
0000
0000
0000
1000
0000
0000
0000
0001
0000
0000
0000
0000
0000
0000
0000
0000
0022
0000
0000
0000
0000
0000
0000
0033
0000
0000
0000
0000
0000
0000
0000
,
0100
0000
0000
0000
1000
0000
0000
0000
0001
0000
0000
0000
1000
0000
0000
0000
0100
0000
0000
0000
0001
0000
0000
0000
0100
0000
0000
0000
0000
0000
0000
0000
0000
2200
0000
0000
0000
0000
0000
0000
3300
0000
0000
0000
1000
0000
0000
0000
,
0010
0000
0000
0000
0100
0000
0000
0000
0010
0000
0000
0000
0001
0000
0000
0000
0010
0000
0000
0000
1000
0000
0000
0000
0010
0000
0000
0000
0000
0000
0000
0000
0000
2002
0000
0000
0000
0000
0000
0000
3003
0000
0000
0000
0001
0000
0000
0000
,
0010
0100
0001
0100
0010
0001
1000
0010
2000
0000
3000
1000
,
0010
0100
1000
0100
0010
1000
0001
0010
0002
0000
0003
1000
,
0010
0100
0001
0100
0010
1000
0100
0010
0200
0000
0300
1000
,
0100
0010
0001
0010
0100
1000
0010
0100
0020
0000
0030
0010
,
1000
0100
1000
0001
0100
0001
1000
0010
1000
0001
0010
0001
,
1000
0100
0001
0100
1000
0001
1000
0010
0001
0010
0010
1000
,
0001
0001
0010
0100
0100
1000
0001
0001
0100
0010
0010
1000
,
0001
0010
0100
1000
0001
1000
0100
0010
0001
0100
0010
1000
,
0002
0000
0000
0003
,
0020
0000
0030
0100
0020
0000
0032
0000
,
2000
0000
0000
0000
0003
0000
3000
0001
,
0200
0000
0300
0010
2000
0000
3000
0100
,
0020
0000
0031
0000
0101
0100
0010
0000
,
0200
0000
0301
0000
0011
0010
0100
0000
,
1000
0010
1000
0010
0001
0010
1000
0001
,
0010
0100
0010
0100
1000
0100
0010
0001
2000
0000
0000
0000
3000
0000
0000
0000
,
0120
0000
1030
0001
0011
0000
0001
0010
,
0100
0100
0100
0000
0110
0010
0001
0100
,
0020
0000
0130
0001
0102
0000
1003
0100
,
1000
1000
0010
0010
0100
0001
0010
0100
,
0120
0000
0031
1000
1001
0000
1000
0010
,
0100
0100
0100
0000
1010
1000
0100
0010
,
0002
0000
0103
0001
1000
0100
0001
0100
,
1000
1000
1000
0001
0100
0010
0010
0000
,
1010
1000
0001
0010
0011
0001
1000
0010
,
0001
0010
0010
1000
2010
0000
3100
0000
,
0010
0100
0010
0100
0110
0001
0100
0010
,
1000
0001
1000
0001
1001
0100
0010
1000
,
0001
0001
0010
0100
1100
1000
0010
0100
,
0010
1000
1000
0001
0021
0000
0130
0000
,
1000
0001
1000
0001
1001
0100
0010
0000
,
2020
3030
0022
0033
0120
0230
0020
0330
,
2002
0000
0000
0000
0000
0000
0000
3003
,
0012
0000
0200
0300
,
1003
0010
1000
0010
0100
0010
1000
0100
,
0020
0000
0200
0300
,
0031
0010
0001
0010
1000
0010
0001
0100
,
0020
0000
0200
0300
,
1030
0100
1000
0001
0010
0100
0010
0001
,
2000
0000
0200
0300
,
0020
0000
3000
0000
0130
0001
0100
0010
,
1000
0100
1000
0002
0000
1003
0100
0010
,
0001
0100
0001
2000
0000
3100
0001
0100
,
1000
0100
1000
0010
0000
0010
0001
0010
,
1000
0000
0010
0000
1000
0000
0100
0000
0000
0000
0100
0000
0010
0000
0010
0001
,
1000
0001
1000
0001
0100
0010
0100
0001
,
0010
0100
0010
0100
1000
0001
1000
0100
,
0010
0010
0001
0001
0100
0100
0010
1000
,
0100
0010
0100
0010
0001
0010
0100
1000
0002
0000
0000
0000
0003
0000
0000
0000
,
0210
0000
0301
1000
1100
0000
1000
0100
,
0010
0010
0010
0000
0110
0100
1000
0010
,
0200
0000
0310
1000
2010
0000
3001
0010
,
0001
0001
0100
0100
0010
1000
0100
0010
,
0210
0000
1300
0001
1001
0000
0001
0100
,
0010
0010
0010
0000
0101
0001
0010
0100
,
2000
0000
3010
1000
0001
0010
1000
0010
,
0001
0001
0001
1000
0010
0100
0100
0000
,
0101
0001
1000
0100
1100
1000
0001
0100
,
1000
0100
0100
0001
0102
0000
0013
0000
,
0100
0010
0100
0010
0110
1000
0010
0100
,
0001
1000
0001
1000
1001
0010
0100
0010
,
1000
1000
0001
0010
0011
0001
1000
0100
,
1000
0010
0010
1000
1200
0000
0310
0000
,
0001
0100
0001
0100
0110
1000
0100
0000
,
0010
0100
0010
0001
0100
0010
0220
0000
,
0330
0000
0000
0000
;

//---------------dance-single - ----------------
#NOTES:
     dance-single:
     :
     Hard:
     12:
     0.489499,0.599637,0.165132,0.405950,0.168573,498.000000,474.000000,24.000000,59.000000,0.000000,0.000000,0.489499,0.599637,0.165132,0.405950,0.168573,498.000000,474.000000,24.000000,59.000000,0.000000,0.000000:
0000
0000
0000
0000
,
0000
0000
0000
0000
,
0000
0000
0000
0000
,
0000
0000
0000
0000
,
0000
0000
0000
0000
,
0000
0000
0000
0000
,
2000
0000
3001
0100
0002
0000
1003
0100
,
1000
0010
0001
0010
2000
0000
3010
0100
,
2001
0000
3001
0010
0001
0000
0001
0000
,
0100
0010
0100
0010
0100
0100
0100
0010
,
1000
0000
1000
0100
0110
0000
0100
0010
,
0001
0000
0001
0100
0110
0000
1000
0010
,
1000
0000
0000
0000
1000
0000
0100
0000
1000
0000
0000
1000
0001
0000
0010
0000
,
0001
0001
0100
0100
0010
0000
0110
0000
,
1000
0100
0010
0100
0010
0001
1000
0000
0000
0101
0000
0000
,
0001
0100
0010
0100
0010
1000
0001
0000
0000
1100
0000
0000
,
1000
0100
0010
0001
0000
0000
0220
0000
0000
0330
0000
0000
,
0001
0100
0010
1000
0000
0000
0220
0000
0000
0330
0000
0000
,
0001
0100
0001
1000
0000
0010
0200
0000
0000
0300
0000
0100
,
0001
0010
0001
1000
0000
0100
0020
0000
0000
0030
0000
0010
,
0001
1000
0100
1000
0000
1000
0002
0000
0000
0003
0000
0001
,
0010
0001
0100
0010
0000
0010
2000
0000
0000
3000
0000
1000
,
0100
0010
0100
1000
0000
1000
0010
0100
0010
1000
0000
0001
,
0010
0100
0010
0001
0000
0001
0100
0010
0100
0001
0000
0001
,
0010
0000
0010
1000
0000
1000
0010
0000
0010
0001
0000
1000
,
0100
0000
1000
0010
0000
0001
0010
0000
1000
0100
0000
0010
,
0002
0000
0000
0003
,
0020
0000
0030
0100
2000
0000
3002
0000
,
2000
0000
0000
0000
0003
0000
3000
0100
,
0020
0000
0030
0001
0200
0000
0300
0010
,
2000
3100
1200
0310
,
0002
0103
0201
0310
,
0100
0001
0100
0001
1000
0100
1000
0100
,
0010
0001
0100
0010
2000
0000
3000
0000
,
2002
0000
3003
0000
0110
0000
0001
1000
,
0100
1000
0001
0000
0110
1000
0010
0100
,
0002
0000
0103
0010
0110
0000
0100
0010
,
1000
0100
1000
0100
0001
0100
1000
0001
,
2002
0000
3003
0000
0110
0000
1000
0001
,
0010
0001
1000
0000
0110
0001
0100
0010
,
2000
0000
3010
0100
0010
0010
0100
0001
,
0010
0100
0010
0100
1000
1000
0001
0000
,
0001
0100
0010
1000
1000
0010
0100
0001
,
0001
0010
1000
0020
0001
0000
0031
0000
,
0100
0010
0100
0010
1000
0100
0001
0000
,
0100
0010
0100
0010
0001
1000
0010
0000
,
1000
0100
0010
0001
0001
0010
0100
1000
,
1000
0010
0001
0020
1000
0000
1030
0000
,
0100
0010
0100
0010
0001
0100
1000
0000
,
0200
0300
0200
0300
0010
1000
0100
0000
,
0020
0000
0000
0000
,
0032
0000
0200
0300
,
1003
0100
1000
0100
0001
0100
0010
0100
,
2000
0000
0200
0300
,
3001
0100
0001
0100
1000
0100
0010
0100
,
0002
0000
0200
0300
,
1003
0100
1000
0100
0010
0100
1000
0001
,
0020
0030
2000
3000
,
0200
0000
0300
0000
0001
0100
0010
1000
,
0001
0100
0001
0200
0010
0000
0310
0000
,
1000
0100
1000
0200
0010
0000
0310
0000
,
0001
1000
0100
2000
0010
0000
3010
0000
,
1000
0001
0010
0002
0100
0000
0103
0010
,
0100
1000
0100
0010
0100
0001
0100
0010
,
1000
0100
0010
0100
0001
0100
0010
0100
,
1000
1000
0010
0010
0001
0001
0100
0100
,
1000
1000
0010
0100
0020
0000
0030
0000
,
2002
0000
3003
0000
0110
0000
1000
0001
,
0010
0001
1000
0000
0110
0001
0100
0010
,
2000
0000
3010
0100
0110
0000
0010
0100
,
0001
0010
0001
0010
1000
0010
0001
1000
,
2002
0000
3003
0000
0110
0000
0001
1000
,
0100
1000
0001
0000
0110
1000
0010
0100
,
0002
0000
0103
0010
0100
0100
0010
1000
,
0100
0010
0100
0010
0001
0001
1000
0000
,
1000
0010
0100
0001
0001
0100
0010
1000
,
1000
0100
0001
0200
1000
0000
1300
0000
,
0010
0100
0010
0100
0001
0010
1000
0000
,
0010
0100
0010
0100
1000
0001
0100
0000
,
0001
0010
0100
1000
1000
0100
0010
0001
,
0001
0100
1000
0200
0001
0000
0301
0000
,
0010
0100
0010
0100
1000
0010
0001
0000
,
0010
0100
0020
0000
1030
0100
0002
0000
,
0003
0000
0000
0000
;

//---------------dance-single - ----------------
#NOTES:
     dance-single:
     :
     Medium:
     9:
     0.368599,0.399758,0.158252,0.502277,0.000000,375.000000,352.000000,23.000000,73.000000,0.000000,0.000000,0.368599,0.399758,0.158252,0.502277,0.000000,375.000000,352.000000,23.000000,73.000000,0.000000,0.000000:
0000
0000
0000
0000
,
0000
0000
0000
0000
,
0000
0000
0000
0000
,
0000
0000
0000
0000
,
0000
0000
0000
0000
,
0000
0000
0000
0000
,
0020
0000
1030
0010
2000
0000
3010
0001
,
0010
1000
0010
0000
0200
0000
0310
0000
,
1001
0000
0001
0010
0001
0000
0001
0000
,
0100
0010
0100
0010
0200
0000
0300
0000
,
0002
0000
0003
0100
1010
0000
0010
0000
,
1000
1000
0011
0100
,
0010
0000
0100
1000
0010
0000
0100
0001
,
0010
0100
0010
0000
1100
0000
0001
0000
,
0100
0010
1000
0000
2002
0000
3003
0000
,
1000
0001
0010
0000
0220
0000
0330
0000
,
0100
0010
0001
0000
2002
0000
3003
0000
,
0001
1000
0010
0000
0220
0000
0330
0000
,
1000
0100
1000
0000
0010
0000
0010
0000
,
0001
0100
0001
0000
0010
0000
0010
0000
,
1000
0100
0001
0000
0100
0000
0100
0000
,
1000
0010
0001
0000
0010
0000
0010
0000
,
1000
0010
0001
0000
0001
0010
1000
0000
,
1000
0100
0001
0000
0001
0100
1000
0000
,
0010
0011
0010
1010
,
1000
0100
0001
0000
0100
1000
0010
0000
,
0220
0000
0000
0330
,
2000
0000
3000
0100
0020
0000
0032
0000
,
2000
0000
0000
0000
0003
0000
3000
0100
,
2000
0000
3000
0010
0200
0000
0300
0001
,
0020
0130
0110
0100
,
2000
3001
1001
0001
,
0100
0010
1000
0000
0100
0010
0001
0000
,
0100
0010
0100
0010
0200
0000
0000
0000
,
0320
0030
1001
0010
,
0100
1000
0100
0000
0010
0001
0010
0000
,
0220
0330
1001
0100
,
1000
0001
1000
0000
0010
0100
0010
0000
,
0220
0330
1001
0010
,
0100
1000
0001
0000
0010
0100
1000
0000
,
0020
0000
0030
0000
0100
0100
0001
0000
,
1000
1000
0010
0100
0002
0000
0013
0000
,
0100
0000
0100
1000
0010
0000
0010
0100
,
0001
0010
0100
0000
0020
0000
0031
0000
,
2000
3000
2000
3000
0001
0100
1000
0000
,
0002
0003
0002
0003
0010
1000
0001
0000
,
0010
0100
0010
0000
0100
0000
0100
0000
,
1000
0001
1000
0000
0020
0000
0030
0000
,
0200
0300
0200
0300
1000
0100
0001
0000
,
0020
0030
0020
0030
1000
0010
0001
0000
,
2000
0000
0000
0000
,
3020
0000
0230
0000
,
0301
0010
0100
0000
0010
0000
0100
0000
,
2000
0000
3002
0000
,
1003
0100
0010
0000
0100
0000
1000
0000
,
0020
0000
0230
0000
,
0301
1000
0010
0000
0100
0001
1000
0000
,
0002
0003
0020
0030
,
0200
0000
0300
0000
0100
1000
0001
0000
,
1000
0100
1000
0000
2000
0000
3001
0000
,
0001
0100
0001
0000
0002
0000
1003
0000
,
1000
0100
0010
0000
0001
0000
0001
0000
,
0001
0100
0010
0000
1000
0000
1000
0000
,
0001
0010
0001
0000
1000
0100
1000
0000
,
0001
0100
0001
0000
1000
0010
1000
0000
,
0100
0010
0100
0000
2000
0000
3001
0000
,
0010
0100
0010
0000
0200
0000
0000
0000
,
0320
0030
1001
0100
,
0010
0001
0010
0000
0100
1000
0100
0000
,
0220
0330
1001
0010
,
0001
1000
0001
0000
0100
0010
0100
0000
,
0220
0330
1001
0100
,
0010
0001
1000
0000
0100
0010
0001
0000
,
0200
0000
0300
0000
0010
0010
1000
0000
,
0001
0001
0100
0010
2000
0000
3100
0000
,
0010
0000
0010
0001
0100
0000
0100
0010
,
1000
0100
0010
0000
0200
0000
1300
0000
,
0002
0003
0002
0003
1000
0010
0001
0000
,
2000
3000
2000
3000
0100
0001
1000
0000
,
0100
0010
0100
0000
0010
0000
0010
0000
,
0001
1000
0001
0000
0200
0000
0300
0000
,
0020
0030
0020
0030
0001
0010
1000
0000
,
0200
0300
0200
0300
0001
0100
2000
0000
,
3000
0000
0000
0000
;

//---------------dance-single - ----------------
#NOTES:
     dance-single:
     :
     Easy:
     6:
     0.253596,0.371204,0.151371,0.509158,0.000000,258.000000,236.000000,22.000000,74.000000,0.000000,0.000000,0.253596,0.371204,0.151371,0.509158,0.000000,258.000000,236.000000,22.000000,74.000000,0.000000,0.000000:
0000
0000
0000
0000
,
0000
0000
0000
0000
,
0000
0000
0000
0000
,
0000
0000
0000
0000
,
0000
0000
0000
0000
,
0000
0000
0000
0000
,
1000
1000
0001
0001
,
0010
0010
2000
3010
,
0110
0001
1000
1000
,
0010
0001
0020
0000
,
0030
0000
0101
0000
,
0010
0001
1100
0000
,
1000
0001
0110
0000
,
0100
0010
1001
0000
,
0001
0001
0002
0003
,
1000
1000
2000
3000
,
0100
0100
0200
0300
,
0010
0010
0020
0030
,
0100
0001
2200
3300
,
0010
0001
2020
3030
,
0010
1000
0022
0033
,
0100
1000
0202
0303
,
1000
1000
0100
0100
,
0001
0001
0010
1010
,
1000
1100
0001
0101
,
0010
0110
1000
0001
,
0020
0000
0000
0030
,
0200
0000
2300
0000
,
3002
0000
0003
0000
,
0200
0000
0320
0000
,
2030
3000
1100
0000
,
0002
0003
0101
0000
,
1000
1000
0001
0001
,
0100
0010
2000
0000
,
3002
0003
1001
0000
,
0010
0010
0100
0010
,
0200
0300
2002
3003
,
0001
0100
0010
1000
,
0002
0003
0110
0000
,
1000
0100
0010
0100
,
2000
3000
0020
0030
,
0200
0300
0002
1003
,
1000
0100
0001
0100
,
1000
0100
0002
0003
,
0100
0100
2000
3010
,
0100
0100
0002
0013
,
0001
0010
1000
0010
,
0001
0010
2000
3000
,
0001
0100
0200
1300
,
0020
0130
0200
0310
,
2002
0000
0000
3003
,
0002
0000
0023
0000
,
0200
0300
0031
0100
,
0020
0000
2030
0000
,
3200
0000
0301
0100
,
2000
0000
3200
0000
,
0020
0030
1300
0010
,
0200
0300
0002
0003
,
0020
0030
1000
0010
,
0001
0010
0002
0003
,
1000
0100
2000
3000
,
0010
0100
0001
0000
,
0010
0100
1000
0000
,
0100
0100
0010
0010
,
0100
0100
0010
0010
,
0001
0100
0010
1000
,
0100
0010
0200
0000
,
0320
0030
0110
0000
,
0001
0001
1000
0001
,
2000
3000
0220
0330
,
0100
1000
0001
0010
,
0200
0300
1001
0000
,
0010
1000
0001
1000
,
0020
0030
0002
0003
,
2000
3000
0200
0310
,
0010
1000
0100
1000
,
0010
1000
0200
0300
,
1000
1000
0020
0031
,
1000
1000
0200
0301
,
0100
0001
0010
0001
,
0100
0001
0020
0030
,
0100
1000
2000
3010
,
0200
0302
0023
2030
,
3000
0000
0000
0000
;

//---------------dance-single - ----------------
#NOTES:
     dance-single:
     :
     Beginner:
     3:
     0.148422,0.228433,0.130730,0.206415,0.000000,151.000000,132.000000,19.000000,30.000000,0.000000,0.000000,0.148422,0.228433,0.130730,0.206415,0.000000,151.000000,132.000000,19.000000,30.000000,0.000000,0.000000:
0000
0000
0000
0000
,
0000
0000
0000
0000
,
0000
0000
0000
0000
,
0000
0000
0000
0000
,
0000
0000
0000
0000
,
0000
0000
0000
0000
,
1000
0000
1000
0000
,
1000
1000
1000
0000
,
0001
0000
0001
0000
,
0001
0001
0002
0000
,
0003
0000
1001
0000
,
0010
0000
0110
0000
,
0100
0000
1001
0000
,
0010
0010
0010
0000
,
1000
0000
1001
0000
,
0001
0000
1001
0000
,
0010
0000
0110
0000
,
0100
0000
0110
0000
,
0002
0000
0003
0000
,
2000
0000
3000
0000
,
0020
0000
0030
0000
,
0002
0000
0003
0000
,
1000
1000
1000
0000
,
0001
0001
0001
0000
,
0010
0000
1000
0000
,
0100
0000
1000
0000
,
0020
0000
0030
0000
,
0200
0000
0300
0000
,
0002
0000
0003
0000
,
0020
0030
0200
0300
,
2000
3000
1000
0000
,
0002
0003
0001
0000
,
1000
0000
0001
0000
,
0010
0100
0020
0000
,
0030
0000
0110
0000
,
1000
0000
0001
0000
,
2000
0000
3000
0000
,
0002
0000
0003
0000
,
2000
0000
3000
0000
,
0100
0000
0010
0000
,
0200
0000
0300
0000
,
2000
0000
3000
0000
,
0001
0000
0100
0000
,
0010
0000
0110
0000
,
1000
0000
1001
0000
,
0001
0000
0110
0000
,
1000
0000
0010
0000
,
0100
0000
0110
0000
,
0001
0000
1001
0000
,
1000
0000
1000
0000
,
0002
0000
0003
0000
,
2000
0000
0000
0000
,
3000
0000
0000
0000
,
0020
0000
0000
0000
,
0030
0000
0000
0000
,
0200
0000
0000
0000
,
0300
0000
0000
0000
,
0002
0000
0000
0000
,
0003
0000
0000
0000
,
1000
0000
1000
0000
,
0001
0000
0001
0000
,
0010
0000
1000
0000
,
0010
0000
0001
0000
,
1000
1000
1000
0000
,
0001
0001
0001
0000
,
1000
0001
1000
0000
,
0010
0100
0020
0000
,
0030
0000
0110
0000
,
0001
0000
1000
0000
,
0002
0000
0003
0000
,
2000
0000
3000
0000
,
0002
0000
0003
0000
,
0100
0000
0010
0000
,
0200
0000
0300
0000
,
0002
0000
0003
0000
,
1000
0000
0100
0000
,
0010
0000
0110
0000
,
0001
0000
1001
0000
,
1000
0000
0110
0000
,
0001
0000
0010
0000
,
0100
0000
0110
0000
,
1000
0000
1001
0000
,
0010
0000
0100
0020
,
0030
0000
0000
0000
;

//---------------dance-double - ----------------
#NOTES:
     dance-double:
     :
     Challenge:
     14:
     0.573048,0.742407,0.247698,0.433472,0.371548,583.000000,547.000000,36.000000,63.000000,0.000000,0.000000,0.573048,0.742407,0.247698,0.433472,0.371548,583.000000,547.000000,36.000000,63.000000,0.000000,0.000000:
// measure 0
00000000
00000000
00000000
00000000
,  // measure 1
00000000
00000000
00000000
00000000
,  // measure 2
00000000
00000000
00000000
00000000
,  // measure 3
00000000
00000000
00000000
00000000
,  // measure 4
00000000
00000000
00000000
00000000
,  // measure 5
00000000
00000000
00000000
00000000
,  // measure 6
12000000
00000000
03010000
00010000
00200000
00000000
00301000
00000010
,  // measure 7
00010000
00010000
00000100
00001000
00000020
00000000
00000130
00000000
,  // measure 8
00001002
00000000
00000013
00000100
00000010
00000000
00000010
00000000
,  // measure 9
00001000
00010000
00001000
00010000
00000100
00001000
00000100
00001000
00000001
00000010
00000100
00001000
00000100
00010000
00001000
00000000
,  // measure 10
00100000
00000000
00000000
00000000
00001000
00010000
00001000
00000000
00011000
00000000
00000000
00000000
01000000
00100000
10000000
00000000
,  // measure 11
10100000
00000000
00000000
00000000
00010000
00100000
01000000
00000000
01100000
00000000
00000000
00000000
00100000
00001000
00100000
00001000
,  // measure 12
00010000
00000000
00000000
00000000
00000010
00000100
00000010
00000100
00001000
00000000
00000000
00000100
00000001
00001000
00000010
00000000
,  // measure 13
00010000
00010000
00001000
00001000
00011000
00000000
01100000
00000000
,  // measure 14
10000000
00000000
00000000
00000000
01000000
00000000
00000000
00000000
00100000
00000000
00000000
00000000
01000000
00000000
00000000
00000000
00100000
00000000
00000000
00000000
00001000
00000000
00000000
00000000
00010000
00000000
00000000
00000000
00000000
00000000
00000000
00000000
00000000
00002020
00000000
00000000
00000000
00000000
00000000
00000000
00003030
00000000
00000000
00000000
00001000
00000000
00000000
00000000
,  // measure 15
00000001
00000000
00000000
00000000
00000010
00000000
00000000
00000000
00000100
00000000
00000000
00000000
00000010
00000000
00000000
00000000
00000100
00000000
00000000
00000000
00010000
00000000
00000000
00000000
00001000
00000000
00000000
00000000
00000000
00000000
00000000
00000000
00000000
00220000
00000000
00000000
00000000
00000000
00000000
00000000
00330000
00000000
00000000
00000000
00000000
00000000
00000000
00000000
,  // measure 16
01000000
00000000
00000000
00000000
10000000
00000000
00000000
00000000
00010000
00000000
00000000
00000000
10000000
00000000
00000000
00000000
00100000
00000000
00000000
00000000
00010000
00000000
00000000
00000000
00001000
00000000
00000000
00000000
00000000
00000000
00000000
00000000
00000000
00002200
00000000
00000000
00000000
00000000
00000000
00000000
00003300
00000000
00000000
00000000
00000001
00000000
00000000
00000000
,  // measure 17
00000010
00000000
00000000
00000000
00000001
00000000
00000000
00000000
00001000
00000000
00000000
00000000
00000001
00000000
00000000
00000000
00000100
00000000
00000000
00000000
00001000
00000000
00000000
00000000
00010000
00000000
00000000
00000000
00000000
00000000
00000000
00000000
00000000
00220000
00000000
00000000
00000000
00000000
00000000
00000000
00330000
00000000
00000000
00000000
10000000
00000000
00000000
00000000
,  // measure 18
00100000
01000000
00010000
00100000
01000000
10000000
01000000
00010000
00002000
00000000
00003000
00001000
,  // measure 19
00000010
00000100
00001000
00000100
00000010
00001000
00010000
00100000
00020000
00000000
00030000
00001000
,  // measure 20
00000100
00000010
00001000
00000100
00000010
00000001
00000010
00001000
00020000
00000000
00030000
00010000
,  // measure 21
01000000
00100000
00010000
00100000
01000000
00010000
00001000
00000100
00002000
00000000
00003000
00001000
,  // measure 22
01000000
00010000
01000000
00001000
00010000
00001000
00100000
00010000
00100000
01000000
10000000
01000000
,  // measure 23
00010000
00001000
00010000
00000010
00001000
00000010
00000100
00000001
00000010
00000100
00000100
00001000
,  // measure 24
00000010
00000010
00000100
00001000
00001000
00010000
00100000
00100000
10000000
01000000
01000000
00010000
,  // measure 25
00001000
00010000
00001000
00000100
00000001
00000010
00001000
00010000
00001000
00010000
00100000
10000000
,  // measure 26
02000000
00000000
00000000
03000000
,  // measure 27
00200000
00000000
00300000
01000000
00020000
00000000
00032000
00000000
,  // measure 28
00020000
00000000
00000000
00000000
00003000
00000000
00030000
00000100
,  // measure 29
00000020
00000000
00000030
00000001
00000200
00000000
00000300
00000010
,  // measure 30
00020000
00031000
00012000
00103000
,  // measure 31
02000000
13000000
21000000
30100000
,  // measure 32
00010000
00001000
00010000
00001000
01000000
00100000
01000000
00100000
,  // measure 33
10000000
01000000
10000000
01000000
00100000
00010000
01000000
00100000
20000000
00000000
00000000
00000000
30000000
00000000
00000000
00000000
,  // measure 34
10020000
00000000
00130000
01000000
01100000
00000000
10000000
00100000
,  // measure 35
00010000
00010000
00010000
00000000
00011000
00010000
00001000
00000100
,  // measure 36
00000002
00000000
00001003
00000010
00000210
00000000
00000301
00000010
,  // measure 37
00000100
00000100
00001000
00001000
00010000
00010000
01000000
00100000
,  // measure 38
20100000
00000000
31000000
00100000
00110000
00000000
01000000
10000000
,  // measure 39
00010000
00010000
00010000
00000000
01100000
00010000
00001000
00000100
,  // measure 40
00000002
00000000
00000103
00000001
00001000
00001000
00000010
00000100
,  // measure 41
00000001
00000001
00000010
00000010
00002000
00003020
00000031
00000000
,  // measure 42
00001000
00001000
00000100
00000010
00000001
00000001
00000100
00000010
,  // measure 43
00010000
00010000
00001000
00200000
01000000
00000000
00310000
00000000
,  // measure 44
00010000
01000000
00010000
01000000
01100000
00100000
00010000
00001000
,  // measure 45
00000010
00000001
00000010
00000001
00000101
00000100
00000010
00001000
,  // measure 46
00000001
00000001
00000010
00000100
00001000
00001000
00000100
00000010
,  // measure 47
00000001
00000010
00001000
00020000
00100000
00000000
00030010
00000000
,  // measure 48
00001000
00000100
00001000
00000100
00000110
00000010
00001000
00000000
,  // measure 49
00010000
00100000
20000000
00000000
31000000
00100000
01000000
00000000
,  // measure 50
20020000
00000000
00000000
00000000
00000000
00000000
00000000
30030000
,  // measure 51
00102000
00000000
00023000
00000000
,  // measure 52
01030000
10000000
01000000
10000000
00100000
01000000
00001000
00010000
,  // measure 53
00002000
00000000
00203000
00000000
,  // measure 54
01300000
00010000
01000000
00010000
00001000
00000100
00000010
00001000
,  // measure 55
00000002
00000000
00000203
00000000
,  // measure 56
00000301
00000010
00000001
00000010
00001000
00010000
00100000
00010000
,  // measure 57
00002000
00000000
02000000
03000000
,  // measure 58
00020000
00000000
00030000
00000000
00103000
01000000
10000000
00010000
,  // measure 59
10000000
00100000
01000000
00020000
00000000
01030000
00100000
00010000
,  // measure 60
00001000
00000010
00000001
00000020
00000000
00000130
00001000
00000001
,  // measure 61
00000100
00000010
00001000
00000001
00000000
00000001
00000100
00000010
,  // measure 62
00001000
00000000
00000100
00000000
00010000
00000000
00001000
00000000
00000000
00000000
00001000
00000000
00100000
00000000
00010000
01000000
,  // measure 63
00010000
10000000
00010000
10000000
01000000
00100000
01000000
00100000
,  // measure 64
00001000
00010000
00001000
00010000
00000010
00000100
00000010
00000100
,  // measure 65
00000001
00000001
00001000
00001000
00010000
00010000
00001000
00001000
,  // measure 66
00000010
00000100
00000010
00000100
00000001
00001000
00000100
00000010
00000002
00000000
00000000
00000000
00000003
00000000
00000000
00000000
,  // measure 67
00002001
00000000
00003010
00000100
00000110
00000000
00000001
00000010
,  // measure 68
00001000
00001000
00001000
00000000
00011000
00001000
00010000
01000000
,  // measure 69
20000000
00000000
30010000
00100000
02100000
00000000
13000000
00100000
,  // measure 70
01000000
01000000
00010000
00010000
00001000
00001000
00000100
00000010
,  // measure 71
00000012
00000000
00000103
00000010
00001010
00000000
00000100
00000001
,  // measure 72
00001000
00001000
00001000
00000000
00000110
00001000
00010000
01000000
,  // measure 73
20000000
00000000
31000000
10000000
00010000
00010000
00100000
01000000
,  // measure 74
10000000
10000000
00100000
00100000
00020000
00230000
10300000
00000000
,  // measure 75
00010000
00010000
01000000
00100000
10000000
10000000
01000000
00100000
,  // measure 76
00001000
00001000
00010000
00000020
00000100
00000000
00001030
00000000
,  // measure 77
00001000
00000100
00001000
00000100
00000110
00000010
00001000
00010000
,  // measure 78
00100000
10000000
00100000
10000000
11000000
01000000
00100000
00010000
,  // measure 79
10000000
10000000
00100000
01000000
00010000
00010000
01000000
00100000
,  // measure 80
10000000
00100000
00010000
00002000
00000010
00000000
00103000
00000000
,  // measure 81
00010000
01000000
00010000
01000000
01100000
00100000
00010000
00000000
,  // measure 82
00001000
00000010
00000001
00000001
00000100
00000010
00000220
00000000
,  // measure 83
00000330
00000000
00000000
00000000
;

//---------------dance-double - ----------------
#NOTES:
     dance-double:
     :
     Hard:
     12:
     0.489499,0.599637,0.130730,0.364667,0.182334,498.000000,479.000000,19.000000,53.000000,0.000000,0.000000,0.489499,0.599637,0.130730,0.364667,0.182334,498.000000,479.000000,19.000000,53.000000,0.000000,0.000000:
// measure 0
00000000
00000000
00000000
00000000
,  // measure 1
00000000
00000000
00000000
00000000
,  // measure 2
00000000
00000000
00000000
00000000
,  // measure 3
00000000
00000000
00000000
00000000
,  // measure 4
00000000
00000000
00000000
00000000
,  // measure 5
00000000
00000000
00000000
00000000
,  // measure 6
00020000
00000000
01030000
00100000
02000000
00000000
13000000
00100000
,  // measure 7
01000000
01000000
00001000
00100000
00020000
00000000
00031000
00000000
,  // measure 8
00001200
00000000
00010300
00001000
00010000
00000000
00010000
00000000
,  // measure 9
00000010
00000100
00000010
00000100
00000010
00000010
00000010
00001000
,  // measure 10
00000001
00000000
00000010
00000100
00000110
00000000
00000001
00000010
,  // measure 11
00001000
00000000
00010000
00001000
00011000
00000000
00010000
00100000
,  // measure 12
10000000
00000000
00000000
00000000
10000000
00000000
01000000
00000000
00010000
00000000
00000000
00010000
01000000
00000000
10000000
00000000
,  // measure 13
00100000
00100000
01000000
01000000
01100000
00000000
10010000
00000000
,  // measure 14
10000000
01000000
00010000
01000000
00010000
00001000
00010000
00000000
00000000
00001010
00000000
00000000
,  // measure 15
00000001
00000100
00001000
00000100
00001000
00010000
00001000
00000000
00000000
00110000
00000000
00000000
,  // measure 16
01000000
10000000
00010000
10000000
00100000
01000000
00010000
00000000
00000000
00011000
00000000
00000000
,  // measure 17
00000100
00000001
00001000
00000001
00000010
00000100
00001000
00000000
00000000
00011000
00000000
00000000
,  // measure 18
00100000
00010000
00100000
01000000
00000000
10000000
00020000
00000000
00000000
00030000
00000000
01000000
,  // measure 19
00100000
01000000
00001000
00010000
00000000
00000100
00000020
00000000
00000000
00000030
00000000
00000001
,  // measure 20
00000100
00000010
00001000
00000010
00000000
00000100
00000002
00000000
00000000
00000003
00000000
00000010
,  // measure 21
00000100
00001000
00000100
00000010
00000000
00001000
00020000
00000000
00000000
00030000
00000000
01000000
,  // measure 22
10000000
01000000
00100000
00010000
00000000
01000000
00100000
10000000
00100000
01000000
00000000
00010000
,  // measure 23
00100000
01000000
00100000
00001000
00000000
00010000
00000010
00000100
00000001
00000010
00000000
00000010
,  // measure 24
00001000
00000000
00001000
00010000
00000000
00010000
00100000
00000000
00100000
10000000
00000000
10000000
,  // measure 25
01000000
00000000
00010000
00001000
00000000
00000100
00000001
00000000
00000010
00001000
00000000
00010000
,  // measure 26
00200000
00000000
00000000
00300000
,  // measure 27
00020000
00000000
00030000
00001000
00200000
00000000
02300000
00000000
,  // measure 28
20000000
00000000
00000000
00000000
03000000
00000000
30000000
01000000
,  // measure 29
00200000
00000000
00300000
00001000
00020000
00000000
00030000
00000010
,  // measure 30
00000200
00000301
00000002
00000013
,  // measure 31
00002000
00013000
00020000
00130000
,  // measure 32
01000000
00010000
01000000
00010000
10000000
00100000
10000000
00100000
,  // measure 33
00010000
00001000
00000010
00000001
00000020
00000000
00000000
00000000
,  // measure 34
00000230
00000000
00000300
00000000
00001001
00000000
00000001
00000100
,  // measure 35
00000010
00000010
00000010
00000000
00000110
00000100
00000001
00001000
,  // measure 36
00000020
00000000
00000130
00001000
00020000
00000000
01030000
00010000
,  // measure 37
00001000
00010000
00001000
00000010
00001000
00010000
00100000
01000000
,  // measure 38
00200000
00000000
00300000
00000000
10010000
00000000
10000000
01000000
,  // measure 39
00100000
00100000
00100000
00000000
01100000
01000000
10000000
00010000
,  // measure 40
00200000
00000000
01300000
00010000
00001000
00000100
00001000
00000100
,  // measure 41
00000010
00001000
00000010
00001000
00000100
00000010
00000001
00000000
,  // measure 42
00000001
00000100
00000001
00000100
00000010
00001000
00000010
00001000
,  // measure 43
00010000
00001000
00000010
00010000
00002000
00000000
00103000
00000000
,  // measure 44
01000000
00010000
01000000
00010000
00001000
00000100
00000001
00000000
,  // measure 45
00000010
00001000
00000010
00001000
00010000
00100000
10000000
00000000
,  // measure 46
10000000
01000000
10000000
01000000
00100000
00010000
00100000
00010000
,  // measure 47
00001000
00010000
00100000
00001000
00020000
00000000
00030010
00000000
,  // measure 48
00000100
00001000
00000100
00001000
00010000
01000000
10000000
00000000
,  // measure 49
00100000
00010000
00200000
00000000
00310000
00001000
00000010
00000000
,  // measure 50
00000022
00000000
00000000
00000000
00000000
00000000
00000000
00000033
,  // measure 51
00000201
00000000
00000320
00000000
,  // measure 52
00000130
00001000
00000100
00001000
00000100
00000001
00000010
00001000
,  // measure 53
00020000
00000000
02030000
00000000
,  // measure 54
03100000
00010000
00100000
00010000
10000000
00100000
00010000
00001000
,  // measure 55
00000020
00000000
00000230
00000000
,  // measure 56
00001300
00000001
00001000
00000001
00000100
00000010
00001000
00000001
,  // measure 57
00000020
00000000
00000200
00000300
,  // measure 58
00000032
00000000
00000000
00000000
00000103
00001000
00010000
00001000
,  // measure 59
00010000
01000000
10000000
02000000
00100000
00000000
03100000
00000000
,  // measure 60
00010000
01000000
10000000
02000000
00100000
00000000
03100000
00000000
,  // measure 61
00010000
00001000
00000100
00002000
00010000
00000000
00013000
00000000
,  // measure 62
00001000
00000010
00000001
00000020
00000100
00000000
00000130
00000000
,  // measure 63
00001000
00000001
00001000
00000001
00000100
00000010
00010000
00001000
,  // measure 64
00100000
00010000
00100000
00010000
10000000
01000000
10000000
00010000
,  // measure 65
00100000
01000000
00100000
00010000
10000000
00100000
01000000
00100000
,  // measure 66
00010000
00001000
00010000
00001000
00000020
00000000
00000000
00000000
,  // measure 67
00000230
00000000
00000300
00000000
00001001
00000000
00000001
00000100
,  // measure 68
00000010
00000010
00000010
00000000
00000110
00000100
00000001
00001000
,  // measure 69
00000020
00000000
00000130
00001000
00020000
00000000
01030000
00010000
,  // measure 70
00001000
00010000
00001000
00000010
00001000
00010000
00100000
01000000
,  // measure 71
00200000
00000000
00300000
00000000
10010000
00000000
10000000
01000000
,  // measure 72
00100000
00100000
00100000
00000000
01100000
01000000
10000000
00010000
,  // measure 73
00200000
00000000
01300000
00010000
00001000
00000100
00001000
00000100
,  // measure 74
00000010
00001000
00000010
00001000
00000100
00000010
00000001
00000000
,  // measure 75
00000001
00000100
00000001
00000100
00000010
00001000
00000010
00001000
,  // measure 76
00010000
00001000
00000010
00010000
00002000
00000000
00103000
00000000
,  // measure 77
01000000
00010000
01000000
00010000
00001000
00000100
00000001
00000000
,  // measure 78
00000010
00001000
00000010
00001000
00010000
00100000
10000000
00000000
,  // measure 79
10000000
01000000
10000000
01000000
00100000
00010000
00100000
00010000
,  // measure 80
00001000
00010000
00100000
00001000
00020000
00000000
00030010
00000000
,  // measure 81
00000100
00001000
00000100
00001000
00010000
01000000
10000000
00000000
,  // measure 82
00100000
00010000
00200000
00000000
00310000
00001000
00000020
00000000
,  // measure 83
00000030
00000000
00000000
00000000
;

//---------------dance-double - ----------------
#NOTES:
     dance-double:
     :
     Medium:
     9:
     0.357787,0.371204,0.151371,0.385309,0.000000,364.000000,342.000000,22.000000,56.000000,0.000000,0.000000,0.357787,0.371204,0.151371,0.385309,0.000000,364.000000,342.000000,22.000000,56.000000,0.000000,0.000000:
// measure 0
00000000
00000000
00000000
00000000
,  // measure 1
00000000
00000000
00000000
00000000
,  // measure 2
00000000
00000000
00000000
00000000
,  // measure 3
00000000
00000000
00000000
00000000
,  // measure 4
00000000
00000000
00000000
00000000
,  // measure 5
00000000
00000000
00000000
00000000
,  // measure 6
00020000
00000000
00031000
00000010
00002000
00000000
00013000
00100000
,  // measure 7
01000000
00100000
00010000
00000000
00020000
00000000
00031000
00000000
,  // measure 8
00012000
00000000
00103000
01000000
00100000
00000000
00100000
00000000
,  // measure 9
00010000
10000000
00010000
10000000
00020000
00000000
00030000
00000000
,  // measure 10
10000000
00000000
00000000
10000000
11000000
00000000
01000000
00000000
,  // measure 11
00010000
00010000
00101000
00001000
,  // measure 12
00010000
00000000
00000010
00001000
00000010
00000000
00001000
00000100
,  // measure 13
00001000
00001000
00001001
00000000
,  // measure 14
00000010
00000100
00000010
00000000
00000020
00000000
00000030
00000000
,  // measure 15
00000001
00001000
00000001
00000000
00000002
00000000
00000003
00000000
,  // measure 16
00000010
00001000
00010000
00000000
00002000
00000000
00003000
00000000
,  // measure 17
00010000
01000000
10000000
00000000
00200000
00000000
00300000
00000000
,  // measure 18
00010000
00100000
10000000
00000000
00010000
00000000
00010000
00000000
,  // measure 19
00100000
01000000
00010000
00000000
00001000
00000000
00001000
00000000
,  // measure 20
00010000
00001000
00000100
00000000
00000010
00000000
00000010
00000000
,  // measure 21
00001000
00000100
00000010
00000000
00000001
00000000
00000001
00000000
,  // measure 22
00000100
00001000
00010000
00000000
00001000
00010000
01000000
00000000
,  // measure 23
00010000
01000000
10000000
00000000
01000000
00010000
00001000
00000000
,  // measure 24
00000100
00000110
00000001
00001001
,  // measure 25
00000001
00000010
00001000
00000000
00010000
00000000
00100000
00000000
,  // measure 26
02200000
00000000
00000000
03300000
,  // measure 27
20000000
00000000
30000000
01000000
00200000
00000000
00302000
00000000
,  // measure 28
00020000
00000000
00000000
00000000
00003000
00000000
00030000
00100000
,  // measure 29
20000000
00000000
30000000
00100000
00020000
00000000
00030000
00001000
,  // measure 30
00020000
00031000
00002000
00003010
,  // measure 31
00002000
00013000
00020000
00030010
,  // measure 32
00000100
00000100
00000010
00000010
,  // measure 33
00001000
00000001
00001000
00000001
00000020
00000000
00000000
00000000
,  // measure 34
00000230
00000300
00001001
00000010
,  // measure 35
00000100
00000001
00000100
00000000
00001000
00000000
00010000
00000000
,  // measure 36
00022000
00033000
00011000
00010000
,  // measure 37
00001000
00010000
00100000
00000000
10000000
01000000
00100000
00000000
,  // measure 38
02200000
03300000
10010000
00100000
,  // measure 39
01000000
10000000
01000000
00000000
00010000
00001000
00010000
00000000
,  // measure 40
00022000
00033000
00001010
00000100
,  // measure 41
00001000
00001000
00001000
00000000
00000200
00000000
00000310
00000000
,  // measure 42
00001000
00000000
00010000
00001000
00010000
00000000
00001000
00000010
,  // measure 43
00001000
00000100
00001000
00000000
00020000
00000000
00031000
00000000
,  // measure 44
01000000
00000000
01000000
00000000
00010000
00001000
00000100
00000000
,  // measure 45
00000010
00000000
00000010
00000000
00001000
00010000
00100000
00000000
,  // measure 46
00010000
00001000
00010000
00000000
00010000
00000000
01000000
00000000
,  // measure 47
00010000
00100000
00010000
00000000
00002000
00000000
00013000
00000000
,  // measure 48
00000010
00000000
00000010
00000000
00001000
00010000
00100000
00000000
,  // measure 49
01000000
00000000
01000000
00000000
00010000
00001000
00000100
00000000
,  // measure 50
00000002
00000000
00000000
00000003
,  // measure 51
00002100
00000000
00003002
00000000
,  // measure 52
00000013
00001000
00000010
00000000
00001000
00000000
00010000
00000000
,  // measure 53
00200000
00000000
20300000
00000000
,  // measure 54
31000000
00010000
01000000
00000000
00010000
00000000
00001000
00000000
,  // measure 55
00000200
00000000
00000302
00000000
,  // measure 56
00000013
00000100
00000010
00000000
00001000
00000000
00010000
00000000
,  // measure 57
00002000
00000000
00003200
00000000
,  // measure 58
00000320
00000000
00000100
00000100
,  // measure 59
00001030
00000100
00000010
00000000
00000001
00000000
00000001
00000000
,  // measure 60
00000100
00000010
00010000
00000000
00001000
00000000
00001000
00000000
,  // measure 61
00010000
01000000
00100000
00000000
00001000
00000000
00001000
00000000
,  // measure 62
00010000
00100000
10000000
00000000
00010000
00000000
00010000
00000000
,  // measure 63
00100000
01000000
00100000
00000000
00001000
00010000
00001000
00000000
,  // measure 64
00000100
00000001
00000100
00000000
00000010
00001000
00000010
00000000
,  // measure 65
00000100
00000001
00000010
00000000
00002000
00000000
00013000
00000000
,  // measure 66
00100000
10000000
00100000
00000000
02000000
00000000
00000000
00000000
,  // measure 67
03200000
00300000
10010000
01000000
,  // measure 68
00100000
10000000
00100000
00000000
00010000
00000000
00001000
00000000
,  // measure 69
00022000
00033000
00011000
00001000
,  // measure 70
00010000
00001000
00000100
00000000
00000001
00000010
00000100
00000000
,  // measure 71
00000220
00000330
00001001
00000100
,  // measure 72
00000010
00000001
00000010
00000000
00001000
00010000
00001000
00000000
,  // measure 73
00022000
00033000
01010000
00100000
,  // measure 74
00010000
00010000
00010000
00000000
00200000
00000000
01300000
00000000
,  // measure 75
00010000
00000000
00001000
00010000
00001000
00000000
00010000
01000000
,  // measure 76
00010000
00100000
00010000
00000000
00002000
00000000
00013000
00000000
,  // measure 77
00000010
00000000
00000010
00000000
00001000
00010000
00100000
00000000
,  // measure 78
01000000
00000000
01000000
00000000
00010000
00001000
00000100
00000000
,  // measure 79
00001000
00010000
00001000
00000000
00001000
00000000
00000010
00000000
,  // measure 80
00001000
00000100
00001000
00000000
00020000
00000000
00031000
00000000
,  // measure 81
01000000
00000000
01000000
00000000
00010000
00001000
00000100
00000000
,  // measure 82
00000010
00000100
00000020
00000000
00001030
00010000
00200000
00000000
,  // measure 83
00300000
00000000
00000000
00000000
;

//---------------dance-double - ----------------
#NOTES:
     dance-double:
     :
     Easy:
     6:
     0.253596,0.371204,0.123849,0.426592,0.000000,258.000000,240.000000,18.000000,62.000000,0.000000,0.000000,0.253596,0.371204,0.123849,0.426592,0.000000,258.000000,240.000000,18.000000,62.000000,0.000000,0.000000:
00000000
00000000
00000000
00000000
,
00000000
00000000
00000000
00000000
,
00000000
00000000
00000000
00000000
,
00000000
00000000
00000000
00000000
,
00000000
00000000
00000000
00000000
,
00000000
00000000
00000000
00000000
,
10000000
10000000
00010000
00010000
,
10000000
00010000
00200000
01300000
,
10010000
00100000
00010000
00010000
,
00001000
00010000
00002000
00000000
,
00003000
00000000
00000110
00000000
,
00000010
00000001
00001100
00000000
,
00001001
00000000
00001010
00000000
,
00010000
00001000
00011000
00000000
,
00100000
00100000
00200000
00300000
,
00001000
00001000
00002000
00003000
,
00010000
00010000
00020000
00030000
,
00000010
00000010
00000020
00000030
,
00000100
00001000
00020000
00030000
,
01000000
10000000
00020000
00030000
,
00100000
00001000
00020000
00030000
,
00000010
00000100
00000002
00000003
,
00000010
00000010
00001000
00001000
,
00010000
00010000
00100000
10100000
,
01000000
01010000
00001000
00011000
,
00100000
00110000
00001000
00010000
,
00000020
00000000
00000000
00000030
,
00000200
00000000
00000302
00000000
,
00002003
00000000
00003000
00000000
,
00000200
00000000
00000320
00000000
,
00000230
00000300
00011000
00000000
,
01000000
01000000
10010000
00000000
,
01000000
00100000
01000000
00100000
,
00010000
00001000
00020000
00030000
,
00002000
00003000
00011000
00000000
,
00100000
00100000
01000000
10000000
,
00020000
00030000
00202000
00303000
,
00000010
00000010
00000100
00000010
,
00020000
00030000
00011000
00000000
,
00000100
00000100
00000010
00000001
,
00002000
00003000
01000000
01000000
,
00010000
10000000
00200000
00310000
,
10000000
00100000
00010000
00100000
,
10000000
00100000
00002000
00003000
,
00000010
00000010
00020000
00031000
,
00000010
00000010
00000200
00001300
,
00000001
00000010
00001000
00000010
,
00000001
00000010
00020000
00030000
,
00100000
00100000
00002000
00013000
,
00100000
00200000
02300000
03020000
,
20030000
00000000
00000000
00000000
,
30020000
00000000
01000000
00000000
,
20030000
00000000
31000000
10000000
,
00200000
00000000
01000000
00000000
,
20300000
00000000
30010000
00100000
,
00002000
00000000
00000100
00000000
,
00023000
00000000
00030010
00000100
,
00000002
00000000
00000010
00000000
,
00000100
00000000
00001003
00000001
,
00001000
00000100
00002000
00003000
,
00000010
00010000
00000020
00000030
,
00000100
00001000
00020000
00030000
,
01000000
00100000
00020000
00030000
,
10000000
00100000
00010000
00100000
,
10000000
01000000
00010000
01000000
,
10000000
10000000
00100000
00100000
,
00010000
00001000
00020000
00030000
,
00002000
00003000
00011000
00000000
,
00100000
00100000
01000000
10000000
,
00020000
00030000
00202000
00303000
,
00000010
00000010
00000100
00000010
,
00020000
00030000
00011000
00000000
,
00000100
00000100
00000010
00000001
,
00002000
00003000
01000000
01000000
,
00010000
10000000
00200000
00310000
,
10000000
00100000
00010000
00100000
,
10000000
00100000
00002000
00003000
,
00000010
00000010
00020000
00031000
,
00000010
00000010
00000200
00001300
,
00000001
00000010
00001000
00000010
,
00000001
00000010
00020000
00030000
,
00100000
00100000
00002000
00013000
,
02000000
23000000
30200000
00320000
,
00030000
00000000
00000000
00000000
;
