#VERSION:0.83;
#TITLE:몸매;
#SUBTITLE:Feat.Ugly Duck;
#ARTIST:박재범;
#TITLETRANSLIT:MOMMAE;
#SUBTITLETRANSLIT:;
#ARTISTTRANSLIT:Jay Park;
#GENRE:K-Pop;
#ORIGIN:;
#CREDIT:;
#BANNER:MOMMAE Feat.Ugly Duck.png;
#BACKGROUND:MOMMAE Feat.Ugly Duck-bg.png;
#PREVIEWVID:;
#JACKET:MOMMAE Feat.Ugly Duck-jacket.png;
#CDIMAGE:;
#DISCIMAGE:;
#LYRICSPATH:;
#CDTITLE:../cdtitle.png;
#MUSIC:MOMMAE Feat.Ugly Duck.ogg;
#OFFSET:2.462000;
#SAMPLESTART:81.777000;
#SAMPLELENGTH:15.000000;
#SELECTABLE:YES;
#BPMS:0.000=94.000,
61.000=47.000,
63.000=94.000,
91.000=47.000,
93.000=94.000,
179.000=47.000,
181.000=94.000;
#STOPS:16.000=1.915,
153.000=1.915,
166.000=1.915;
#DELAYS:;
#WARPS:;
#TIMESIGNATURES:0.000=4=4;
#TICKCOUNTS:0.000=4;
#COMBOS:0.000=1;
#SPEEDS:0.000=1.000=0.000=0;
#SCROLLS:0.000=1.000;
#FAKES:;
#LABELS:0.000=Song Start;
#BGCHANGES:3.750=MOMMAE Feat.Ugly Duck.avi=1.000=0=0=0=StretchNoLoop====,
99999=-nosongbg-=1.000=0=0=0 // don't automatically add -songbackground-
;
#KEYSOUNDS:;
#ATTACKS:
;

//---------------dance-single - ----------------
#NOTEDATA:;
#CHARTNAME:;
#STEPSTYPE:dance-single;
#DESCRIPTION:;
#CHARTSTYLE:;
#DIFFICULTY:Beginner;
#METER:1;
#RADARVALUES:0.056440,0.086864,0.000000,0.028220,0.000000,56.000000,56.000000,0.000000,4.000000,0.000000,0.000000,0.000000,0.000000,0.000000,0.056440,0.086864,0.000000,0.028220,0.000000,56.000000,56.000000,0.000000,4.000000,0.000000,0.000000,0.000000,0.000000,0.000000;
#CREDIT:led_light;
#NOTES:
0000
0000
0000
0000
,
0000
0000
0000
0000
,
0000
0000
0000
0000
,
0000
0000
0000
0000
,
0000
0010
0000
0000
,
0000
0010
0000
0000
,
0000
0100
0000
0000
,
0000
0020
0000
0030
,
0000
0001
0000
0001
,
0000
0001
0000
0000
,
0000
1000
0000
1000
,
0000
1000
0000
0000
,
0000
0100
0000
0000
,
0000
0100
0000
0000
,
0000
0010
0000
0000
,
0000
0001
0000
1000
,
0000
0000
0000
0001
,
0000
0000
0000
1000
,
0000
0000
0000
0010
,
0000
0000
0000
0001
,
0000
0001
0000
0100
,
0000
0100
0000
1000
,
0000
1000
0000
0001
,
0000
1000
0000
0000
,
0000
1000
0000
0000
,
0000
0001
0000
0000
,
0000
0001
0000
0000
,
0000
0010
0000
0000
,
0000
0010
0000
0000
,
0000
0100
0000
0000
,
0000
0020
0000
0030
,
0000
0001
0000
0001
,
0000
0001
0000
0000
,
0000
1000
0000
1000
,
0000
1000
0000
0000
,
0000
0000
0020
0000
,
0000
0000
0000
0000
,
0030
0010
0000
0000
,
0000
0000
0000
0200
,
0000
0000
0000
0000
,
0000
0300
0100
0000
,
0001
0000
1000
0001
,
0000
0000
0000
1000
,
0000
0000
0000
0100
,
0000
0000
0000
0010
,
0000
0001
0000
0001
,
0000
0001
0000
0000
,
0000
1000
0000
1000
,
0000
1000
0000
0000
,
0000
0010
0000
0000
;

//---------------dance-single - ----------------
#NOTEDATA:;
#CHARTNAME:;
#STEPSTYPE:dance-single;
#DESCRIPTION:;
#CHARTSTYLE:;
#DIFFICULTY:Easy;
#METER:4;
#RADARVALUES:0.148154,0.216940,0.119935,0.134044,0.000000,147.000000,130.000000,17.000000,19.000000,0.000000,0.000000,0.000000,0.000000,0.000000,0.148154,0.216940,0.119935,0.134044,0.000000,147.000000,130.000000,17.000000,19.000000,0.000000,0.000000,0.000000,0.000000,0.000000;
#CREDIT:led_light;
#NOTES:
0000
0000
0000
0000
,
0000
0000
0000
0000
,
0000
0000
0000
0000
,
0000
0000
0000
0000
,
0000
1000
0001
0000
,
0001
1000
0010
0000
,
0010
0100
0001
0000
,
0001
0020
0000
0000
,
0000
0130
0110
0100
,
0110
0100
1001
0000
,
0001
1000
1001
1000
,
1001
0002
0003
0000
,
0000
0001
1000
0001
,
0001
1000
0001
1000
,
1000
0010
0001
0100
,
1000
0001
0000
0002
,
0003
0001
1001
0020
,
0030
0100
0110
0200
,
0300
0020
0030
0002
,
0003
0000
0000
0001
,
0001
0001
0001
0100
,
0100
0100
0100
1000
,
1000
1000
1000
0010
,
0000
0002
0003
0001
,
0000
0001
1000
0001
,
0000
0020
0030
2000
,
3000
0020
0030
0000
,
0000
0001
1000
0000
,
1000
0001
0100
0000
,
0100
0010
1000
0000
,
1000
0200
0000
0000
,
0000
0310
0110
0010
,
0110
0010
1001
0000
,
1000
0001
1001
0001
,
1001
2000
3000
0000
,
0000
1000
0002
0000
,
0000
2000
0000
0000
,
3003
0001
0000
1000
,
0000
0001
0001
2000
,
0000
0000
0002
0000
,
0000
3003
1000
0000
,
0001
0000
1000
0001
,
0000
0001
1000
0001
,
0000
0010
0100
0010
,
0000
0100
1000
0010
,
0000
0100
0110
0100
,
0110
0100
1001
0000
,
0001
1000
1001
1000
,
1001
0002
1003
0000
,
1000
0002
1003
0000
,
1000
0001
0010
0000
,
0010
0100
0000
0000
;

//---------------dance-single - ----------------
#NOTEDATA:;
#CHARTNAME:;
#STEPSTYPE:dance-single;
#DESCRIPTION:;
#CHARTSTYLE:;
#DIFFICULTY:Medium;
#METER:8;
#RADARVALUES:0.302356,0.343489,0.056440,0.310419,0.010582,300.000000,292.000000,8.000000,44.000000,0.000000,0.000000,0.000000,0.000000,0.000000,0.302356,0.343489,0.056440,0.310419,0.010582,300.000000,292.000000,8.000000,44.000000,0.000000,0.000000,0.000000,0.000000,0.000000;
#CREDIT:led_light;
#NOTES:
0000
0000
0000
0000
,
0000
0000
0000
0000
,
0000
0000
0000
0000
,
0000
0000
0000
0000
,
0000
0000
0010
0000
0100
0001
0001
0000
,
0001
0000
0001
0000
0010
1000
1000
0000
,
1000
0000
1000
0000
0100
0001
0001
0000
,
0001
0000
0010
0010
0200
0300
0200
0320
,
0130
2000
3001
0001
0001
0002
0013
0010
,
0010
0020
1030
1000
1000
2000
3100
0020
,
0130
0100
1000
1000
1000
2000
3010
0010
,
0010
0020
0031
0010
0020
1030
0020
0031
,
2000
3000
0100
0000
0001
0100
1000
0000
,
0001
0010
1000
0000
0001
0100
1000
0000
,
0001
0010
1000
0000
1000
0100
0001
0000
,
1000
0010
0001
0000
0000
0000
0101
0000
,
0010
0000
0001
1000
1000
0000
1100
0000
,
0010
0000
1000
0001
0001
0000
0010
0100
,
0100
0000
0100
0010
0010
0000
2002
0000
,
3003
0000
0000
0000
0000
0000
0001
0001
,
0001
0001
1000
1000
1000
1000
0010
0010
,
0010
0010
0001
0001
0001
0001
0100
0100
,
0100
0100
1000
1000
1000
1000
0001
0000
,
0000
0000
2002
3003
1001
0000
0001
0100
,
0100
0000
0001
1000
0100
1000
0001
0001
,
0001
0000
1000
0100
1100
0000
0001
0100
,
0101
0000
0010
0100
0110
0000
0000
0000
,
0000
0000
0010
0000
0100
1000
1000
0000
,
1000
0000
1000
0000
0010
0001
0001
0000
,
0001
0000
0001
0000
0100
1000
1000
0000
,
1000
0000
0010
0010
0200
0300
0200
0320
,
0130
0002
1003
1000
1000
2000
3010
0010
,
0010
0020
0031
0001
0001
0002
0103
0020
,
0130
0100
0001
0001
0001
0002
0013
0010
,
0010
0020
1030
0010
0020
0031
0020
1030
,
0002
0003
1000
0000
0002
0100
0100
0000
,
1003
0020
0100
0000
0001
0001
0001
0000
,
1030
0001
1000
1000
0001
0000
0100
0000
,
0010
1000
0001
0000
0001
0000
2000
0100
,
0100
0000
3001
0020
0100
0000
1000
1000
,
1000
0000
0031
1000
0001
1000
0100
0000
,
0010
0100
1000
0000
0001
0000
0010
0000
,
0100
0000
1000
1000
1000
0000
1000
0000
,
0010
0000
0001
0001
0001
0000
0001
0000
,
0100
0000
0000
0000
1000
0000
1000
0000
1000
0000
0000
0000
0010
0010
0200
0300
,
0000
0010
0100
0001
1000
0000
1000
0000
1000
0000
2000
0000
3010
0000
0010
0000
,
0010
0020
0031
0001
0001
0002
0103
0020
,
0130
0100
0001
0001
0001
0002
0013
0010
,
0010
0020
1030
0010
0020
0031
0020
1030
,
0001
1000
0002
0003
0001
1000
0100
0000
,
1000
0001
0100
0000
0010
1000
0001
0000
,
0010
0100
1000
0000
0000
0000
0000
0000
;

//---------------dance-single - ----------------
#NOTEDATA:;
#CHARTNAME:;
#STEPSTYPE:dance-single;
#DESCRIPTION:;
#CHARTSTYLE:;
#DIFFICULTY:Challenge;
#METER:13;
#RADARVALUES:0.489817,0.560429,0.402133,0.218704,0.409188,486.000000,429.000000,57.000000,31.000000,0.000000,0.000000,0.000000,0.000000,0.000000,0.489817,0.560429,0.402133,0.218704,0.409188,486.000000,429.000000,57.000000,31.000000,0.000000,0.000000,0.000000,0.000000,0.000000;
#CREDIT:led_light;
#NOTES:
0000
0000
0000
0000
,
0000
0000
0000
0000
,
0000
0000
0000
0000
,
0000
0000
0000
0000
,
0000
0000
0000
0000
0010
0000
0000
0100
0010
0000
1000
0000
0100
0000
0000
1000
,
0100
0001
0100
0000
1000
0000
0000
0010
0001
0000
0010
0000
1000
0000
0000
0100
,
0010
0100
0010
0000
1000
0000
0000
0010
0001
0000
0001
0000
1000
0000
0000
0010
,
0100
0000
0000
0010
0000
0000
1000
0000
0000
0000
0000
0000
0100
0000
0000
0000
0000
0000
0010
0000
0000
0000
0000
0000
0220
0000
0000
0000
0000
0000
0330
0000
0000
0000
0000
0000
1000
0000
0100
0000
0010
0000
0001
0000
0010
0000
0100
0000
,
1000
0000
0010
0100
0001
0010
0110
0000
0000
0100
0000
0000
1100
0000
0000
0101
0000
0000
0100
0000
0000
0100
0000
0000
,
1100
0101
0010
0010
1010
0011
1000
0010
,
0110
0000
0001
0010
0100
0000
0100
0000
1100
0000
0101
0000
0100
0000
0100
0000
,
1100
0000
0101
0000
1000
0000
0100
0000
0110
0000
0100
1000
0020
0000
0130
0001
,
0020
0000
0030
0000
0100
0000
0000
1000
0010
0000
0001
0000
0010
0000
0000
0010
,
0100
0001
1000
0000
0001
0000
0000
1000
0010
0000
0100
0000
0001
0000
0000
0010
,
0100
1000
0001
0000
1000
0000
0000
0100
0010
0000
0010
0000
0001
0000
0000
0001
,
0100
0010
1000
0000
0001
0000
0000
0000
0000
0000
0000
0000
0220
0000
0330
1000
,
0001
0000
0100
0000
0010
0000
0100
0001
1000
0010
0000
0100
0001
0000
1000
0000
,
0100
0000
1000
0000
0001
0000
0100
0000
0001
1000
0000
0001
1000
0001
1000
0000
,
1100
0000
0000
0000
1000
0000
0001
0000
0100
0001
0100
0010
2000
0000
0000
0000
,
3001
0000
0000
0000
0000
0000
0000
0000
0001
0000
0000
0000
1100
0000
0001
0100
,
0010
0000
1100
0000
0101
0000
1000
0100
0010
0100
1000
0000
0011
0000
1000
0010
,
0100
0000
0011
0000
1010
0000
0001
0010
0100
0010
0001
0000
1010
0000
0001
0010
,
0100
0000
1010
0000
0011
0000
1000
0010
0100
0010
1000
0000
0101
0000
0000
0000
,
0000
0000
0000
0000
0022
0000
0033
0100
1000
0000
0001
0010
0100
1000
0100
1000
,
0001
0000
1000
0000
1100
0000
0001
0000
0101
0000
0001
0000
1000
0100
1000
0100
,
0010
0000
0000
0000
0100
0000
1000
0000
0001
0000
0000
0100
0000
0000
0001
0000
1000
0000
0000
0000
0100
0000
0000
0000
1000
0000
0000
0100
0000
0000
0010
0000
,
0001
0000
0000
0000
1000
0000
0000
0000
0001
0000
0000
0100
0000
0000
0010
0000
2000
0000
0000
0000
0000
0000
0000
0000
0000
0000
0000
0000
0000
0000
0000
0000
,
3000
0000
0000
0000
0010
0000
0000
0100
0010
0000
1000
0000
0100
0000
0000
1000
,
0100
0001
0100
0000
1000
0000
0000
0010
0001
0000
0010
0000
1000
0000
0000
0100
,
0010
0100
0010
0000
1000
0000
0000
0010
0001
0000
0001
0000
1000
0000
0000
0010
,
0100
0000
0000
0010
0000
0000
1000
0000
0000
0000
0000
0000
0100
0000
0000
0000
0000
0000
0010
0000
0000
0000
0000
0000
0220
0000
0000
0000
0000
0000
0330
0000
0000
0000
0000
0000
1000
0000
0100
0000
0010
0000
0001
0000
0010
0000
0100
0000
,
1000
0000
0010
0100
0001
0010
0110
0000
0000
0100
0000
0000
1100
0000
0000
0101
0000
0000
0100
0000
0000
0100
0000
0000
,
1100
0101
0010
0010
1010
0011
1000
0010
,
0110
0000
0001
0010
0100
0000
0100
0000
1100
0000
0101
0000
0100
0000
0100
0000
,
1100
0000
0101
0000
1000
0000
0100
0000
0110
0000
0100
1000
0020
0000
0130
0001
,
0020
0000
0030
0000
0100
0000
0000
0010
0002
0000
0010
0000
0010
0000
0003
0010
,
0100
1000
0020
0000
0100
0000
0030
0100
0010
0000
1000
0000
0010
0000
0000
0100
,
0020
0000
2030
0000
3002
0000
0013
0100
0010
0000
0100
0000
1000
0000
0000
0001
,
0010
0100
1000
0000
0001
0000
0000
0000
0100
0000
0000
0010
2000
0000
0010
0000
,
0010
0000
3000
0010
0100
0001
0020
0000
0100
0000
0030
0100
0010
0000
0001
0000
,
0010
0000
0000
0100
0020
0000
0032
0000
2003
0000
3010
0100
0010
0000
0100
0001
,
1000
0000
0100
0010
0100
1000
0001
0000
1000
0000
0000
0000
0100
0000
0000
0010
,
0100
0000
1000
0000
0010
0000
0100
0000
0010
0001
0010
0000
1000
0000
0000
0100
,
0010
0000
0100
0000
1000
0000
0001
0010
0200
0000
0310
0000
1000
0000
0010
0000
,
0100
0000
0100
0000
0001
0100
1000
0000
2000
0000
3001
0000
0100
0010
0220
0330
,
0000
1000
0100
0010
0002
0000
0013
0100
0110
0000
0000
0000
0100
0000
0000
0000
1100
0000
0000
0000
0101
0000
0000
0000
0100
0000
0000
0000
0100
0000
0000
0000
,
1100
0101
0010
0010
1010
0011
1000
0010
,
0110
0000
0001
0010
0100
0000
0100
0000
1100
0000
0101
0000
0100
0000
0100
0000
,
1100
0000
0101
0000
1000
0000
0100
0000
0110
0000
0100
1000
0020
0000
0130
0001
,
0010
0100
0010
0000
0002
0000
0003
0010
0100
0000
0100
0000
0001
0000
0000
0100
,
0010
0001
1000
0000
0100
0000
0000
1000
0010
0000
0100
0000
1000
0000
0000
0100
,
0010
1000
0001
0000
0100
0000
0000
0000
0000
0000
0000
0000
0000
0000
0000
0000
;

//---------------dance-single - ----------------
#NOTEDATA:;
#CHARTNAME:;
#STEPSTYPE:dance-single;
#DESCRIPTION:;
#CHARTSTYLE:;
#DIFFICULTY:Hard;
#METER:10;
#RADARVALUES:0.350733,0.397724,0.176374,0.126989,0.144627,348.000000,323.000000,25.000000,18.000000,0.000000,0.000000,0.000000,0.000000,0.000000,0.350733,0.397724,0.176374,0.126989,0.144627,348.000000,323.000000,25.000000,18.000000,0.000000,0.000000,0.000000,0.000000,0.000000;
#CREDIT:led_light;
#NOTES:
0000
0000
0000
0000
,
0000
0000
0000
0000
,
0000
0000
0000
0000
,
0000
0000
0000
0000
,
0000
0000
1000
0000
0001
0100
0001
0000
,
0100
0000
0001
0000
1000
0100
1000
0000
,
0100
0000
1000
0000
0010
0100
0010
0000
,
0100
0000
0000
0000
0020
0000
0000
0000
0000
0000
0000
0000
0130
0010
0100
0010
,
0100
0001
0010
0010
1010
0010
0001
0001
,
1001
0001
0100
0100
1100
0100
0000
0001
,
1000
0000
0100
1000
0001
0000
0001
0000
0011
0000
0001
0000
0100
0000
0100
0000
,
0110
0000
0100
0000
0000
0000
0001
0000
1000
0000
0100
0010
0001
0000
0100
0010
,
2000
0000
3000
0000
0001
0000
0000
0010
0001
0000
0010
0000
0100
0000
0000
1000
,
0100
0000
1000
0000
0010
0000
0000
1000
0001
0000
0100
0000
0010
0000
0000
0100
,
0001
0000
0010
0000
0100
0000
0000
0001
0100
0000
1000
0000
0100
0000
0000
1000
,
0010
0100
0001
0000
0000
0000
2020
3030
,
0001
0000
0100
0000
0001
0000
0010
0100
0010
0000
0000
0000
0001
0000
1000
0000
,
0100
0000
1000
0000
0010
0000
0100
0001
1000
0000
0000
0000
0100
0010
0100
0000
,
1100
0000
0010
0100
0101
0100
2000
0000
,
3001
0000
0000
0000
0000
0000
0000
0000
0001
0000
0000
0000
1000
0000
0010
0100
,
0010
0000
0010
0000
0100
0000
0100
0000
0001
1000
0010
0000
0100
0000
0001
1000
,
0001
0000
0001
0000
1000
0000
1000
0000
0100
0010
0001
0000
1000
0000
0010
0100
,
0010
0000
0010
0000
1000
0000
1000
0000
0001
0010
0100
0000
1000
0000
0000
0000
,
0000
0000
0000
0000
2020
0000
3030
0000
0101
0000
0001
0000
0010
0100
1000
0000
,
0001
0000
0000
0000
0010
0000
0010
0000
0110
0000
0001
0000
1000
0010
0100
0000
,
0001
0000
0100
0010
1010
0000
0100
0010
,
0011
0000
1000
0001
2000
0000
3000
0000
,
0000
0000
0001
0000
1000
0010
1000
0000
,
0010
0000
1000
0000
0001
0010
0001
0000
,
0010
0000
0001
0000
0100
0010
0100
0000
,
0010
0000
0000
0000
0200
0000
0000
0000
0000
0000
0000
0000
0310
0100
0010
0100
,
0010
1000
0100
0100
0101
0100
1000
1000
,
1001
1000
0010
0010
0011
0010
0000
1000
,
0001
0000
0010
0001
1000
0000
1000
0000
1100
0000
1000
0000
0010
0000
0010
0000
,
0110
0000
0010
0000
0000
0000
1000
0000
0001
0000
0010
0100
1000
0000
0010
0100
,
0002
0000
0003
0000
1000
0000
0000
0100
2000
0000
0000
0000
0001
0000
0000
0000
,
3100
1000
0020
0000
0100
0000
1000
0000
,
0230
0302
1003
0100
1100
0000
0001
0000
,
0010
0100
1000
0000
0001
0000
0000
0000
0001
0000
0000
0010
0002
0000
0000
0000
,
1000
0000
0013
0001
0200
0000
0010
0000
,
0001
0000
0320
2030
3001
0010
0011
0000
,
1000
0000
0010
0100
0000
0001
1000
0000
0001
0000
0000
0000
1000
0000
0000
0000
,
0100
0010
0100
0000
1000
0000
0001
0000
,
0010
0100
0010
0000
0001
0000
1000
0000
,
0001
0000
0100
0000
0010
0000
0000
0000
1000
0000
0000
0000
0001
1000
0100
0000
,
0000
0001
0100
1000
0010
0000
0010
0000
0011
0000
0010
0000
1000
0000
1000
0000
,
1001
1000
0100
0100
0101
0100
0000
1000
,
0001
0000
0100
0001
1000
0000
1000
0000
1010
0000
1000
0000
0100
0000
0100
0000
,
0110
0000
0100
0000
0000
0000
1000
0000
0001
0000
0100
0010
1000
0000
0100
0010
,
0001
1000
0001
0000
0100
0000
0000
0000
0001
0000
1000
0000
0100
0000
0000
1000
,
0100
0000
0010
0000
0001
0000
0000
0000
1000
0000
0001
0000
0010
0000
0000
0100
,
1000
0001
0100
0000
0000
0000
0000
0000
;

//---------------dance-double - ----------------
#NOTEDATA:;
#CHARTNAME:;
#STEPSTYPE:dance-double;
#DESCRIPTION:;
#CHARTSTYLE:;
#DIFFICULTY:Easy;
#METER:4;
#RADARVALUES:0.142107,0.216940,0.119935,0.134044,0.000000,141.000000,124.000000,17.000000,19.000000,0.000000,0.000000,0.000000,0.000000,0.000000,0.142107,0.216940,0.119935,0.134044,0.000000,141.000000,124.000000,17.000000,19.000000,0.000000,0.000000,0.000000,0.000000,0.000000;
#CREDIT:led_light;
#NOTES:
// measure 0
00000000
00000000
00000000
00000000
,  // measure 1
00000000
00000000
00000000
00000000
,  // measure 2
00000000
00000000
00000000
00000000
,  // measure 3
00000000
00000000
00000000
00000000
,  // measure 4
00000000
00010000
00001000
00000000
,  // measure 5
00001000
00010000
00000010
00000000
,  // measure 6
00000010
00000100
00000001
00000000
,  // measure 7
00000001
00000020
00000000
00000000
,  // measure 8
00000000
00001030
00011000
00000100
,  // measure 9
00001100
00010000
00011000
00000000
,  // measure 10
00001000
00100000
00110000
00001000
,  // measure 11
00011000
02000000
03000000
00000000
,  // measure 12
00000000
00010000
00100000
00010000
,  // measure 13
00000000
10000000
01000000
10000000
,  // measure 14
00000000
00100000
01000000
00100000
,  // measure 15
00000000
01000000
00000000
00020000
,  // measure 16
00030000
00010000
00101000
00020000
,  // measure 17
00030000
00010000
00001100
00020000
,  // measure 18
00030000
00002000
00003000
00020000
,  // measure 19
00030000
00000000
00000000
00001000
,  // measure 20
00001000
00010000
00001000
00000010
,  // measure 21
00000010
00000100
00000010
00000001
,  // measure 22
00000001
00001000
00000001
00000100
,  // measure 23
00000000
00000002
00000003
00000001
,  // measure 24
00000000
00002000
00003000
00001000
,  // measure 25
00000000
00000200
00000300
00020000
,  // measure 26
00030000
00002000
00003000
00000000
,  // measure 27
00000000
00010000
00001000
00000000
,  // measure 28
00001000
00010000
00000010
00000000
,  // measure 29
00000010
00000100
00000001
00000000
,  // measure 30
00000001
00000020
00000000
00000000
,  // measure 31
00000000
00001030
00011000
00000100
,  // measure 32
00001100
00010000
00011000
00000000
,  // measure 33
00001000
00100000
00110000
00001000
,  // measure 34
00011000
02000000
03000000
00000000
,  // measure 35
00000000
00010000
20000000
00000000
,  // measure 36
00000000
00020000
00000000
00000000
,  // measure 37
30030000
10000000
00000000
00010000
,  // measure 38
00000000
01000000
01000000
00002000
,  // measure 39
00000000
00000000
00020000
00000000
,  // measure 40
00000000
00033000
00001000
00000000
,  // measure 41
00010000
00000000
00000100
00010000
,  // measure 42
00000000
00001000
00010000
00001000
,  // measure 43
00000000
00100000
00010000
01000000
,  // measure 44
00000000
00100000
00010000
00001000
,  // measure 45
00000000
00010000
00011000
00100000
,  // measure 46
00110000
00001000
00011000
00000000
,  // measure 47
00010000
00000100
00001100
00010000
,  // measure 48
00011000
00000020
00000030
00000000
,  // measure 49
00000000
00001000
00000000
00001000
,  // measure 50
00000100
00010000
00000000
00001000
,  // measure 51
00010000
00001000
00000000
00000000
;

//---------------dance-double - ----------------
#NOTEDATA:;
#CHARTNAME:;
#STEPSTYPE:dance-double;
#DESCRIPTION:;
#CHARTSTYLE:;
#DIFFICULTY:Medium;
#METER:7;
#RADARVALUES:0.261034,0.325411,0.035275,0.246924,0.010582,259.000000,254.000000,5.000000,35.000000,0.000000,0.000000,0.000000,0.000000,0.000000,0.261034,0.325411,0.035275,0.246924,0.010582,259.000000,254.000000,5.000000,35.000000,0.000000,0.000000,0.000000,0.000000,0.000000;
#CREDIT:led_light;
#NOTES:
// measure 0
00000000
00000000
00000000
00000000
,  // measure 1
00000000
00000000
00000000
00000000
,  // measure 2
00000000
00000000
00000000
00000000
,  // measure 3
00000000
00000000
00000000
00000000
,  // measure 4
00000000
00000000
00000100
00000000
00010000
00001000
00001000
00000000
,  // measure 5
00010000
00000000
00001000
00000000
00010000
01000000
01000000
00000000
,  // measure 6
10000000
00000000
00100000
00000000
10000000
01000000
01000000
00000000
,  // measure 7
00100000
00000000
00001000
01000000
02000000
03000000
00001000
00010000
,  // measure 8
00020000
00031000
00010000
00010000
00010000
00020000
00030100
00000100
,  // measure 9
00000100
00000200
00000310
00000010
00000010
00000020
00000030
00000200
,  // measure 10
00000300
00010000
00001000
00001000
00001000
00002000
00013000
00010000
,  // measure 11
00010000
00020000
00030000
00100000
01000000
00100000
00010000
00100000
,  // measure 12
20000000
30000000
00010000
00000000
00100000
01000000
01000000
00000000
,  // measure 13
10000000
00010000
00010000
00000000
00100000
00001000
00001000
00000000
,  // measure 14
00010000
00001000
00001000
00000000
00000100
00000010
00000010
00000000
,  // measure 15
00000100
00000001
00001000
00000000
00000000
00000000
00000110
00000000
,  // measure 16
00000001
00000000
00001000
00000100
00000100
00000000
00010000
00000000
,  // measure 17
00010000
00000000
00001000
00010000
00010000
00000000
00001000
00010000
,  // measure 18
00100000
00000000
00010000
00100000
10000000
00000000
20020000
00000000
,  // measure 19
30030000
00000000
00000000
01000000
,  // measure 20
01000000
01000000
01000000
00000000
01000000
00000000
00010000
00000000
,  // measure 21
00010000
00010000
00010000
00000000
00010000
00000000
00001000
00000000
,  // measure 22
00001000
00001000
00001000
00000000
00001000
00000000
00010000
00000000
,  // measure 23
00000000
00000000
00022000
00000000
00033000
00000000
00010000
00001000
,  // measure 24
00001000
00000000
00100000
00010000
01000000
00000000
00001000
00010000
,  // measure 25
00010000
00000000
00000100
00001000
00001100
00000000
00000010
00000001
,  // measure 26
00000011
00000000
00000100
00010000
00002000
00000000
00003000
00000000
,  // measure 27
00000000
00000000
01000000
00000000
00001000
00010000
00010000
00000000
,  // measure 28
00001000
00000000
00010000
00000000
00001000
00000100
00000100
00000000
,  // measure 29
00000001
00000000
00000010
00000000
00000001
00000100
00000100
00000000
,  // measure 30
00000010
00000000
00010000
00000100
00000200
00000300
00010000
00001000
,  // measure 31
00002000
00013000
00001000
00001000
00001000
00002000
01003000
01000000
,  // measure 32
01000000
02000000
03100000
00100000
00100000
00200000
00300000
02000000
,  // measure 33
03000000
00001000
00010000
00010000
00010000
00020000
00031000
00001000
,  // measure 34
00001000
00002000
00003000
00000010
00000100
00000010
00001000
00000010
,  // measure 35
00000002
00000003
00001000
00000000
00000002
00000000
00000000
00000000
,  // measure 36
00001003
00002000
00010000
00000000
,  // measure 37
00013000
00000000
00100000
01000000
00100000
00000000
00010000
00000000
,  // measure 38
10000000
00010000
01000000
00000000
00010000
00000000
20000000
00000000
,  // measure 39
00000000
30010000
00020000
00001000
,  // measure 40
00000000
00000000
00031000
00000000
00000010
00000100
00000010
00000000
,  // measure 41
00001000
00000000
00000001
00001000
00000100
00000000
00000100
00000000
,  // measure 42
00000100
00000000
00000000
00010000
00001000
00000000
00010000
00000000
,  // measure 43
00010000
00000000
00000000
00001000
00010000
00000000
00100000
00000000
,  // measure 44
00100000
00000000
00000000
00000000
00000000
00000000
01000000
00000000
00010000
00000000
00000000
00000000
00100000
00100000
02000000
03000000
,  // measure 45
00000000
00010000
00001000
00010000
00001000
00000000
00001000
00000000
00001000
00000000
00002000
00000000
00103000
00000000
00100000
00000000
,  // measure 46
00100000
00200000
01300000
01000000
01000000
02000000
03000000
00200000
,  // measure 47
00300000
00001000
00010000
00010000
00010000
00020000
00031000
00001000
,  // measure 48
00001000
00002000
00003000
00000100
00000010
00000100
00001000
00000100
,  // measure 49
00000002
00000003
00001000
00000000
00000100
00010000
00010000
00000000
,  // measure 50
00000100
00000000
00010000
00000000
00001000
01000000
01000000
00000000
,  // measure 51
00001000
00010000
00000000
00000000
;

//---------------dance-double - ----------------
#NOTEDATA:;
#CHARTNAME:;
#STEPSTYPE:dance-double;
#DESCRIPTION:;
#CHARTSTYLE:;
#DIFFICULTY:Hard;
#METER:10;
#RADARVALUES:0.343678,0.397724,0.176374,0.126989,0.134044,341.000000,316.000000,25.000000,18.000000,0.000000,0.000000,0.000000,0.000000,0.000000,0.343678,0.397724,0.176374,0.126989,0.134044,341.000000,316.000000,25.000000,18.000000,0.000000,0.000000,0.000000,0.000000,0.000000;
#CREDIT:led_light;
#NOTES:
// measure 0
00000000
00000000
00000000
00000000
,  // measure 1
00000000
00000000
00000000
00000000
,  // measure 2
00000000
00000000
00000000
00000000
,  // measure 3
00000000
00000000
00000000
00000000
,  // measure 4
00000000
00000000
00100000
00000000
00001000
00010000
00001000
00000000
,  // measure 5
00010000
00000000
00000100
00000000
00010000
00001000
00010000
00000000
,  // measure 6
00001000
00000000
01000000
00000000
00001000
00010000
00001000
00000000
,  // measure 7
00100000
00000000
00000000
00000000
02000000
00000000
00000000
00000000
00000000
00000000
00000000
00000000
03100000
01000000
00100000
00000000
,  // measure 8
00100000
00010000
01000000
01000000
00001000
00011000
00010000
00010000
,  // measure 9
00000100
00000110
00000100
00000100
00001000
00001001
00000000
00000010
,  // measure 10
00000100
00000000
00000010
00000100
00000010
00000000
00000010
00000000
00001000
00000000
00001100
00000000
00000100
00000000
00000100
00000000
,  // measure 11
00010000
00000000
00011000
00000000
00000000
00000000
00001000
00000000
00100000
00000000
00010000
01000000
00100000
00000000
10000000
01000000
,  // measure 12
00200000
00000000
00300000
00000000
00010000
00000000
00000000
00100000
01000000
00000000
10000000
00000000
01000000
00000000
00000000
10000000
,  // measure 13
00100000
00000000
00010000
00000000
00001000
00000000
00000000
00000100
00000010
00000000
00000100
00000000
00000001
00000000
00000000
00001000
,  // measure 14
00000100
00000000
00000010
00000000
00000100
00000000
00000000
00000001
00000100
00000000
00001000
00000000
00000001
00000000
00000000
00000100
,  // measure 15
00001000
00010000
00001000
00000000
00000000
00000000
00022000
00033000
,  // measure 16
00010000
00000000
01000000
00000000
10000000
00000000
01000000
00100000
01000000
00000000
00000000
00000000
10000000
00000000
00010000
00000000
,  // measure 17
00001000
00000000
00010000
00000000
00001000
00000000
00000001
00001000
00000001
00000000
00000000
00000000
00000100
00000000
00000100
00000000
,  // measure 18
00000110
00000000
00001000
00001000
00011000
00010000
00002000
00000000
,  // measure 19
00013000
00000000
00000000
00000000
00000000
00000000
00000000
00000000
00010000
00000000
00000000
00000000
00001000
00000000
00001000
00010000
,  // measure 20
00001000
00000000
00001000
00000000
00000010
00000000
00000010
00000000
00000001
00000100
00001000
00000000
00010000
00000000
00010000
00001000
,  // measure 21
00010000
00000000
00010000
00000000
00100000
00000000
00100000
00000000
10000000
01000000
00010000
00000000
00001000
00000000
00001000
00010000
,  // measure 22
00001000
00000000
00001000
00000000
00010000
00000000
00010000
00000000
00000100
00000010
00000001
00000000
00001000
00000000
00000000
00000000
,  // measure 23
00000000
00000000
00000000
00000000
00002002
00000000
00003003
00000000
00000110
00000000
00000001
00000000
00000010
00001000
00010000
00000000
,  // measure 24
00001000
00000000
00000000
00000000
00100000
00000000
01000000
00000000
01100000
00000000
00010000
00000000
10000000
00100000
00010000
00000000
,  // measure 25
00001000
00000000
00010000
00010000
00010100
00000000
00001000
00001000
,  // measure 26
00101000
00000000
00010000
00001000
00020000
00000000
00030000
00000000
,  // measure 27
00000000
00000000
00000010
00000000
00010000
00001000
00010000
00000000
,  // measure 28
00001000
00000000
01000000
00000000
00001000
00010000
00001000
00000000
,  // measure 29
00010000
00000000
00000100
00000000
00010000
00001000
00010000
00000000
,  // measure 30
00000010
00000000
00000000
00000000
00000200
00000000
00000000
00000000
00000000
00000000
00000000
00000000
00000310
00000100
00000010
00000000
,  // measure 31
00000010
00001000
00000100
00000100
00010000
00011000
00001000
00001000
,  // measure 32
01000000
01100000
01000000
01000000
00010000
10010000
00000000
00100000
,  // measure 33
01000000
00000000
00100000
01000000
00100000
00000000
00100000
00000000
00010000
00000000
01010000
00000000
01000000
00000000
01000000
00000000
,  // measure 34
00001000
00000000
00011000
00000000
00000000
00000000
00010000
00000000
00000010
00000000
00001000
00000100
00000010
00000000
00000001
00000100
,  // measure 35
00000020
00000000
00000030
00000000
00001000
00000000
00000000
00000100
00020000
00000000
00000000
00000000
00000000
00000000
00000000
00000000
,  // measure 36
00031000
00100000
00002000
00000000
00010000
00000000
00000000
00000000
,  // measure 37
00203000
00320000
01030000
00010000
10010000
00000000
01000000
00000000
,  // measure 38
10000000
00100000
01000000
00000000
00010000
00000000
00000000
00000000
00010000
00000000
00000000
00100000
00002000
00000000
00000000
00000000
,  // measure 39
00000000
00000000
00013000
00000100
00020000
00000000
00001000
00000000
,  // measure 40
00000000
00000000
00030200
00002300
00003010
00001000
00001001
00000000
,  // measure 41
00000010
00000000
00000001
00000100
00000000
00000010
00001000
00000000
00000100
00000000
00000000
00000000
00010000
00000000
00000000
00000000
,  // measure 42
00000100
00000000
00010000
00001000
00010000
00000000
00000010
00000000
,  // measure 43
00001000
00000000
00000010
00000100
00000010
00000000
00001000
00000000
,  // measure 44
00000100
00000000
00000000
00000000
00010000
00000000
00001000
00000000
00010000
00000000
00000000
00000000
00001000
00010000
01000000
00000000
,  // measure 45
00000000
00100000
00010000
00010000
01000000
00000000
01000000
00000000
00001000
00000000
00011000
00000000
00010000
00000000
00010000
00000000
,  // measure 46
00000100
00000110
00000100
00000100
00001000
00001001
00000000
00000010
,  // measure 47
00000100
00000000
00000010
00000100
00000010
00000000
00000010
00000000
00001000
00000000
00001100
00000000
00000100
00000000
00000100
00000000
,  // measure 48
00010000
00000000
00011000
00000000
00000000
00000000
00001000
00000000
00100000
00000000
00010000
01000000
00100000
00000000
10000000
01000000
,  // measure 49
00100000
00010000
00100000
00000000
01000000
00000000
00000000
00000000
10000000
00000000
01000000
00000000
00010000
00000000
00000000
01000000
,  // measure 50
00010000
00000000
00001000
00000000
00010000
00000000
00000000
00000000
00000100
00000000
00010000
00000000
00001000
00000000
00000000
00010000
,  // measure 51
00001000
00000100
00000001
00000000
00000000
00000000
00000000
00000000
;

//---------------dance-double - ----------------
#NOTEDATA:;
#CHARTNAME:;
#STEPSTYPE:dance-double;
#DESCRIPTION:;
#CHARTSTYLE:;
#DIFFICULTY:Challenge;
#METER:12;
#RADARVALUES:0.464620,0.542351,0.338639,0.218704,0.377441,461.000000,413.000000,48.000000,31.000000,0.000000,0.000000,0.000000,0.000000,0.000000,0.464620,0.542351,0.338639,0.218704,0.377441,461.000000,413.000000,48.000000,31.000000,0.000000,0.000000,0.000000,0.000000,0.000000;
#CREDIT:led_light;
#NOTES:
// measure 0
00000000
00000000
00000000
00000000
,  // measure 1
00000000
00000000
00000000
00000000
,  // measure 2
00000000
00000000
00000000
00000000
,  // measure 3
00000000
00000000
00000000
00000000
,  // measure 4
00000000
00000000
00000000
00000000
00000001
00000000
00000000
00000010
00001000
00000000
00010000
00000000
00001000
00000000
00000000
00100000
,  // measure 5
01000000
00010000
00001000
00000000
00010000
00000000
00000000
01000000
10000000
00000000
01000000
00000000
00100000
00000000
00000000
00010000
,  // measure 6
01000000
00001000
00010000
00000000
00000100
00000000
00000000
00010000
00001000
00000000
00000100
00000000
00000010
00000000
00000000
00001000
,  // measure 7
00000100
00000010
00000001
00000000
00000100
00000000
00000010
00000000
00000220
00000000
00000330
00000000
00000100
00000001
00000100
00000001
,  // measure 8
00000010
00000000
00000100
00010000
00001000
00000000
00001000
00000000
00011000
00000000
00001010
00000000
00001000
00000000
00001000
00000000
,  // measure 9
00011000
00001100
00001000
00001000
00011000
00001010
00000000
00010000
,  // measure 10
00001000
00000000
00100000
01000000
00010000
00000000
00010000
00000000
00011000
00000000
00110000
00000000
00010000
00000000
00010000
00000000
,  // measure 11
00011000
00000000
01010000
00000000
00000000
00000000
00100000
00000000
10000000
00000000
00010000
00100000
02000000
00000000
13000000
01000000
,  // measure 12
00200000
00000000
00300000
00000000
00001000
00000000
00000000
00010000
00000100
00000000
00010000
00000000
00001000
00000000
00000000
00010000
,  // measure 13
00001000
00000100
00001000
00000000
00010000
00000000
00000000
00001000
00100000
00000000
00001000
00000000
00010000
00000000
00000000
00001000
,  // measure 14
00010000
01000000
00010000
00000000
00001000
00000000
00000000
00000100
00000001
00000000
00000100
00000000
00000010
00000000
00000000
00001000
,  // measure 15
00000100
00010000
00001000
00000000
00010000
00000000
00000000
00000000
00000000
00000000
00000000
00000000
00022000
00000000
00033000
00010000
,  // measure 16
00001000
00000000
00010000
00000000
00000100
00000000
00010000
00001000
00010000
00001000
00000000
00100000
00010000
00000000
01000000
00000000
,  // measure 17
00001000
00000000
00010000
00000000
00000100
00000000
00001000
00000010
00001000
00000000
00000000
00000001
00000010
00000100
00001000
00000000
,  // measure 18
00011000
00000000
00000000
00000000
00010000
00000000
00100000
00000000
01000000
10000000
01000000
00100000
00020000
00000000
00000000
00000000
,  // measure 19
10030000
00000000
00000000
00000000
00000000
00000000
00000000
00000000
10000000
00000000
00000000
00000000
11000000
00000000
01000000
00010000
,  // measure 20
01000000
00000000
11000000
00000000
01010000
00000000
00100000
00010000
00001000
00010000
00100000
00000000
00011000
00000000
00001000
00000010
,  // measure 21
00001000
00000000
00011000
00000000
00001010
00000000
00000100
00000010
00000001
00000010
00000100
00000000
00000011
00000000
00000010
00001000
,  // measure 22
00000010
00000000
00000011
00000000
00001010
00000000
00000100
00001000
00010000
00001000
00000100
00000000
00011000
00000000
00000000
00000000
,  // measure 23
00000000
00000000
00000000
00000000
20020000
00000000
30030000
10000000
00010000
00000000
00100000
01000000
10000000
01000000
10000000
00000000
,  // measure 24
00010000
00000000
01000000
00000000
00001000
00000000
00001000
00000000
00011000
00000000
00100000
00000000
00001000
00010000
00001000
00010000
,  // measure 25
00000100
00000000
00000000
00000000
00010000
00000000
00001000
00000000
00010000
00000000
00000000
00001000
00000000
00000000
00000100
00000000
00000001
00000000
00000000
00000000
00000100
00000000
00000000
00000000
00001000
00000000
00000000
00010000
00000000
00000000
01000000
00000000
,  // measure 26
10000000
00000000
00000000
00000000
01000000
00000000
00000000
00000000
00010000
00000000
00000000
00001000
00000000
00000000
00000100
00000000
00000002
00000000
00000000
00000000
00000000
00000000
00000000
00000000
00000003
00000000
00000000
00000000
00000000
00000000
00000000
00000000
,  // measure 27
00000000
00000000
00000000
00000000
00000001
00000000
00000000
00000010
00001000
00000000
00010000
00000000
00001000
00000000
00000000
00100000
,  // measure 28
01000000
00010000
00001000
00000000
00010000
00000000
00000000
01000000
10000000
00000000
01000000
00000000
00100000
00000000
00000000
00010000
,  // measure 29
01000000
00001000
00010000
00000000
00000100
00000000
00000000
00010000
00001000
00000000
00000100
00000000
00000010
00000000
00000000
00001000
,  // measure 30
00000100
00000010
00000001
00000000
00000100
00000000
00000010
00000000
00000220
00000000
00000330
00000000
00000100
00000001
00000100
00000001
,  // measure 31
00000010
00000000
00000100
00010000
00001000
00000000
00001000
00000000
00011000
00000000
00001010
00000000
00001000
00000000
00001000
00000000
,  // measure 32
00011000
00001100
00001000
00001000
00011000
00001010
00000000
00010000
,  // measure 33
00001000
00000000
00100000
01000000
00010000
00000000
00010000
00000000
00011000
00000000
00110000
00000000
00010000
00000000
00010000
00000000
,  // measure 34
00011000
00000000
01010000
00000000
00000000
00000000
00100000
00000000
10000000
00000000
00010000
00100000
02000000
00000000
13000000
01000000
,  // measure 35
00200000
00000000
00300000
00000000
00001000
00000000
00000000
00010000
00000200
00000000
00001000
00000000
00001000
00000000
00000300
00000100
,  // measure 36
00010000
00001000
02000000
00000000
00100000
00000000
00000000
03010000
00100000
00000000
01000000
00000000
01000000
00000000
00000000
00010000
,  // measure 37
00002000
00000000
00023000
00000000
00030200
00000000
00001300
00000000
00001001
00000000
00000001
00000000
00000100
00000000
00000000
00000001
,  // measure 38
00000010
00000100
00001000
00000000
00000100
00000000
00000000
00000000
00010000
00000000
00000000
00001000
00200000
00000000
00010000
00000000
,  // measure 39
00010000
00000000
00300000
00100000
00001000
00010000
00000020
00000000
00000100
00000000
00000000
00001030
00000100
00000000
00000010
00000000
,  // measure 40
00000010
00000000
00000000
00001000
00020000
00000000
00032000
00000000
00203000
00000000
00310000
10000000
00010000
00000000
01000000
00100000
,  // measure 41
10000000
00000000
00010000
00100000
01000000
10000000
00010000
00000000
10000000
00000000
00000000
00000000
01000000
00000000
00000000
00010000
,  // measure 42
00001000
00000000
00010000
00000000
01000000
00000000
10000000
00000000
00100000
01000000
00100000
00000000
10000000
00000000
00000000
01000000
,  // measure 43
00100000
00000000
01000000
00000000
10000000
00000000
00100000
01000000
00200000
00000000
00310000
00000000
00001000
00000000
00000000
00010000
,  // measure 44
00000100
00000000
00010000
00000000
00001000
00000010
00000001
00000000
00002000
00000000
00003001
00000000
00000100
00000010
00000220
00000330
,  // measure 45
00000000
00000010
00000100
00000001
00000020
00000000
00000130
00010000
00001000
00000000
00000000
00000000
00001000
00000000
00000000
00000000
00011000
00000000
00000000
00000000
00001010
00000000
00000000
00000000
00001000
00000000
00000000
00000000
00001000
00000000
00000000
00000000
,  // measure 46
00011000
00001100
00001000
00001000
00011000
00001010
00000000
00010000
,  // measure 47
00001000
00000000
00100000
01000000
00010000
00000000
00010000
00000000
00011000
00000000
00110000
00000000
00010000
00000000
00010000
00000000
,  // measure 48
00011000
00000000
01010000
00000000
00000000
00000000
00100000
00000000
10000000
00000000
00010000
00100000
02000000
00000000
13000000
01000000
,  // measure 49
00100000
00010000
00100000
00000000
02000000
00000000
03000000
10000000
00010000
00000000
01000000
00000000
01000000
00000000
00000000
01000000
,  // measure 50
00001000
00010000
00000010
00000000
00000100
00000000
00000000
00000001
00001000
00000000
00000100
00000000
00000100
00000000
00000000
00000100
,  // measure 51
00010000
00001000
00010000
00000000
00001000
00000000
00000000
00000000
00000000
00000000
00000000
00000000
00000000
00000000
00000000
00000000
;
